osu file format v14

[General]
AudioFilename: audio.mp3
AudioLeadIn: 0
PreviewTime: 56888
Countdown: 0
SampleSet: Soft
StackLeniency: 0.7
Mode: 0
LetterboxInBreaks: 0
WidescreenStoryboard: 0

[Editor]
DistanceSpacing: 1.4
BeatDivisor: 4
GridSize: 4
TimelineZoom: 1

[Metadata]
Title:Re:TrymenT
TitleUnicode:Re:TrymenT
Artist:Hotaru Murasaki
ArtistUnicode:紫咲ほたる
Creator:Revia
Version:Dailycare's Insane
Source:Re:LieF〜親愛なるあなたへ〜
Tags:rask relief retryment opening op short eroge visual novel 甘利紗陽 Cellina ProEzreal Beomsan Dailycare Enon HabiHolic Len
BeatmapID:1407446
BeatmapSetID:651062

[Difficulty]
HPDrainRate:5
CircleSize:3.7
OverallDifficulty:7
ApproachRate:8.7
SliderMultiplier:1.18
SliderTickRate:1

[Events]
//Background and Video events
0,0,"Re.png",0,0
//Break Periods
//Storyboard Layer 0 (Background)
//Storyboard Layer 1 (Fail)
//Storyboard Layer 2 (Pass)
//Storyboard Layer 3 (Foreground)
//Storyboard Sound Samples

[TimingPoints]
1941,315.789473684211,4,2,1,40,1,0
1941,-142.857142857143,4,2,1,40,0,0
12046,-90.9090909090909,4,2,1,75,0,0
22151,-142.857142857143,4,2,1,40,0,0
42046,-105.263157894737,4,2,1,40,0,0
42362,-105.263157894737,4,2,1,50,0,0
48362,-105.263157894737,4,2,1,60,0,0
52467,-90.9090909090909,4,2,1,60,0,0
56256,-90.9090909090909,4,2,1,40,0,0
56888,-80,4,2,1,40,0,0
57204,-80,4,2,1,60,0,0
57519,-80,4,2,1,75,0,1
57993,-90.9090909090909,4,2,1,75,0,1
60046,-80,4,2,1,75,0,1
60519,-90.9090909090909,4,2,1,75,0,1
68493,-90.9090909090909,4,2,1,20,0,1
68572,-90.9090909090909,4,2,1,75,0,1
71651,-90.9090909090909,4,2,1,20,0,1
71730,-90.9090909090909,4,2,1,75,0,1
77730,-142.857142857143,4,2,1,40,0,0

[Colours]
Combo1 : 71,172,254
Combo2 : 220,147,255
Combo3 : 253,130,130
Combo4 : 179,255,102

[HitObjects]
125,127,1941,6,0,P|115:65|104:4,2,123.899996218872,2|2|2,0:0|0:0|0:0,0:0:0:0:
223,107,3204,2,0,P|280:129|340:150,2,123.899996218872,2|2|2,0:0|0:0|0:0,0:0:0:0:
182,204,4467,2,0,P|133:242|85:283,2,123.899996218872,2|2|2,0:0|0:0|0:0,0:0:0:0:
223,107,5730,5,2,0:0:0:0:
125,127,6204,1,2,0:0:0:0:
234,281,6677,1,2,0:0:0:0:
399,211,6993,6,0,P|442:212|516:249,2,123.899996218872,2|2|2,0:0|0:0|0:0,0:0:0:0:
309,170,8256,2,0,P|295:139|293:86,1,82.5999974792481,2|0,0:0|0:0,0:0:0:0:
347,275,8888,2,0,P|327:302|282:330,1,82.5999974792481,0|2,0:0|0:0,0:0:0:0:
309,170,9519,5,2,0:0:0:0:
399,211,9993,1,2,0:0:0:0:
286,329,10467,1,2,0:0:0:0:
248,241,10783,5,2,0:0:0:0:
385,314,11256,1,2,0:0:0:0:
497,169,11730,1,0,0:0:0:0:
388,29,12046,6,0,P|325:20|257:67,1,129.800003961182,4|0,0:0|3:0,0:0:0:0:
157,146,12519,1,0,0:0:0:0:
254,211,12677,2,0,L|238:123,1,64.9000019805909,0|0,0:0|3:0,0:0:0:0:
184,21,12993,1,0,3:0:0:0:
184,21,13309,6,0,P|147:57|46:53,1,129.800003961182,2|0,3:2|3:0,0:0:0:0:
25,135,13783,2,0,P|34:173|53:270,1,129.800003961182,2|8,0:0|3:0,0:0:0:0:
115,323,14256,1,2,3:2:0:0:
137,239,14414,1,0,0:0:0:0:
249,310,14572,6,0,P|297:302|395:283,1,129.800003961182,4|2,0:0|3:2,0:0:0:0:
448,236,15046,2,0,P|436:290|478:362,2,129.800003961182,2|2|2,0:0|0:0|0:0,0:0:0:0:
370,196,15835,1,0,3:0:0:0:
381,384,15993,5,0,0:0:0:0:
381,384,16072,1,0,0:0:0:0:
381,384,16151,1,2,3:2:0:0:
512,282,16309,1,0,3:0:0:0:
374,201,16467,2,0,L|285:214,1,64.9000019805909,4|0,3:0|0:0,0:0:0:0:
364,65,16783,2,0,L|453:52,1,64.9000019805909,2|0,3:0|0:0,0:0:0:0:
296,122,17098,6,0,P|252:131|170:93,1,129.800003961182,6|0,0:0|3:0,0:0:0:0:
98,59,17572,2,0,P|110:103|130:192,1,129.800003961182,2|0,0:0|0:0,0:0:0:0:
201,276,18046,2,0,L|210:211,1,64.9000019805909,0|2,3:0|0:0,0:0:0:0:
42,182,18362,6,0,P|12:213|20:306,1,129.800003961182,2|0,0:0|3:0,0:0:0:0:
90,343,18835,2,0,B|173:332|133:386|236:363,1,129.800003961182,2|2,0:0|0:0,0:0:0:0:
286,305,19309,1,0,0:0:0:0:
201,276,19467,1,0,0:0:0:0:
250,152,19625,6,0,P|255:181|263:241,1,64.9000019805909,6|0,0:0|0:0,0:0:0:0:
455,242,19941,2,0,P|449:212|442:153,1,64.9000019805909,0|0,0:0|0:0,0:0:0:0:
343,106,20256,2,0,L|360:249,1,129.800003961182,6|0,0:0|0:0,0:0:0:0:
407,325,20730,2,0,L|401:373,2,32.4500009902954,0|0|2,0:0|0:0|0:0,0:0:0:0:
407,325,22151,6,0,P|376:312|311:320,1,82.5999974792481,4|2,0:0|0:0,0:0:0:0:
261,363,22783,2,0,P|272:304|281:228,1,123.899996218872,0|0,0:0|0:0,0:0:0:0:
228,172,23414,5,2,0:0:0:0:
163,230,23730,1,0,0:0:0:0:
92,185,24046,1,2,0:0:0:0:
110,105,24362,1,0,0:0:0:0:
194,96,24677,6,0,P|222:75|259:45,1,82.5999974792481,2|2,0:0|0:0,0:0:0:0:
336,79,25309,2,0,P|391:123|382:181,1,123.899996218872,2|0,0:0|0:0,0:0:0:0:
372,256,25941,5,0,0:0:0:0:
306,201,26256,1,2,0:0:0:0:
220,191,26572,1,0,0:0:0:0:
146,225,26888,1,2,0:0:0:0:
99,293,27204,6,0,P|72:282|20:268,1,82.5999974792481,0|0,3:0|0:0,0:0:0:0:
0,151,27835,2,0,P|27:162|79:176,1,82.5999974792481,2|0,0:0|0:0,0:0:0:0:
146,225,28309,2,0,P|182:196|178:117,1,123.899996218872,0|2,0:0|0:0,0:0:0:0:
122,64,29098,5,0,0:0:0:0:
201,39,29414,1,2,0:0:0:0:
260,96,29730,6,0,P|305:103|388:122,2,123.899996218872,2|0|2,0:0|0:0|0:0,0:0:0:0:
260,96,30993,1,0,0:0:0:0:
321,184,31151,5,0,0:0:0:0:
364,33,31309,1,2,0:0:0:0:
461,150,31467,1,0,0:0:0:0:
381,120,31625,5,0,1:0:0:0:
451,63,31783,1,2,0:0:0:0:
461,150,31941,2,0,P|456:178|452:208,1,41.2999987396241,0|2,0:0|0:0,0:0:0:0:
416,330,32256,6,0,P|397:294|404:246,1,82.5999974792481,4|2,0:0|0:0,0:0:0:0:
334,211,32888,1,0,0:0:0:0:
281,271,33046,2,0,L|191:282,1,82.5999974792481,2|0,0:0|0:0,0:0:0:0:
145,340,33519,5,0,0:0:0:0:
70,313,33835,1,2,0:0:0:0:
26,242,34151,1,0,0:0:0:0:
20,163,34467,1,2,0:0:0:0:
66,96,34783,6,0,P|100:87|159:75,1,82.5999974792481,0|2,0:0|0:0,0:0:0:0:
207,24,35414,1,0,0:0:0:0:
225,103,35572,2,0,P|262:123|316:117,1,82.5999974792481,0|2,0:0|0:0,0:0:0:0:
379,93,36046,5,0,0:0:0:0:
364,176,36362,1,2,0:0:0:0:
324,248,36677,1,0,0:0:0:0:
255,292,36993,1,2,0:0:0:0:
326,334,37309,5,0,3:0:0:0:
249,207,37625,1,0,0:0:0:0:
378,254,37941,2,0,L|468:242,1,82.5999974792481,2|0,0:0|0:0,0:0:0:0:
504,173,38414,2,0,P|516:143|484:60,1,123.899996218872,0|2,0:0|0:0,0:0:0:0:
413,105,39204,1,2,0:0:0:0:
365,35,39519,1,2,0:0:0:0:
292,73,39835,6,0,P|247:82|123:115,1,165.199994958496,2|2,0:0|0:0,0:0:0:0:
131,112,40783,1,0,0:0:0:0:
104,40,40941,2,0,P|141:34|194:64,1,82.5999974792481,0|0,0:0|0:0,0:0:0:0:
200,174,41414,5,2,0:0:0:0:
86,215,41572,1,0,0:0:0:0:
131,112,41730,5,2,0:0:0:0:
190,265,41888,1,0,0:0:0:0:
286,148,42046,2,0,P|317:152|351:159,1,56.0499985033036,2|0,0:0|0:0,0:0:0:0:
502,240,42362,6,0,P|456:250|388:207,1,112.099997006607,4|0,0:0|3:0,0:0:0:0:
232,181,42835,2,0,P|293:167|357:152,1,112.099997006607,0|0,0:0|0:0,0:0:0:0:
412,106,43309,1,0,3:0:0:0:
324,250,43467,2,0,P|262:263|198:278,1,112.099997006607,8|8,3:0|3:0,0:0:0:0:
146,149,43941,1,4,3:0:0:0:
146,149,44256,6,0,L|156:211,1,56.0499985033036,0|0,3:0|0:0,0:0:0:0:
105,357,44572,2,0,L|113:301,1,56.0499985033036,2|0,3:0|0:0,0:0:0:0:
240,177,44888,6,0,P|250:213|205:279,1,112.099997006607,4|0,0:0|3:0,0:0:0:0:
69,225,45362,2,0,L|56:107,1,112.099997006607,0|0,0:0|0:0,0:0:0:0:
99,39,45835,1,0,3:0:0:0:
198,131,45993,2,0,L|119:148,1,56.0499985033036,8|0,3:0|0:0,0:0:0:0:
22,79,46309,1,8,3:0:0:0:
185,24,46467,2,0,L|198:-1,2,28.0249992516518,0|0|0,3:0|0:0|0:0,0:0:0:0:
143,142,46783,5,8,0:0:0:0:
316,111,46941,1,8,3:0:0:0:
191,229,47098,1,12,3:0:0:0:
378,260,47256,1,8,3:0:0:0:
200,326,47414,6,0,P|120:314|21:301,1,168.149995509911,4|0,0:0|3:0,0:0:0:0:
33,302,48046,2,0,P|68:259|61:193,1,112.099997006607,8|0,0:0|3:0,0:0:0:0:
0,152,48519,1,0,3:0:0:0:
165,91,48835,1,8,0:0:0:0:
99,39,48993,2,0,L|230:56,1,112.099997006607,0|8,0:0|0:0,0:0:0:0:
314,7,49467,1,8,0:0:0:0:
362,72,49625,1,0,3:0:0:0:
431,33,49783,1,8,3:0:0:0:
502,121,49941,6,0,P|523:164|460:282,1,168.149995509911,4|0,0:0|0:0,0:0:0:0:
482,269,50572,2,0,L|363:253,1,112.099997006607,8|0,0:0|3:0,0:0:0:0:
303,307,51046,1,0,3:0:0:0:
303,307,51519,5,8,0:0:0:0:
363,165,51677,1,0,0:0:0:0:
235,183,51835,2,0,L|315:205,1,56.0499985033036,8|0,0:0|3:0,0:0:0:0:
370,302,52151,2,0,L|290:324,1,56.0499985033036,8|0,3:0|0:0,0:0:0:0:
440,187,52467,6,0,P|498:180|502:247,1,129.800003961182,4|0,3:2|3:0,0:0:0:0:
496,95,52941,1,0,0:0:0:0:
496,95,53019,1,0,0:0:0:0:
496,95,53098,2,0,P|489:51|486:17,1,64.9000019805909,0|0,3:0|0:0,0:0:0:0:
353,100,53414,2,0,P|360:144|363:178,1,64.9000019805909,0|0,3:0|0:0,0:0:0:0:
321,251,53730,5,0,3:0:0:0:
193,178,53888,1,0,0:0:0:0:
261,122,54046,5,0,3:0:0:0:
230,260,54204,1,0,0:0:0:0:
109,197,54362,2,0,P|77:199|36:209,1,64.9000019805909,0|0,3:0|0:0,0:0:0:0:
78,69,54677,2,0,P|110:67|151:57,1,64.9000019805909,0|0,3:0|0:0,0:0:0:0:
157,55,54914,1,0,0:0:0:0:
170,48,54993,1,4,3:2:0:0:
342,336,55309,5,0,3:0:0:0:
426,293,55467,1,0,3:0:0:0:
272,268,55625,1,0,3:0:0:0:
411,200,55783,1,8,3:0:0:0:
310,185,55941,1,8,3:0:0:0:
352,255,56098,5,0,0:0:0:0:
352,255,56888,6,0,L|367:155,1,73.75,4|0,0:0|0:0,0:0:0:0:
264,43,57204,5,0,0:0:0:0:
289,131,57362,1,0,0:0:0:0:
478,108,57519,6,0,P|422:62|350:64,1,147.5,4|8,0:0|0:0,0:0:0:0:
161,156,57993,2,0,L|304:127,1,129.800003961182,0|0,3:0|3:0,0:0:0:0:
169,65,58467,1,8,0:0:0:0:
117,229,58625,2,0,P|61:239|-10:179,1,129.800003961182,0|0,3:0|3:0,0:0:0:0:
67,88,59098,6,0,P|72:127|75:164,1,64.9000019805909,8|0,0:0|0:0,0:0:0:0:
193,298,59414,2,0,P|195:265|200:233,1,64.9000019805909,0|0,3:0|3:0,0:0:0:0:
161,156,59730,1,8,0:0:0:0:
96,320,59888,1,0,0:0:0:0:
278,268,60046,6,0,P|332:262|412:324,1,147.5,0|8,3:0|0:0,0:0:0:0:
509,193,60519,2,0,P|503:156|491:51,1,129.800003961182,0|0,0:0|3:0,0:0:0:0:
361,9,60993,1,8,0:0:0:0:
281,128,61151,2,0,P|362:102|424:88,1,129.800003961182,0|0,3:0|3:0,0:0:0:0:
198,51,61625,6,0,L|187:137,1,64.9000019805909,8|0,0:0|0:0,0:0:0:0:
137,249,61941,2,0,L|128:184,1,64.9000019805909,0|0,3:0|3:0,0:0:0:0:
86,96,62256,2,0,L|46:90,2,32.4500009902954,8|0|0,0:0|0:0|0:0,0:0:0:0:
344,171,62572,6,0,P|279:180|216:194,1,129.800003961182,0|8,3:0|0:0,0:0:0:0:
69,308,63046,1,0,3:0:0:0:
79,319,63125,1,0,3:0:0:0:
90,330,63204,2,0,L|100:246,1,64.9000019805909,0|0,3:0|3:0,0:0:0:0:
26,166,63519,1,8,0:0:0:0:
131,115,63677,6,0,P|163:76|148:-9,1,129.800003961182,0|0,3:0|3:0,0:0:0:0:
257,125,64151,1,8,0:0:0:0:
298,46,64309,1,0,0:0:0:0:
376,84,64467,2,0,P|411:93|450:96,1,64.9000019805909,0|0,3:0|3:0,0:0:0:0:
370,268,64783,2,0,P|335:259|296:256,1,64.9000019805909,8|0,0:0|0:0,0:0:0:0:
336,173,65098,6,0,P|405:173|458:219,1,129.800003961182,4|8,0:0|0:0,0:0:0:0:
480,290,65572,1,0,0:0:0:0:
315,348,65730,6,0,P|246:348|193:302,1,129.800003961182,4|8,0:0|0:0,0:0:0:0:
170,232,66204,1,0,0:0:0:0:
253,181,66362,6,0,P|265:219|260:267,1,64.9000019805909,4|0,0:0|3:0,0:0:0:0:
89,284,66677,2,0,P|77:246|82:198,1,64.9000019805909,8|0,0:0|0:0,0:0:0:0:
168,133,66993,1,8,3:0:0:0:
168,133,67151,1,4,3:0:0:0:
46,82,67309,1,8,0:0:0:0:
46,82,67625,6,0,P|107:64|191:35,1,129.800003961182,4|8,0:0|0:0,0:0:0:0:
253,76,68098,1,0,3:0:0:0:
428,52,68256,2,0,P|396:27|323:36,1,97.3500029708863,0|0,3:0|3:0,0:0:0:0:
331,20,68572,2,0,L|342:98,1,64.9000019805909,8|0,0:0|0:0,0:0:0:0:
389,262,68888,6,0,P|425:216|400:134,1,129.800003961182,4|8,0:0|0:0,0:0:0:0:
292,157,69362,1,0,3:0:0:0:
303,276,69519,2,0,L|287:352,1,64.9000019805909,0|0,3:0|3:0,0:0:0:0:
205,381,69835,1,8,0:0:0:0:
149,202,69993,1,0,0:0:0:0:
79,327,70151,6,0,P|120:319|171:309,1,64.9000019805909,4|0,0:0|3:0,0:0:0:0:
170,74,70467,2,0,P|159:129|147:212,1,129.800003961182,8|0,0:0|3:0,0:0:0:0:
225,262,70941,1,0,3:0:0:0:
56,198,71098,2,0,L|45:116,1,64.9000019805909,8|0,0:0|3:0,0:0:0:0:
135,17,71414,6,0,P|170:6|231:43,1,97.3500029708863,4|0,0:0|0:0,0:0:0:0:
229,42,71730,2,0,P|275:52|316:28,1,97.3500029708863,8|0,0:0|3:0,0:0:0:0:
321,17,72046,2,0,L|363:21,3,32.4500009902954,0|0|0|0,3:0|3:0|3:0|3:0,0:0:0:0:
389,36,72362,2,0,L|431:32,3,32.4500009902954,8|0|0|0,0:0|3:0|3:0|3:0,0:0:0:0:
458,15,72677,6,0,P|452:52|449:97,1,64.9000019805909,8|0,0:0|3:0,0:0:0:0:
334,247,72993,2,0,P|331:214|325:182,1,64.9000019805909,8|0,0:0|3:0,0:0:0:0:
490,196,73309,2,0,L|417:184,1,64.9000019805909,8|0,0:0|3:0,0:0:0:0:
273,80,73625,2,0,L|346:68,1,64.9000019805909,8|0,0:0|3:0,0:0:0:0:
208,162,73941,6,0,P|155:173|82:123,2,129.800003961182,8|8|8,0:0|0:0|0:0,0:0:0:0:
336,265,74730,1,0,3:0:0:0:
187,339,74888,1,0,3:0:0:0:
187,339,74967,1,0,3:0:0:0:
187,339,75046,1,0,3:0:0:0:
246,252,75204,5,8,0:0:0:0:
367,358,75362,1,0,0:0:0:0:
458,230,75519,1,0,3:0:0:0:
337,123,75677,2,0,P|340:89|348:41,1,64.9000019805909,8|0,0:0|3:0,0:0:0:0:
158,18,75993,2,0,P|155:52|147:100,1,64.9000019805909,8|0,0:0|3:0,0:0:0:0:
55,215,76309,6,0,P|98:179|172:195,1,129.800003961182,4|0,0:0|3:0,0:0:0:0:
187,339,76783,1,8,0:0:0:0:
187,339,76862,1,0,3:0:0:0:
187,339,76941,1,0,3:0:0:0:
253,145,77098,5,8,0:0:0:0:
91,305,77256,1,0,3:0:0:0:
256,241,77414,1,8,0:0:0:0:
46,135,77572,1,0,3:0:0:0:
206,2,77730,6,0,P|189:61|174:121,1,123.899996218872,4|0,0:0|0:0,0:0:0:0:
121,198,78677,1,2,0:0:0:0:
121,198,78835,2,0,P|145:165|298:168,1,206.49999369812,0|2,0:0|0:0,0:0:0:0:
295,165,79941,2,0,L|289:216,1,41.2999987396241,0|0,0:0|0:0,0:0:0:0:
241,271,80256,6,0,P|298:287|369:304,1,123.899996218872,2|0,0:0|0:0,0:0:0:0:
415,367,81204,1,2,0:0:0:0:
415,367,81362,2,0,P|463:332|449:193,1,206.49999369812,0|0,0:0|0:0,0:0:0:0:
376,173,82467,1,2,0:0:0:0:
297,288,82783,6,0,P|233:312|80:222,1,247.799992437744,2|2,0:0|0:0,0:0:0:0:
60,154,84046,2,0,B|152:132|124:203|226:173,1,165.199994958496,0|0,0:0|0:0,0:0:0:0:
270,109,84993,1,2,0:0:0:0:
203,20,85309,6,0,P|183:55|193:112,1,82.5999974792481,2|0,0:0|0:0,0:0:0:0:
330,165,85941,2,0,P|349:129|340:73,1,82.5999974792481,2|0,0:0|0:0,0:0:0:0:
148,176,86572,2,0,P|128:211|138:268,1,82.5999974792481,2|0,0:0|0:0,0:0:0:0:
337,326,87204,2,0,P|356:290|347:234,1,82.5999974792481,2|0,0:0|0:0,0:0:0:0:
256,192,87835,5,0,0:0:0:0:
256,192,89098,5,2,0:0:0:0:
273,278,89414,1,0,0:0:0:0:
294,116,89730,1,2,0:0:0:0:
183,231,90046,1,0,0:0:0:0:
340,206,90362,6,0,B|399:181|460:201|486:255|486:255|458:288|399:273,1,247.799992437744,2|0,0:0|0:0,0:0:0:0:
191,135,91625,2,0,B|132:110|71:130|45:184|45:184|73:217|132:202,1,247.799992437744,2|0,0:0|0:0,0:0:0:0:
277,143,92888,6,0,P|286:70|296:7,2,123.899996218872,2|2|2,0:0|0:0|0:0,0:0:0:0:
223,215,94151,2,0,P|232:276|239:337,2,123.899996218872,2|2|2,0:0|0:0|0:0,0:0:0:0:
191,135,95414,6,0,L|168:139,1,20.649999369812,2|0,0:0|0:0,0:0:0:0:
