osu file format v14

[General]
AudioFilename: audio.mp3
AudioLeadIn: 0
PreviewTime: 57811
Countdown: 0
SampleSet: None
StackLeniency: 0.5
Mode: 0
LetterboxInBreaks: 0
WidescreenStoryboard: 1

[Editor]
Bookmarks: 2627,12732,22837,43048,58205,73363,78416,93574,96100
DistanceSpacing: 1
BeatDivisor: 4
GridSize: 32
TimelineZoom: 2.2

[Metadata]
Title:Re:TrymenT
TitleUnicode:Re:TrymenT
Artist:Hotaru Murasaki
ArtistUnicode:紫咲ほたる
Creator:Pincus
Version:Kirishima-'s Extra
Source:Re:LieF〜親愛なるあなたへ〜
Tags:retryment rask relief Shin'ainaru Anata e opening full eroge visual novel amari saya piano mugiwarasekai iceluin shirahane suou wen kirishima-
BeatmapID:3260534
BeatmapSetID:1587754

[Difficulty]
HPDrainRate:5.5
CircleSize:4
OverallDifficulty:8.5
ApproachRate:9.2
SliderMultiplier:1.8
SliderTickRate:1

[Events]
//Background and Video events
0,0,"relief.jpg",0,0
//Break Periods
//Storyboard Layer 0 (Background)
//Storyboard Layer 1 (Fail)
//Storyboard Layer 2 (Pass)
//Storyboard Layer 3 (Foreground)
//Storyboard Layer 4 (Overlay)
//Storyboard Sound Samples

[TimingPoints]
2627,315.789473684211,4,2,5,40,1,0
2627,-133.333333333333,4,2,5,40,0,0
10205,-133.333333333333,4,2,5,45,0,0
11469,-133.333333333333,4,2,5,50,0,0
11942,-133.333333333333,4,2,5,55,0,0
12416,-133.333333333333,4,2,5,50,0,0
12653,-133.333333333333,4,2,5,50,0,0
12732,-111.111111111111,4,2,5,55,0,0
15495,-111.111111111111,4,2,5,5,0,0
15574,-111.111111111111,4,2,5,55,0,0
18021,-111.111111111111,4,2,5,5,0,0
18100,-111.111111111111,4,2,5,55,0,0
19284,-111.111111111111,4,2,5,5,0,0
19363,-111.111111111111,4,2,5,55,0,0
22837,-133.333333333333,4,2,5,45,0,0
43048,-111.111111111111,4,2,5,50,0,0
53390,-111.111111111111,4,2,5,5,0,0
53469,-111.111111111111,4,2,5,50,0,0
55916,-111.111111111111,4,2,5,5,0,0
55995,-111.111111111111,4,2,5,50,0,0
57574,-111.111111111111,4,2,10,50,0,0
57890,-111.111111111111,4,2,5,35,0,0
58205,-90.9090909090904,4,2,5,60,0,1
59548,-90.9090909090904,4,2,5,5,0,1
59627,-90.9090909090904,4,2,5,60,0,1
62232,-90.9090909090904,4,2,5,5,0,1
62311,-90.9090909090904,4,2,5,60,0,1
64758,-90.9090909090904,4,2,5,5,0,1
64837,-90.9090909090904,4,2,5,60,0,1
65705,-90.9090909090904,4,2,5,5,0,1
65784,-90.9090909090904,4,2,5,60,0,1
72021,-90.9090909090904,4,2,5,5,0,1
72100,-90.9090909090904,4,2,5,60,0,1
73363,-83.3333333333333,4,2,5,60,0,1
78416,-133.333333333333,4,2,5,45,0,0
91048,-199.999999999996,4,2,5,45,0,0
93574,-500,4,2,5,45,0,0
96100,-500,4,2,5,45,0,0

[Colours]
Combo1 : 127,127,127
Combo2 : 200,103,237
Combo3 : 235,198,249
Combo4 : 191,191,191

[HitObjects]
32,52,2627,6,0,P|61:36|94:41,1,67.5000025749208,2|2,0:0|0:0,0:0:0:0:
76,121,2942,1,2,0:0:0:0:
76,121,3100,2,0,P|33:170|43:234,1,135.000005149842,2|0,0:0|0:0,0:0:0:0:
111,192,3574,1,2,0:0:0:0:
111,192,3890,2,0,P|144:187|173:202,2,67.5000025749208,2|2|2,0:0|0:0|0:0,0:0:0:0:
44,235,4363,2,0,P|87:185|76:121,1,135.000005149842,2|0,0:0|0:0,0:0:0:0:
129,268,4837,1,2,0:0:0:0:
129,268,5153,6,0,L|195:280,1,67.5000025749208,2|2,0:0|0:0,0:0:0:0:
275,355,5468,1,2,0:0:0:0:
275,355,5627,2,0,L|143:378,1,135.000005149842,2|2,0:0|0:0,0:0:0:0:
196,280,6100,1,2,0:0:0:0:
196,280,6416,2,0,L|130:292,2,67.5000025749208,2|0|0,0:0|0:0|0:0,0:0:0:0:
241,196,6889,2,0,L|373:219,1,135.000005149842,2|0,0:0|0:0,0:0:0:0:
409,358,7363,1,2,0:0:0:0:
409,358,7679,6,0,P|424:328|419:295,1,67.5000025749208,2|0,0:0|0:0,0:0:0:0:
378,223,7994,1,2,0:0:0:0:
378,223,8153,2,0,P|427:265|491:255,1,135.000005149842,2|2,0:0|0:0,0:0:0:0:
450,187,8626,1,2,0:0:0:0:
450,187,8942,2,0,P|434:158|439:125,1,67.5000025749208,2|0,0:0|0:0,0:0:0:0:
370,89,9258,2,0,P|387:60|418:48,1,67.5000025749208,2|0,0:0|0:0,0:0:0:0:
495,69,9574,1,2,0:0:0:0:
355,169,9889,1,2,0:0:0:0:
221,20,10205,6,0,L|88:43,1,135.000005149842,2|2,0:0|0:0,0:0:0:0:
40,133,10679,2,0,L|173:110,1,135.000005149842,2|0,0:0|0:0,0:0:0:0:
234,288,11153,1,2,0:0:0:0:
234,288,11469,2,0,P|283:330|347:319,1,135.000005149842,2|0,0:0|0:0,0:0:0:0:
261,166,11942,2,0,P|211:209|147:198,1,135.000005149842,2|0,0:0|0:0,0:0:0:0:
238,59,12416,2,0,P|279:86|328:76,1,101.250003862381,2|0,1:2|1:2,0:0:0:0:
368,38,12732,6,0,B|328:74|328:74|368:175,1,161.999995056153,4|0,1:0|1:2,0:0:0:0:
283,277,13205,1,0,0:0:0:0:
412,259,13363,2,0,L|397:339,1,80.9999975280763,0|0,1:2|1:2,0:0:0:0:
268,197,13679,2,0,L|283:277,1,80.9999975280763,0|0,1:2|0:0,0:0:0:0:
141,365,13995,6,0,B|88:355|88:355|62:308|62:308|9:298,1,161.999995056153,2|0,1:2|1:2,0:0:0:0:
153,209,14469,2,0,P|158:248|139:282,1,80.9999975280763,8|0,0:3|1:2,0:0:0:0:
9,378,14784,1,8,0:3:0:0:
89,158,14942,2,0,P|69:192|75:231,1,80.9999975280763,2|8,1:2|0:3,0:0:0:0:
141,365,15258,6,0,L|261:344,1,121.499996292114,4|0,1:0|0:0,0:0:0:0:
292,337,15574,1,2,1:2:0:0:
212,169,15732,2,0,L|292:154,1,80.9999975280763,2|0,0:0|1:2,0:0:0:0:
348,261,16048,2,0,L|268:246,1,80.9999975280763,2|0,0:0|1:2,0:0:0:0:
212,352,16363,2,0,L|292:337,1,80.9999975280763,2|0,0:0|0:0,0:0:0:0:
332,161,16679,6,0,L|292:154,1,40.4999987640381,8|0,0:0|1:2,0:0:0:0:
174,264,16837,1,0,1:2:0:0:
348,261,16995,1,8,0:3:0:0:
229,103,17153,2,0,P|209:137|215:176,1,80.9999975280763,0|8,1:2|0:3,0:0:0:0:
292,337,17469,1,8,0:3:0:0:
332,161,17627,1,8,0:3:0:0:
468,282,17784,6,0,L|348:261,1,121.499996292114,4|0,1:2|0:0,0:0:0:0:
318,255,18100,1,0,1:2:0:0:
412,146,18258,2,0,L|332:161,1,80.9999975280763,8|0,0:3|1:2,0:0:0:0:
188,16,18574,1,0,1:2:0:0:
359,74,18732,1,8,0:3:0:0:
230,215,18890,1,0,1:2:0:0:
230,215,18969,1,0,1:2:0:0:
230,215,19048,6,0,P|246:159|213:110,1,121.499996292114,0|0,1:2|0:0,0:0:0:0:
187,92,19363,1,0,1:2:0:0:
89,249,19521,2,0,P|123:268|163:263,1,80.9999975280763,10|0,0:3|0:0,0:0:0:0:
94,106,19837,1,8,0:3:0:0:
10,237,19995,2,0,P|10:276|34:307,1,80.9999975280763,0|0,1:2|0:0,0:0:0:0:
170,344,20311,5,8,0:3:0:0:
106,139,20469,1,0,1:2:0:0:
235,297,20627,1,0,1:2:0:0:
259,125,20784,1,0,1:2:0:0:
380,263,20942,2,0,L|301:248,1,80.9999975280763,4|0,1:2|1:2,0:0:0:0:
361,163,21258,2,0,L|441:148,1,80.9999975280763,0|0,1:2|1:2,0:0:0:0:
472,238,21574,1,0,1:2:0:0:
472,238,22048,2,0,L|511:245,2,40.4999987640381,2|2|2,0:0|0:0|0:0,0:0:0:0:
472,238,22837,6,0,L|340:261,1,135.000005149842,0|2,1:2|0:0,0:0:0:0:
475,157,23469,2,0,L|342:180,1,135.000005149842,2|0,0:0|0:0,0:0:0:0:
265,199,23942,1,2,0:0:0:0:
265,199,24100,2,0,P|259:166|275:136,1,67.5000025749208,2|0,0:0|0:0,0:0:0:0:
478,75,24416,2,0,L|345:98,1,135.000005149842,2|2,0:0|0:0,0:0:0:0:
277,54,25048,1,2,0:0:0:0:
277,54,25363,6,0,P|227:11|163:22,1,135.000005149842,2|2,0:0|0:0,0:0:0:0:
122,173,25995,2,0,P|184:152|207:91,1,135.000005149842,2|0,0:0|0:0,0:0:0:0:
62,82,26468,1,2,0:0:0:0:
62,82,26626,2,0,L|128:94,1,67.5000025749208,2|0,0:0|0:0,0:0:0:0:
151,287,26942,2,0,P|109:237|121:173,1,135.000005149842,2|2,0:0|0:0,0:0:0:0:
190,217,27574,1,2,0:0:0:0:
171,365,27890,6,0,P|138:370|109:355,1,67.5000025749208,0|0,1:2|1:2,0:0:0:0:
228,308,28205,2,0,P|248:334|250:366,1,67.5000025749208,2|0,0:0|0:0,0:0:0:0:
150,287,28521,2,0,L|173:155,1,135.000005149842,2|2,0:0|0:0,0:0:0:0:
228,308,28995,2,0,L|251:176,1,135.000005149842,2|0,0:0|0:0,0:0:0:0:
231,96,29469,1,2,0:0:0:0:
231,96,29784,2,0,P|263:90|293:106,1,67.5000025749208,2|0,0:0|0:0,0:0:0:0:
350,50,30100,2,0,P|370:75|372:109,1,67.5000025749208,2|0,0:0|0:0,0:0:0:0:
255,226,30416,6,0,P|304:184|368:194,1,135.000005149842,2|2,0:0|0:0,0:0:0:0:
397,297,30890,2,0,P|347:339|283:329,1,135.000005149842,2|0,0:0|0:0,0:0:0:0:
326,262,31363,1,2,0:0:0:0:
326,262,31679,2,0,L|338:196,1,67.5000025749208,2|0,0:0|0:0,0:0:0:0:
512,19,31995,1,2,0:0:0:0:
375,62,32153,1,2,0:0:0:0:
473,159,32311,1,0,1:2:0:0:
395,140,32469,1,0,1:2:0:0:
419,222,32627,1,2,0:0:0:0:
419,222,32784,1,0,1:2:0:0:
375,62,32942,6,0,L|242:38,1,135.000005149842,0|2,1:2|0:0,0:0:0:0:
242,38,33574,1,2,1:2:0:0:
164,20,33732,2,0,P|159:53|174:82,1,67.5000025749208,2|0,0:0|0:0,0:0:0:0:
245,120,34048,1,2,0:0:0:0:
118,140,34205,2,0,P|144:161|178:163,1,67.5000025749208,2|0,0:0|0:0,0:0:0:0:
272,332,34521,2,0,L|249:200,1,135.000005149842,2|2,0:0|1:2,0:0:0:0:
249,199,35153,1,2,0:0:0:0:
186,369,35469,6,0,P|121:379|72:336,1,135.000005149842,2|2,0:0|0:0,0:0:0:0:
72,336,36101,1,2,0:0:0:0:
131,236,36258,2,0,L|143:302,1,67.5000025749208,2|0,0:0|0:0,0:0:0:0:
186,369,36575,1,2,0:0:0:0:
60,270,36732,2,0,L|72:336,1,67.5000025749208,2|0,0:0|0:0,0:0:0:0:
203,199,37048,2,0,P|153:156|89:166,1,135.000005149842,2|2,0:0|1:2,0:0:0:0:
131,236,37680,1,2,0:0:0:0:
49,97,37995,6,0,P|43:64|59:34,1,67.5000025749208,0|0,1:2|1:2,0:0:0:0:
133,15,38311,2,0,P|138:48|123:78,1,67.5000025749208,2|0,0:0|0:0,0:0:0:0:
104,155,38627,2,0,L|236:178,1,135.000005149842,2|2,1:2|0:0,0:0:0:0:
341,115,39100,2,0,L|209:92,1,135.000005149842,2|0,0:0|1:2,0:0:0:0:
316,191,39574,1,2,0:0:0:0:
316,191,39890,2,0,P|321:224|305:254,1,67.5000025749208,0|0,1:2|0:0,0:0:0:0:
360,310,40205,2,0,P|334:330|300:332,1,67.5000025749208,2|0,0:0|0:0,0:0:0:0:
184,211,40521,6,0,P|227:261|216:325,1,135.000005149842,2|0,0:0|0:0,0:0:0:0:
103,215,40995,2,0,P|124:152|185:130,1,135.000005149842
147,284,41469,1,2,0:0:0:0:
147,284,41627,2,0,P|82:296|32:254,1,135.000005149842,2|0,1:2|1:2,0:0:0:0:
154,53,42100,1,0,1:2:0:0:
103,215,42258,1,0,1:2:0:0:
218,102,42416,1,0,1:2:0:0:
236,181,42574,1,0,1:2:0:0:
298,128,42732,1,0,1:2:0:0:
298,128,42890,1,0,1:2:0:0:
44,297,43048,6,0,B|50:251|9:230|9:230|9:181|44:161,1,161.999995056153,6|0,1:0|1:2,0:0:0:0:
168,114,43521,2,0,B|87:146|103:56|19:88,1,161.999995056153,2|0,0:0|0:0,0:0:0:0:
143,40,43995,1,0,1:2:0:0:
5,8,44153,2,0,L|19:88,1,80.9999975280763,8|0,0:3|1:2,0:0:0:0:
116,201,44469,1,8,0:3:0:0:
143,40,44627,2,0,L|129:120,1,80.9999975280763,0|0,1:2|0:0,0:0:0:0:
223,255,44942,1,0,1:2:0:0:
82,186,45100,1,0,0:0:0:0:
216,94,45258,2,0,L|230:174,1,80.9999975280763,2|0,1:2|1:2,0:0:0:0:
441,238,45574,6,0,P|386:183|312:203,1,161.999995056153,6|0,1:2|1:2,0:0:0:0:
216,94,46048,2,0,B|252:134|252:134|353:94,1,161.999995056153,2|0,0:0|0:0,0:0:0:0:
441,238,46521,1,2,1:2:0:0:
416,42,46679,2,0,P|435:76|429:115,1,80.9999975280763,10|0,0:3|1:2,0:0:0:0:
254,251,46995,2,0,P|273:217|310:203,1,80.9999975280763,8|8,0:3|0:3,0:0:0:0:
464,363,47311,1,2,0:0:0:0:
328,281,47468,1,2,1:2:0:0:
472,224,47626,1,10,0:0:0:0:
314,362,47784,1,2,1:2:0:0:
509,295,47942,1,10,0:3:0:0:
311,203,48100,6,0,B|258:193|258:193|232:146|232:146|179:136,1,161.999995056153,4|2,1:2|0:0,0:0:0:0:
60,226,48574,1,0,1:2:0:0:
193,296,48732,2,0,L|179:216,1,80.9999975280763,10|0,0:0|0:0,0:0:0:0:
45,305,49048,1,2,1:2:0:0:
179,376,49205,2,0,L|193:296,1,80.9999975280763,0|0,1:2|0:0,0:0:0:0:
74,146,49521,1,8,0:0:0:0:
45,305,49679,2,0,L|31:225,1,80.9999975280763,0|0,0:0|1:2,0:0:0:0:
126,68,49995,1,8,0:0:0:0:
112,218,50153,1,8,0:0:0:0:
46,69,50311,1,10,0:3:0:0:
31,225,50469,1,8,0:3:0:0:
126,68,50627,6,0,B|146:33|195:33|195:33|216:74|262:68,1,161.999995056153,0|2,1:2|0:0,0:0:0:0:
358,180,51101,1,0,1:2:0:0:
400,31,51258,2,0,P|361:37|326:17,1,80.9999975280763,10|0,0:0|1:2,0:0:0:0:
363,211,51575,1,2,1:2:0:0:
478,48,51732,2,0,P|463:84|428:105,1,80.9999975280763,2|0,1:2|0:0,0:0:0:0:
283,159,52048,1,0,0:0:0:0:
425,261,52205,2,0,P|444:227|439:188,1,80.9999975280763,10|0,0:0|1:2,0:0:0:0:
267,66,52522,1,8,0:0:0:0:
363,211,52680,1,8,0:0:0:0:
400,31,52838,1,10,0:3:0:0:
283,159,52996,1,0,0:0:0:0:
202,14,53153,6,0,P|168:62|184:119,1,121.499996292114,4|0,1:2|0:0,0:0:0:0:
203,145,53469,2,0,L|282:159,1,80.9999975280763,2|0,1:2|1:2,0:0:0:0:
315,168,53705,1,0,1:2:0:0:
315,168,53784,2,0,P|321:207|301:242,1,80.9999975280763,2|0,1:2|1:2,0:0:0:0:
203,145,54100,1,2,1:2:0:0:
93,308,54258,1,0,1:2:0:0:
93,308,54337,1,0,1:2:0:0:
93,308,54416,2,0,P|127:327|166:321,1,80.9999975280763,0|0,1:2|1:2,0:0:0:0:
127,168,54732,2,0,L|141:248,1,80.9999975280763,2|0,1:2|0:0,0:0:0:0:
55,114,55048,2,0,L|41:194,1,80.9999975280763,2|0,1:2|0:0,0:0:0:0:
137,80,55363,1,2,1:2:0:0:
227,270,55521,1,0,1:2:0:0:
227,270,55600,1,0,1:2:0:0:
227,270,55679,6,0,P|283:286|332:253,1,121.499996292114,4|0,1:0|0:0,0:0:0:0:
350,228,55995,1,0,1:2:0:0:
234,363,56153,1,0,1:2:0:0:
271,202,56311,1,0,1:2:0:0:
387,384,56469,1,0,1:2:0:0:
333,148,56627,1,2,1:2:0:0:
157,381,56784,2,0,B|91:368|73:286|73:286|129:245|96:165|96:165|18:150|15:73,1,404.999987640381,10|2,0:0|1:2,0:0:0:0:
273,46,57890,2,0,L|233:38,1,40.4999987640381,2|2,1:2|0:0,0:0:0:0:
96,166,58048,2,0,L|135:158,1,40.4999987640381,2|2,0:0|0:0,0:0:0:0:
162,11,58205,6,0,B|133:52|168:118|204:76|237:137|209:182,1,198.000006042481,6|10,1:0|0:0,0:0:0:0:
153,361,58679,1,2,0:0:0:0:
153,361,58758,1,2,0:0:0:0:
153,361,58837,2,0,P|105:371|65:344,1,99.0000030212403,0|0,1:2|1:2,0:0:0:0:
136,158,59153,1,10,0:0:0:0:
259,383,59311,6,0,L|406:357,1,148.50000453186,2|0,0:0|0:0,0:0:0:0:
435,351,59627,1,0,0:0:0:0:
225,258,59784,2,0,L|323:275,1,99.0000030212403,10|0,0:0|1:2,0:0:0:0:
389,156,60100,2,0,L|291:173,1,99.0000030212403,2|0,0:0|1:2,0:0:0:0:
135,384,60416,1,10,0:0:0:0:
323,275,60574,1,2,0:0:0:0:
136,158,60732,6,0,P|109:198|119:245,1,99.0000030212403,2|0,1:2|1:2,0:0:0:0:
262,82,61048,1,10,0:0:0:0:
42,2,61205,2,0,P|70:91|1:155,1,198.000006042481,2|0,0:0|1:2,0:0:0:0:
158,13,61680,1,10,0:0:0:0:
119,245,61838,1,2,0:0:0:0:
262,82,61995,6,0,P|329:59|386:103,1,148.50000453186,2|0,1:2|0:0,0:0:0:0:
399,133,62311,2,0,L|382:231,1,99.0000030212403,10|0,0:0|1:2,0:0:0:0:
215,368,62627,2,0,L|198:270,1,99.0000030212403,0|0,1:2|1:2,0:0:0:0:
99,95,62943,1,10,0:0:0:0:
290,255,63101,1,0,0:0:0:0:
59,333,63258,6,0,B|107:210|107:210|59:165,1,198.000006042481,2|8,1:2|0:0,0:0:0:0:
187,24,63732,1,2,0:0:0:0:
187,24,63811,1,2,0:0:0:0:
187,24,63890,2,0,P|234:13|274:40,1,99.0000030212403,2|0,0:0|1:2,0:0:0:0:
370,236,64206,1,10,0:0:0:0:
218,97,64364,1,2,1:2:0:0:
415,15,64521,6,0,P|370:71|392:139,1,148.50000453186,0|0,1:2|0:0,0:0:0:0:
412,165,64837,2,0,L|510:182,1,99.0000030212403,10|0,0:0|1:2,0:0:0:0:
415,15,65153,2,0,L|317:32,1,99.0000030212403,2|0,0:0|1:2,0:0:0:0:
290,255,65469,2,0,L|144:230,1,148.50000453186,10|0,0:0|0:0,0:0:0:0:
113,224,65784,5,6,1:0:0:0:
296,156,65942,1,0,1:2:0:0:
157,40,66100,2,0,P|130:80|140:127,1,99.0000030212403,10|0,0:0|0:0,0:0:0:0:
299,285,66416,1,6,1:0:0:0:
216,96,66574,1,0,1:2:0:0:
80,299,66732,2,0,P|127:309|167:282,1,99.0000030212403,10|0,0:0|0:0,0:0:0:0:
296,156,67048,5,6,1:0:0:0:
113,224,67205,1,0,1:2:0:0:
250,384,67363,2,0,L|267:286,1,99.0000030212403,8|0,0:0|1:2,0:0:0:0:
309,48,67679,1,10,0:3:0:0:
420,254,67837,1,0,1:2:0:0:
191,203,67996,1,8,0:0:0:0:
191,203,68311,6,0,B|256:192|256:192|288:135|288:135|354:123,1,198.000006042481,6|8,1:0|0:0,0:0:0:0:
503,204,68784,1,2,1:2:0:0:
362,307,68942,2,0,P|335:267|346:220,1,99.0000030212403,2|0,1:2|1:2,0:0:0:0:
494,87,69258,1,8,0:0:0:0:
420,254,69416,1,2,0:0:0:0:
309,48,69574,6,0,B|282:92|226:92|226:92|200:40|146:48,1,198.000006042481,6|8,1:0|0:0,0:0:0:0:
13,150,70048,1,2,1:2:0:0:
172,226,70205,2,0,L|155:128,1,99.0000030212403,0|0,1:2|1:2,0:0:0:0:
61,308,70521,1,10,0:0:0:0:
253,353,70679,1,2,0:0:0:0:
92,235,70837,6,0,P|44:224|4:251,1,99.0000030212403,6|0,1:0|1:2,0:0:0:0:
63,79,71153,2,0,P|103:105|150:95,1,99.0000030212403,10|0,0:0|0:0,0:0:0:0:
260,242,71469,2,0,P|219:215|172:225,1,99.0000030212403,2|0,1:2|1:2,0:0:0:0:
341,105,71784,2,0,P|397:149|465:127,1,148.50000453186,10|0,0:0|0:0,0:0:0:0:
487,104,72100,6,0,L|504:6,1,99.0000030212403,2|0,1:2|1:2,0:0:0:0:
341,105,72416,1,10,0:0:0:0:
512,190,72574,1,0,1:2:0:0:
334,212,72732,1,2,1:2:0:0:
503,269,72890,1,0,1:2:0:0:
396,376,73048,2,0,L|379:278,1,99.0000030212403,10|8,0:3|0:3,0:0:0:0:
142,138,73363,5,6,1:0:0:0:
281,376,73521,1,0,1:2:0:0:
241,92,73679,5,10,0:0:0:0:
112,344,73837,1,0,1:2:0:0:
58,65,73995,5,10,0:0:0:0:
197,303,74153,1,0,1:2:0:0:
139,16,74311,5,10,0:0:0:0:
0,262,74469,1,2,1:2:0:0:
296,204,74627,5,14,0:0:0:0:
58,65,74785,1,0,1:2:0:0:
291,299,74942,5,10,0:0:0:0:
220,32,75100,1,0,1:2:0:0:
207,338,75258,5,10,0:0:0:0:
345,98,75416,1,0,1:2:0:0:
131,280,75574,5,10,0:0:0:0:
398,207,75732,1,0,1:2:0:0:
139,16,75890,5,6,1:2:0:0:
216,244,76048,2,0,P|267:256|311:228,1,107.999996704102,0|8,1:2|0:0,0:0:0:0:
402,41,76363,2,0,P|357:12|306:25,1,107.999996704102,0|8,1:2|0:0,0:0:0:0:
146,187,76679,1,0,1:2:0:0:
344,97,76837,1,2,1:2:0:0:
165,0,76995,6,0,L|184:106,1,107.999996704102,14|0,0:0|0:0,0:0:0:0:
312,228,77311,2,0,L|321:175,1,53.9999983520508,2|2,1:2|1:2,0:0:0:0:
166,323,77469,1,2,1:2:0:0:
166,323,77548,1,2,1:2:0:0:
166,323,77627,2,0,L|157:270,1,53.9999983520508,2|2,1:2|1:2,0:0:0:0:
283,384,77784,1,0,1:2:0:0:
283,384,77863,1,0,1:2:0:0:
283,384,77942,2,0,L|292:331,1,53.9999983520508,0|0,1:2|1:2,0:0:0:0:
395,217,78100,1,2,1:2:0:0:
419,206,78178,1,0,1:2:0:0:
446,205,78257,1,0,1:2:0:0:
471,214,78336,1,0,1:2:0:0:
490,232,78416,6,0,P|447:182|458:118,1,135.000005149842,6|2,0:0|0:0,0:0:0:0:
338,0,78890,2,0,P|381:49|372:114,1,135.000005149842,2|0,0:0|0:0,0:0:0:0:
269,143,79363,1,2,0:0:0:0:
269,143,79521,2,0,P|226:93|237:29,1,135.000005149842,2|0,0:0|0:0,0:0:0:0:
304,72,79995,1,2,0:0:0:0:
372,114,80311,1,2,0:0:0:0:
441,155,80627,2,0,P|446:188|431:217,1,67.5000025749208,2|2,0:0|0:0,0:0:0:0:
292,331,80942,6,0,L|160:308,1,135.000005149842,2|2,0:0|0:0,0:0:0:0:
307,252,81416,2,0,L|175:229,1,135.000005149842,2|0,0:0|0:0,0:0:0:0:
323,173,81890,1,2,0:0:0:0:
323,173,82048,2,0,L|190:149,1,135.000005149842,2|0,0:0|0:0,0:0:0:0:
174,228,82521,1,2,0:0:0:0:
205,70,82837,1,2,0:0:0:0:
159,308,83153,2,0,L|93:320,1,67.5000025749208,2|2,0:0|0:0,0:0:0:0:
26,362,83469,6,0,P|15:297|58:248,1,135.000005149842,2|2,0:0|0:0,0:0:0:0:
93,320,83942,1,2,0:0:0:0:
93,320,84415,1,2,0:0:0:0:
130,213,84574,2,0,P|80:170|16:181,1,135.000005149842,2|0,0:0|0:0,0:0:0:0:
58,248,85047,1,2,0:0:0:0:
58,248,85363,2,0,P|108:291|172:280,1,135.000005149842,2|2,0:0|0:0,0:0:0:0:
248,375,85995,6,0,B|228:330|252:280|298:266|298:266|263:270|240:240,1,202.500007724762,2|2,0:0|0:0,0:0:0:0:
358,175,86627,2,0,P|328:191|296:186,1,67.5000025749208,2|0,0:0|0:0,0:0:0:0:
117,91,86942,1,2,0:0:0:0:
117,91,87100,2,0,B|168:77|208:105|218:153|218:153|197:178|159:180|159:180|143:212|161:244,1,270.000010299683,2|0,0:0|0:0,0:0:0:0:
240,240,87890,1,2,0:0:0:0:
240,240,88205,2,0,P|272:234|302:250,1,67.5000025749208,2|2,0:0|0:0,0:0:0:0:
369,336,88521,6,0,B|330:336|312:368|312:368|329:302|407:268|474:302,1,270.000010299683,2|0,0:0|0:0,0:0:0:0:
474,302,89784,2,0,B|430:294|415:241|415:241|455:208|436:159|436:159|388:148|377:101,1,270.000010299683,2|2,0:0|0:0,0:0:0:0:
454,78,90732,1,2,0:0:0:0:
247,28,91048,6,0,B|186:-11|100:35|159:83|69:131|14:90,1,270,2|0,0:0|0:0,0:0:0:0:
14,90,92311,6,0,P|131:115|92:228,1,270,2|2,0:0|0:0,0:0:0:0:
92,228,93574,6,0,B|130:162|296:178|205:298|335:284,1,288,2|2,0:0|0:0,0:0:0:0:
