osu file format v14

[General]
AudioFilename: audio.mp3
AudioLeadIn: 0
PreviewTime: 57534
Countdown: 0
SampleSet: Normal
StackLeniency: 0.7
Mode: 1
LetterboxInBreaks: 0
WidescreenStoryboard: 0

[Editor]
DistanceSpacing: 1
BeatDivisor: 4
GridSize: 32
TimelineZoom: 2.2

[Metadata]
Title:Re:TrymenT
TitleUnicode:Re:TrymenT
Artist:Hotaru Murasaki
ArtistUnicode:紫咲ほたる
Creator:PatZar
Version:Muzukashii
Source:Re:LieF ~親愛なるあなたへ~
Tags:PatZar Genocide Re: LieF ~Shin'ainaru Anata e~ ~DeaR YoU~ レリーフ RASK Visual Novel VN
BeatmapID:1201429
BeatmapSetID:567204

[Difficulty]
HPDrainRate:6.5
CircleSize:3
OverallDifficulty:5.5
ApproachRate:9
SliderMultiplier:1.4
SliderTickRate:1

[Events]
//Background and Video events
0,0,"bg.png",0,65
//Break Periods
//Storyboard Layer 0 (Background)
//Storyboard Layer 1 (Fail)
//Storyboard Layer 2 (Pass)
//Storyboard Layer 3 (Foreground)
//Storyboard Sound Samples

[TimingPoints]
2350,315.789473684211,4,1,0,80,1,0
22481,-100,4,1,0,60,0,0
41823,-100,4,1,0,80,0,0
42139,-100,4,1,0,80,0,0
42297,-100,4,1,0,80,0,0
42455,-100,4,1,0,80,0,0
42613,-100,4,1,0,80,0,0
42771,-100,4,1,0,80,0,0
42850,-100,4,1,0,80,0,0
57297,-100,4,1,0,80,0,0
57376,-100,4,1,0,80,0,0
57928,-100,4,1,0,80,0,1
77823,-100,4,1,0,80,0,0
89192,-100,4,1,0,60,0,0
90771,-100,4,1,0,50,0,0
92034,-100,4,1,0,40,0,0
93297,-100,4,1,0,30,0,0

[Colours]
Combo1 : 18,124,255
Combo2 : 255,0,0

[HitObjects]
256,192,2350,5,0,0:0:0:0:
256,192,2823,1,8,0:0:0:0:
256,192,3297,1,0,0:0:0:0:
256,192,4560,1,8,0:0:0:0:
256,192,4876,1,0,0:0:0:0:
256,192,5823,1,0,0:0:0:0:
256,192,6139,1,8,0:0:0:0:
256,192,6613,1,8,0:0:0:0:
256,192,7086,1,0,0:0:0:0:
256,192,7402,1,8,0:0:0:0:
256,192,7876,1,8,0:0:0:0:
256,192,8350,1,0,0:0:0:0:
256,192,9297,1,0,0:0:0:0:
256,192,9613,1,0,0:0:0:0:
256,192,9928,1,8,0:0:0:0:
256,192,10244,1,0,0:0:0:0:
256,192,10876,1,0,0:0:0:0:
256,192,11192,1,8,0:0:0:0:
256,192,11665,1,8,0:0:0:0:
256,192,12139,1,0,0:0:0:0:
256,192,12455,1,4,0:0:0:0:
256,192,13086,1,0,0:0:0:0:
256,192,13244,1,8,0:0:0:0:
256,192,13402,1,0,0:0:0:0:
256,192,13560,1,8,0:0:0:0:
256,192,13718,1,0,0:0:0:0:
256,192,14034,1,0,0:0:0:0:
256,192,14113,1,0,0:0:0:0:
256,192,14192,1,8,0:0:0:0:
256,192,14350,1,8,0:0:0:0:
256,192,14507,1,8,0:0:0:0:
256,192,14665,1,0,0:0:0:0:
256,192,14823,1,8,0:0:0:0:
256,192,14981,1,4,0:0:0:0:
256,192,15297,1,0,0:0:0:0:
256,192,15455,1,8,0:0:0:0:
256,192,15613,1,0,0:0:0:0:
256,192,15771,1,8,0:0:0:0:
256,192,16086,1,0,0:0:0:0:
256,192,16244,1,0,0:0:0:0:
256,192,16402,1,8,0:0:0:0:
256,192,16481,1,8,0:0:0:0:
256,192,16560,1,8,0:0:0:0:
256,192,16718,1,8,0:0:0:0:
256,192,17034,1,0,0:0:0:0:
256,192,17192,1,8,0:0:0:0:
256,192,17350,1,0,0:0:0:0:
256,192,17507,1,0,0:0:0:0:
256,192,17823,1,0,0:0:0:0:
256,192,17981,1,8,0:0:0:0:
256,192,18297,1,8,0:0:0:0:
256,192,18455,1,0,0:0:0:0:
256,192,18613,1,8,0:0:0:0:
256,192,18692,1,8,0:0:0:0:
256,192,18771,1,8,0:0:0:0:
256,192,18928,1,0,0:0:0:0:
256,192,19086,1,8,0:0:0:0:
256,192,19244,1,0,0:0:0:0:
256,192,19560,1,0,0:0:0:0:
256,192,19718,1,8,0:0:0:0:
256,192,20034,1,0,0:0:0:0:
256,192,20350,1,0,0:0:0:0:
256,192,20507,1,8,0:0:0:0:
256,192,20823,1,0,0:0:0:0:
256,192,20981,1,8,0:0:0:0:
256,192,21139,1,0,0:0:0:0:
256,192,21297,1,0,0:0:0:0:
256,192,21771,1,8,0:0:0:0:
256,192,21850,1,8,0:0:0:0:
256,192,21928,1,8,0:0:0:0:
256,192,22560,1,4,0:0:0:0:
256,192,23192,1,8,0:0:0:0:
256,192,23665,1,0,0:0:0:0:
256,192,23823,1,8,0:0:0:0:
256,192,24455,1,8,0:0:0:0:
256,192,24771,1,0,0:0:0:0:
256,192,25086,1,8,0:0:0:0:
256,192,25718,1,8,0:0:0:0:
256,192,26192,1,0,0:0:0:0:
256,192,26350,1,8,0:0:0:0:
256,192,26665,1,0,0:0:0:0:
256,192,26981,1,0,0:0:0:0:
256,192,27297,1,8,0:0:0:0:
256,192,27613,1,0,0:0:0:0:
256,192,28244,1,8,0:0:0:0:
256,192,28560,1,0,0:0:0:0:
256,192,28718,1,8,0:0:0:0:
256,192,28876,1,8,0:0:0:0:
256,192,29192,1,0,0:0:0:0:
256,192,29507,1,8,0:0:0:0:
256,192,29823,1,8,0:0:0:0:
256,192,30139,1,0,0:0:0:0:
256,192,30455,1,8,0:0:0:0:
256,192,30613,1,8,0:0:0:0:
256,192,30771,1,0,0:0:0:0:
256,192,31086,1,0,0:0:0:0:
256,192,31402,1,8,0:0:0:0:
256,192,31718,1,0,0:0:0:0:
256,192,31876,1,8,0:0:0:0:
256,192,32034,1,8,0:0:0:0:
256,192,32192,1,8,0:0:0:0:
256,192,32350,1,0,0:0:0:0:
256,192,32507,1,8,0:0:0:0:
256,192,32586,1,8,0:0:0:0:
256,192,32665,1,0,0:0:0:0:
256,192,32981,1,8,0:0:0:0:
256,192,33297,1,0,0:0:0:0:
256,192,33771,1,0,0:0:0:0:
256,192,33928,1,8,0:0:0:0:
256,192,34244,1,8,0:0:0:0:
256,192,34560,1,8,0:0:0:0:
256,192,34876,1,0,0:0:0:0:
256,192,35192,1,0,0:0:0:0:
256,192,35823,1,8,0:0:0:0:
256,192,35981,1,8,0:0:0:0:
256,192,36297,1,8,0:0:0:0:
256,192,36455,1,0,0:0:0:0:
256,192,36771,1,8,0:0:0:0:
256,192,37086,1,8,0:0:0:0:
256,192,37402,1,0,0:0:0:0:
256,192,37718,1,0,0:0:0:0:
256,192,38350,1,8,0:0:0:0:
256,192,38665,1,8,0:0:0:0:
256,192,38823,1,0,0:0:0:0:
256,192,38981,1,8,0:0:0:0:
256,192,39297,1,0,0:0:0:0:
256,192,39613,1,8,0:0:0:0:
256,192,39928,1,0,0:0:0:0:
256,192,40244,1,8,0:0:0:0:
256,192,41192,1,0,0:0:0:0:
256,192,41350,1,8,0:0:0:0:
256,192,41823,1,0,0:0:0:0:
256,192,42139,1,8,0:0:0:0:
256,192,42297,1,8,0:0:0:0:
256,192,42455,1,0,0:0:0:0:
256,192,42771,1,12,0:0:0:0:
256,192,43086,1,0,0:0:0:0:
256,192,43244,1,8,0:0:0:0:
256,192,43560,1,8,0:0:0:0:
256,192,43876,1,0,0:0:0:0:
256,192,44034,1,8,0:0:0:0:
256,192,44192,1,0,0:0:0:0:
256,192,44350,1,8,0:0:0:0:
256,192,44665,1,8,0:0:0:0:
256,192,44823,1,0,0:0:0:0:
256,192,44981,1,8,0:0:0:0:
256,192,45139,1,0,0:0:0:0:
256,192,45297,1,4,0:0:0:0:
256,192,45613,1,0,0:0:0:0:
256,192,45771,1,0,0:0:0:0:
256,192,45928,1,8,0:0:0:0:
256,192,46244,1,0,0:0:0:0:
256,192,46402,1,8,0:0:0:0:
256,192,46718,1,8,0:0:0:0:
256,192,47034,1,0,0:0:0:0:
256,192,47192,1,8,0:0:0:0:
256,192,47271,1,8,0:0:0:0:
256,192,47350,1,8,0:0:0:0:
256,192,47507,1,8,0:0:0:0:
256,192,47665,1,8,0:0:0:0:
256,192,47823,1,0,0:0:0:0:
256,192,48139,1,8,0:0:0:0:
256,192,48455,1,8,0:0:0:0:
256,192,48771,1,8,0:0:0:0:
256,192,49402,1,0,0:0:0:0:
256,192,49718,1,12,0:0:0:0:
256,192,50034,1,0,0:0:0:0:
256,192,50350,1,0,0:0:0:0:
256,192,50665,1,0,0:0:0:0:
256,192,50981,1,12,0:0:0:0:
256,192,51297,1,0,0:0:0:0:
256,192,51928,1,0,0:0:0:0:
256,192,52244,1,8,0:0:0:0:
256,192,52560,1,12,0:0:0:0:
256,192,52876,1,0,0:0:0:0:
256,192,53192,1,0,0:0:0:0:
256,192,53507,1,8,0:0:0:0:
256,192,53823,1,0,0:0:0:0:
256,192,53981,1,8,0:0:0:0:
256,192,54139,1,8,0:0:0:0:
256,192,54455,1,0,0:0:0:0:
256,192,54613,1,8,0:0:0:0:
256,192,54771,1,0,0:0:0:0:
256,192,55085,1,0,0:0:0:0:
256,192,55243,1,8,0:0:0:0:
256,192,55401,1,0,0:0:0:0:
256,192,55718,1,8,0:0:0:0:
256,192,55876,1,8,0:0:0:0:
256,192,56034,1,8,0:0:0:0:
256,192,56350,1,8,0:0:0:0:
256,192,56507,1,12,0:0:0:0:
256,192,57297,1,12,0:0:0:0:
256,192,57613,1,0,0:0:0:0:
256,192,57692,1,0,0:0:0:0:
256,192,57771,1,0,0:0:0:0:
256,192,57928,1,12,0:0:0:0:
256,192,58244,1,8,0:0:0:0:
256,192,58402,1,0,0:0:0:0:
256,160,58481,1,0,0:0:0:0:
256,160,58560,1,8,0:0:0:0:
256,192,58876,1,8,0:0:0:0:
256,192,59034,1,8,0:0:0:0:
256,160,59192,1,8,0:0:0:0:
256,160,59350,1,0,0:0:0:0:
256,192,59507,1,8,0:0:0:0:
256,192,59665,1,0,0:0:0:0:
256,192,59823,1,8,0:0:0:0:
256,192,60139,1,0,0:0:0:0:
256,192,60297,1,0,0:0:0:0:
256,192,60455,1,8,0:0:0:0:
256,192,60771,1,8,0:0:0:0:
256,192,60928,1,0,0:0:0:0:
256,192,61086,1,8,0:0:0:0:
256,192,61402,1,0,0:0:0:0:
256,192,61560,1,0,0:0:0:0:
256,192,61718,1,8,0:0:0:0:
256,192,62034,1,8,0:0:0:0:
256,192,62192,1,0,0:0:0:0:
256,192,62271,1,0,0:0:0:0:
256,192,62350,1,0,0:0:0:0:
256,192,62507,1,8,0:0:0:0:
256,192,62665,1,0,0:0:0:0:
256,192,62981,1,8,0:0:0:0:
256,192,63139,1,0,0:0:0:0:
256,192,63297,1,8,0:0:0:0:
256,192,63613,1,8,0:0:0:0:
256,192,63771,1,0,0:0:0:0:
256,192,63929,1,8,0:0:0:0:
256,192,64086,1,0,0:0:0:0:
256,192,64244,1,8,0:0:0:0:
256,192,64560,1,8,0:0:0:0:
256,192,64876,1,8,0:0:0:0:
256,192,65034,1,0,0:0:0:0:
256,192,65350,1,0,0:0:0:0:
256,192,65507,1,12,0:0:0:0:
256,192,65823,1,0,0:0:0:0:
256,192,66139,1,12,0:0:0:0:
256,192,66455,1,0,0:0:0:0:
256,192,66771,1,12,0:0:0:0:
256,192,67086,1,0,0:0:0:0:
256,192,67402,1,8,0:0:0:0:
256,192,67481,1,8,0:0:0:0:
256,192,67560,1,8,0:0:0:0:
256,192,67718,1,8,0:0:0:0:
256,192,67797,1,8,0:0:0:0:
256,192,67876,1,8,0:0:0:0:
256,192,68034,1,4,0:0:0:0:
256,192,68350,1,0,0:0:0:0:
256,192,68507,1,0,0:0:0:0:
256,192,68665,1,8,0:0:0:0:
256,192,68981,1,8,0:0:0:0:
256,192,69297,1,12,0:0:0:0:
256,192,69613,1,0,0:0:0:0:
256,192,69771,1,0,0:0:0:0:
256,192,69928,1,8,0:0:0:0:
256,192,70244,1,0,0:0:0:0:
256,192,70560,1,12,0:0:0:0:
256,192,70876,1,0,0:0:0:0:
256,192,71034,1,0,0:0:0:0:
256,192,71192,1,8,0:0:0:0:
256,192,71507,1,8,0:0:0:0:
256,192,71665,1,0,0:0:0:0:
256,192,71823,1,8,0:0:0:0:
256,192,72139,1,8,0:0:0:0:
256,192,72297,1,0,0:0:0:0:
256,192,72455,1,8,0:0:0:0:
256,192,72613,1,0,0:0:0:0:
256,192,72771,1,0,0:0:0:0:
256,192,72928,1,0,0:0:0:0:
256,192,73086,1,12,0:0:0:0:
256,192,73402,1,0,0:0:0:0:
256,192,73560,1,8,0:0:0:0:
256,192,73718,1,0,0:0:0:0:
256,192,74034,1,8,0:0:0:0:
256,192,74192,1,0,0:0:0:0:
256,192,74350,1,0,0:0:0:0:
256,192,74507,1,8,0:0:0:0:
256,192,74586,1,8,0:0:0:0:
256,192,74665,1,8,0:0:0:0:
256,192,74823,1,8,0:0:0:0:
256,192,74981,1,0,0:0:0:0:
256,192,75297,1,8,0:0:0:0:
256,192,75613,1,0,0:0:0:0:
256,192,75771,1,8,0:0:0:0:
256,192,76086,1,8,0:0:0:0:
256,192,76402,1,0,0:0:0:0:
256,192,76560,1,8,0:0:0:0:
256,192,76718,1,4,0:0:0:0:
256,192,77034,1,0,0:0:0:0:
256,192,77192,1,8,0:0:0:0:
256,192,77350,1,0,0:0:0:0:
256,192,77428,1,0,0:0:0:0:
256,192,77507,1,0,0:0:0:0:
256,192,77586,1,0,0:0:0:0:
256,192,77665,1,0,0:0:0:0:
256,192,77823,1,8,0:0:0:0:
256,192,78139,1,4,0:0:0:0:
256,192,79086,1,0,0:0:0:0:
256,192,80665,1,0,0:0:0:0:
256,192,80981,1,8,0:0:0:0:
256,192,81613,1,0,0:0:0:0:
256,192,81771,1,8,0:0:0:0:
256,192,82876,1,0,0:0:0:0:
256,192,83192,1,8,0:0:0:0:
256,192,84139,1,0,0:0:0:0:
256,192,84297,1,8,0:0:0:0:
256,192,84771,1,0,0:0:0:0:
256,192,85086,1,8,0:0:0:0:
256,192,85718,1,8,0:0:0:0:
256,192,86350,1,0,0:0:0:0:
256,192,86665,1,0,0:0:0:0:
256,192,86823,1,8,0:0:0:0:
256,192,87297,1,0,0:0:0:0:
256,192,87928,1,8,0:0:0:0:
256,192,88244,1,0,0:0:0:0:
256,192,89192,1,0,0:0:0:0:
256,192,89507,1,8,0:0:0:0:
256,192,90139,1,0,0:0:0:0:
256,192,90455,1,0,0:0:0:0:
256,192,90771,1,8,0:0:0:0:
256,192,92034,1,8,0:0:0:0:
256,192,93297,8,14,97086,0:0:0:0:
