osu file format v14

[General]
AudioFilename: audio.mp3
AudioLeadIn: 0
PreviewTime: 57044
Countdown: 1
SampleSet: Soft
StackLeniency: 0.7
Mode: 0
LetterboxInBreaks: 0
WidescreenStoryboard: 0

[Editor]
Bookmarks: 12044,22149,32254,42360,57517,62570,67623,72675,77728,92886
DistanceSpacing: 1.3
BeatDivisor: 4
GridSize: 16
TimelineZoom: 1.3

[Metadata]
Title:Re:TrymenT
TitleUnicode:Re:TrymenT
Artist:Hotaru Murasaki
ArtistUnicode:Hotaru Murasaki
Creator:Ohwow
Version:Extra
Source:Re:LieF〜親愛なるあなたへ〜
Tags:eroge visual novel relief 甘利紗陽 saya amari Shin'ainaru Anata e レリーフ DeaR YoU retryment miu yuu game op rask opening
BeatmapID:1317549
BeatmapSetID:625223

[Difficulty]
HPDrainRate:5
CircleSize:4.2
OverallDifficulty:8.5
ApproachRate:9.2
SliderMultiplier:1.7
SliderTickRate:1

[Events]
//Background and Video events
0,0,"bg.jpg",0,0
Video,-1310,"ReTrymenT.avi"
//Break Periods
//Storyboard Layer 0 (Background)
//Storyboard Layer 1 (Fail)
//Storyboard Layer 2 (Pass)
//Storyboard Layer 3 (Foreground)
//Storyboard Sound Samples

[TimingPoints]
1939,315.789473684211,4,2,4,50,1,0
1939,-125,4,2,4,50,0,0
10781,-111.111111111111,4,2,4,60,0,0
12044,-90.9090909090909,4,2,1,80,0,0
18202,-90.9090909090909,4,2,2,60,0,0
18517,-90.9090909090909,4,2,1,80,0,0
19623,-90.9090909090909,4,2,1,40,0,0
19781,-90.9090909090909,4,2,1,80,0,0
21360,-90.9090909090909,4,2,2,30,0,0
22149,-125,4,2,1,50,0,0
27202,-125,4,2,3,50,0,0
27517,-125,4,2,1,50,0,0
37307,-125,4,2,3,50,0,0
37623,-125,4,2,1,50,0,0
41728,-125,4,2,2,50,0,0
42202,-125,4,2,1,50,0,0
42360,-100,4,2,1,60,0,0
44254,-100,4,2,2,60,0,0
44807,-100,4,2,2,5,0,0
44886,-100,4,2,1,60,0,0
52781,-100,4,2,2,70,0,0
54912,-100,4,2,2,5,0,0
54991,-125,4,2,1,75,0,0
57517,-83.3333333333333,4,2,1,80,0,1
64781,-100,4,2,1,80,0,1
65017,-100,4,2,1,5,0,1
65096,-83.3333333333333,4,2,1,80,0,1
65412,-100,4,2,1,80,0,1
65649,-100,4,2,1,5,0,1
65728,-83.3333333333333,4,2,1,80,0,1
66044,-100,4,2,1,80,0,1
66281,-100,4,2,1,5,0,1
66360,-83.3333333333333,4,2,1,80,0,1
67307,-83.3333333333333,4,2,1,80,0,0
67623,-83.3333333333333,4,2,1,80,0,1
72360,-83.3333333333333,4,2,1,80,0,0
72675,-83.3333333333333,4,2,1,80,0,1
77728,-125,4,2,1,50,0,0
77807,-125,4,2,4,50,0,0
82702,-125,4,2,4,5,0,0
82781,-125,4,2,4,50,0,0
87912,-125,4,2,4,5,0,0
89096,-125,4,2,4,50,0,0
90360,-166.666666666667,4,2,4,50,0,0
95412,-166.666666666667,4,2,1,50,0,0

[Colours]
Combo1 : 221,0,0
Combo2 : 255,155,218
Combo3 : 63,196,6
Combo4 : 63,187,254
Combo5 : 234,117,0
Combo6 : 255,136,136

[HitObjects]
219,257,1939,6,0,L|239:163,1,68,2|0,0:0|0:0,0:0:0:0:
255,91,2254,1,0,0:0:0:0:
153,95,2412,2,0,P|175:157|233:191,1,136,2|0,0:0|0:0,0:0:0:0:
314,60,2886,2,0,P|281:70|255:92,1,68,2|0,0:0|0:0,0:0:0:0:
332,162,3202,6,0,L|474:148,1,136,2|0,0:0|0:0,0:0:0:0:
355,272,3675,2,0,L|219:258,1,136,2|0,0:0|0:0,0:0:0:0:
120,143,4149,2,0,P|152:153|178:175,1,68,2|0,0:0|0:0,0:0:0:0:
102,245,4465,101,2,0:0:0:0:
22,178,4623,1,2,0:0:0:0:
40,76,4781,1,2,0:0:0:0:
137,40,4939,2,0,P|169:29|195:7,2,68,2|0|0,0:0|0:0|0:0,0:0:0:0:
217,107,5412,2,0,P|249:117|275:139,1,68,2|0,0:0|0:0,0:0:0:0:
323,205,5728,6,0,L|315:42,1,136,2|0,0:0|0:0,0:0:0:0:
217,107,6202,1,2,0:0:0:0:
415,31,6360,1,0,0:0:0:0:
439,21,6675,1,2,0:0:0:0:
490,223,6991,38,0,L|422:215,1,68,2|0,0:0|0:0,0:0:0:0:
321,202,7306,1,0,0:0:0:0:
357,107,7465,2,0,P|408:149|422:214,1,136,2|0,0:0|0:0,0:0:0:0:
361,296,7939,2,0,L|265:306,1,68,2|0,0:0|0:0,0:0:0:0:
194,314,8254,5,2,0:0:0:0:
74,164,8570,1,2,0:0:0:0:
5,343,8886,1,0,0:0:0:0:
163,215,9202,2,0,P|175:183|176:148,1,68,2|0,0:0|0:0,0:0:0:0:
76,267,9517,6,0,P|111:303|204:309,1,136,2|0,0:0|0:0,0:0:0:0:
408,327,9991,2,0,P|357:283|290:281,1,136,2|0,0:0|0:0,0:0:0:0:
253,376,10465,2,0,P|286:383|320:378,1,68,2|0,0:0|0:0,0:0:0:0:
194,144,10781,6,0,P|186:220|189:296,1,152.999995330811,2|0,0:0|0:0,0:0:0:0:
38,176,11254,2,0,P|46:100|43:24,1,152.999995330811,2|0,0:0|0:0,0:0:0:0:
194,144,11728,1,2,0:0:0:0:
231,150,11807,1,0,0:0:0:0:
269,151,11886,1,0,0:0:0:0:
307,147,11965,1,0,0:0:0:0:
345,137,12044,38,0,P|394:127|456:144,1,93.5000028533936,6|0,0:0|0:0,0:0:0:0:
243,231,12360,2,0,P|194:241|132:224,1,93.5000028533936,2|0,0:0|0:0,0:0:0:0:
393,223,12675,2,0,P|403:269|396:315,1,93.5000028533936,2|0,0:0|0:0,0:0:0:0:
194,144,12991,2,0,P|184:98|191:52,1,93.5000028533936,2|0,0:0|0:0,0:0:0:0:
25,219,13307,6,0,P|90:200|151:232,1,140.25000428009,2|0,0:0|0:0,0:0:0:0:
163,261,13623,1,2,0:0:0:0:
69,91,13781,1,4,0:3:0:0:
194,144,13939,1,2,0:0:0:0:
6,231,14096,1,4,0:3:0:0:
223,132,14254,1,2,0:0:0:0:
57,62,14412,1,4,0:3:0:0:
177,290,14570,6,0,P|219:309|265:305,1,93.5000028533936,6|0,0:0|0:0,0:0:0:0:
347,226,14886,1,2,0:0:0:0:
509,314,15044,2,0,P|467:295|421:299,1,93.5000028533936,0|2,0:0|0:0,0:0:0:0:
345,371,15360,1,0,0:0:0:0:
236,217,15517,1,2,0:0:0:0:
104,363,15675,2,0,L|0:378,1,93.5000028533936,0|2,0:0|0:0,0:0:0:0:
56,150,15991,5,0,0:0:0:0:
52,173,16070,1,0,0:0:0:0:
48,196,16149,1,2,0:0:0:0:
74,39,16307,1,0,0:0:0:0:
166,190,16465,5,2,0:0:0:0:
177,48,16623,1,0,0:0:0:0:
285,186,16781,5,2,0:0:0:0:
282,60,16939,1,0,0:0:0:0:
387,271,17096,6,0,P|434:272|481:253,1,93.5000028533936,2|0,0:0|0:0,0:0:0:0:
410,139,17412,1,2,0:0:0:0:
262,318,17570,2,0,B|171:346|171:279|79:307,1,187.000005706787
220,229,18044,2,0,L|220:127,1,93.5000028533936,2|0,0:0|0:0,0:0:0:0:
220,121,18281,1,0,0:0:0:0:
220,106,18360,5,2,0:0:0:0:
126,183,18517,1,0,0:0:0:0:
318,89,18675,1,2,0:0:0:0:
111,8,18833,2,0,B|153:13|153:13|213:-3|213:-3|295:1,1,187.000005706787
383,168,19307,2,0,P|342:189|296:191,1,93.5000028533936,2|0,0:0|0:0,0:0:0:0:
69,155,19623,5,6,0:0:0:0:
38,267,19781,1,0,0:0:0:0:
122,348,19939,1,0,0:0:0:0:
235,317,20096,1,0,0:0:0:0:
78,178,20254,5,6,0:0:0:0:
53,267,20412,1,0,0:0:0:0:
120,332,20570,1,0,0:0:0:0:
211,307,20727,1,0,0:0:0:0:
145,243,20886,37,2,0:0:0:0:
145,243,21360,2,0,L|183:197,2,46.7500014266968
351,96,22149,5,4,0:1:0:0:
351,96,22465,2,0,L|418:93,1,68
334,5,22781,2,0,P|276:41|263:117,1,136
311,178,23254,1,0,0:0:0:0:
260,103,23412,6,0,P|227:98|193:98,1,68
51,155,23728,2,0,P|84:160|118:160,1,68
94,0,24044,2,0,L|96:77,1,68
215,188,24360,2,0,L|214:256,1,68
67,353,24675,5,0,0:0:0:0:
67,353,24991,2,0,L|0:350,1,68
84,262,25307,2,0,P|142:298|155:374,1,136
239,302,25781,1,0,0:0:0:0:
311,358,25939,38,0,P|351:363|389:358,1,68
431,260,26254,2,0,P|391:255|353:260,1,68
293,180,26570,1,0,0:0:0:0:
293,180,26728,1,0,0:0:0:0:
402,112,26886,2,0,L|493:106,1,68
387,22,27202,5,2,0:0:0:0:
293,180,27360,1,2,0:0:0:0:
202,107,27517,2,0,L|135:105,1,68
37,178,27833,2,0,P|101:163|134:106,1,136
100,22,28307,6,0,L|235:16,1,136
343,15,28781,2,0,L|410:17,1,68
450,106,29096,2,0,P|429:142|424:191,1,68
313,196,29412,2,0,P|332:225|340:258,1,68
400,324,29728,6,0,P|336:302|268:306,1,136
173,277,30202,2,0,B|140:258|132:205|132:205|112:221|85:225,1,136
18,320,30675,2,0,P|56:316|84:306,1,68
79,146,30991,2,0,P|46:135|13:132,1,68
173,277,31307,37,0,0:0:0:0:
281,115,31465,1,0,0:0:0:0:
482,251,31623,5,0,1:0:0:0:
395,121,31781,1,0,1:0:0:0:
266,299,31939,5,0,0:0:0:0:
330,201,32097,1,0,0:0:0:0:
512,369,32254,5,4,0:1:0:0:
512,369,32570,2,0,P|478:363|441:362,1,68
355,370,32886,1,0,1:0:0:0:
388,255,33044,2,0,P|398:185|394:117,1,136
394,120,33517,38,0,L|481:113,1,68
321,44,33833,2,0,L|254:50,1,68
223,156,34149,2,0,L|310:149,1,68,0|0,1:0|0:0,0:0:0:0:
150,80,34465,2,0,L|82:85,1,68
15,281,34781,5,0,0:0:0:0:
15,281,35096,2,0,P|49:265|76:242,1,68
124,176,35412,1,0,1:0:0:0:
174,283,35570,2,0,P|232:333|296:348,1,136
288,347,36044,6,0,P|302:283|316:260,1,68
426,221,36360,2,0,P|412:285|398:308,1,68
308,175,36675,2,0,P|321:110|335:87,1,68,0|0,1:0|0:0,0:0:0:0:
446,49,36991,2,0,P|432:113|418:136,1,68
279,34,37307,5,2,0:0:0:0:
179,190,37465,1,2,0:0:0:0:
23,210,37623,2,0,P|57:194|101:195,1,68
173,282,37939,2,0,P|113:255|87:187,1,136,0|0,1:0|0:0,0:0:0:0:
171,54,38412,38,0,L|179:190,1,136
271,156,38886,2,0,L|275:88,1,68
340,222,39202,2,0,P|314:242|282:252,1,68,0|0,1:0|0:0,0:0:0:0:
364,127,39517,2,0,P|395:139|419:163,1,68
428,317,39833,6,0,B|384:317|350:356|350:356|300:348,1,136
221,328,40307,1,0,0:0:0:0:
67,355,40465,2,0,L|135:352,1,68,0|0,1:0|0:0,0:0:0:0:
229,311,40781,1,0,0:0:0:0:
55,230,40939,2,0,P|38:294|66:354,1,136,0|0,1:0|1:0,0:0:0:0:
209,238,41412,5,0,0:0:0:0:
117,70,41570,1,0,0:0:0:0:
288,265,41728,5,0,0:0:0:0:
264,113,41886,1,0,0:0:0:0:
367,292,42044,37,0,0:0:0:0:
389,179,42202,1,0,0:0:0:0:
439,339,42360,6,0,L|240:344,1,170,6|2,0:0|0:0,0:0:0:0:
122,281,42833,1,0,0:0:0:0:
274,226,42991,2,0,P|289:266|277:318,1,85,2|0,0:0|0:0,0:0:0:0:
172,371,43307,1,2,0:0:0:0:
229,161,43465,5,4,0:3:0:0:
367,292,43623,1,2,0:0:0:0:
389,179,43781,1,4,0:3:0:0:
207,274,43939,2,0,L|113:282,1,85,4|0,0:3|0:0,0:0:0:0:
17,152,44254,2,0,L|101:158,1,85,2|0,0:0|0:0,0:0:0:0:
298,7,44570,2,0,P|225:19|183:81,1,127.5,2|0,0:0|0:0,0:0:0:0:
104,84,44886,6,0,L|273:96,1,170,6|2,0:0|0:0,0:0:0:0:
418,66,45360,1,0,0:0:0:0:
312,178,45517,2,0,P|267:187|215:165,1,85,2|0,0:0|0:0,0:0:0:0:
389,91,45833,1,2,0:0:0:0:
366,276,45991,37,4,0:3:0:0:
182,258,46149,1,2,0:0:0:0:
396,279,46307,1,4,0:3:0:0:
483,43,46465,6,0,P|474:62|472:83,1,42.5,2|0,0:0|0:0,0:0:0:0:
476,205,46623,2,0,P|484:185|486:164,1,42.5
339,10,46781,6,0,P|334:32|338:55,1,42.5,8|0,0:1|0:0,0:0:0:0:
377,183,46939,2,0,P|379:159|375:136,1,42.5,8|0,0:1|0:0,0:0:0:0:
187,16,47096,6,0,P|189:41|199:64,1,42.5,4|0,0:3|0:0,0:0:0:0:
275,187,47254,2,0,P|271:161|260:138,1,42.5,4|0,0:3|0:0,0:0:0:0:
41,61,47412,37,6,0:0:0:0:
275,187,47728,2,0,P|266:229|216:275,1,85,0|2,0:0|0:0,0:0:0:0:
23,371,48044,2,0,P|32:329|82:283,1,85,8|0,0:0|0:0,0:0:0:0:
157,375,48360,2,0,P|136:376|116:370,1,42.5,2|0,0:0|0:0,0:0:0:0:
17,210,48517,6,0,P|99:213|148:278,1,170,2|8,0:0|0:0,0:0:0:0:
308,324,48991,2,0,P|330:281|330:242,1,85,0|2,0:0|0:0,0:0:0:0:
250,135,49307,1,8,0:0:0:0:
136,190,49465,1,0,0:0:0:0:
367,157,49623,1,4,0:3:0:0:
184,34,49781,1,4,0:3:0:0:
240,261,49939,5,6,0:0:0:0:
184,34,50254,2,0,P|225:27|265:40,1,85,0|2,0:0|0:0,0:0:0:0:
81,146,50570,2,0,P|39:152|0:139,1,85,8|0,0:0|0:0,0:0:0:0:
47,59,50886,1,4,0:3:0:0:
218,120,51044,6,0,P|311:121|355:57,1,170
221,205,51517,2,0,L|224:307,1,85,8|2,0:0|0:0,0:0:0:0:
121,328,51833,1,8,0:1:0:0:
218,120,51991,1,8,0:1:0:0:
327,319,52149,2,0,P|369:327|413:318,1,85,4|0,0:3|0:0,0:0:0:0:
121,200,52465,37,6,0:0:0:0:
120,177,52781,2,0,L|113:75,1,85,2|0,0:0|0:0,0:0:0:0:
326,28,53096,2,0,L|320:112,1,85,2|0,0:0|0:0,0:0:0:0:
310,217,53412,1,2,0:0:0:0:
222,88,53570,1,0,0:0:0:0:
222,88,53649,1,0,0:0:0:0:
222,88,53728,5,2,0:0:0:0:
147,232,53886,1,0,0:0:0:0:
344,214,54044,2,0,L|428:209,1,85,2|0,0:0|0:0,0:0:0:0:
121,151,54360,2,0,L|37:146,1,85,2|0,0:0|0:0,0:0:0:0:
225,347,54675,2,0,P|287:355|335:315,1,127.5,2|0,0:0|0:0,0:0:0:0:
266,280,54991,5,6,0:0:0:0:
256,261,55307,1,2,0:0:0:0:
180,102,55465,1,2,0:0:0:0:
113,286,55623,1,2,0:0:0:0:
318,128,55781,1,2,0:0:0:0:
42,78,55939,1,2,0:0:0:0:
371,35,56096,6,0,B|413:62|438:102|435:155|418:188|388:221|347:232|347:232|362:287|333:316,1,340,8|4,0:0|0:1,0:0:0:0:
333,316,57202,38,0,P|358:313|382:313,1,34
256,261,57360,2,0,P|230:263|206:263,1,34
70,348,57517,6,0,P|85:299|85:246,1,101.999996887207,6|0,0:0|0:0,0:0:0:0:
34,103,57833,1,8,0:0:0:0:
193,142,57991,1,0,0:0:0:0:
193,142,58070,1,0,0:0:0:0:
193,142,58149,2,0,L|320:134,1,101.999996887207,0|2,0:0|0:0,0:0:0:0:
370,32,58465,2,0,L|319:35,1,50.9999984436036,8|0,0:0|0:0,0:0:0:0:
201,44,58623,1,0,0:0:0:0:
297,231,58781,6,0,P|365:201|389:131,1,152.999995330811,2|0,0:0|0:0,0:0:0:0:
370,32,59096,2,0,P|371:83|389:131,1,101.999996887207,8|2,0:0|0:0,0:0:0:0:
486,259,59412,2,0,P|485:309|467:357,1,101.999996887207,0|2,0:0|0:0,0:0:0:0:
297,232,59728,1,8,0:0:0:0:
473,151,59886,1,0,0:0:0:0:
362,316,60044,6,0,P|315:336|264:333,1,101.999996887207,2|0,0:0|0:0,0:0:0:0:
165,181,60360,1,8,0:0:0:0:
269,72,60517,1,0,0:0:0:0:
269,72,60596,1,0,0:0:0:0:
269,72,60675,2,0,L|373:80,1,101.999996887207,0|2,0:0|0:0,0:0:0:0:
337,194,60991,2,0,L|286:189,1,50.9999984436036,8|0,0:0|0:0,0:0:0:0:
165,181,61149,1,0,0:0:0:0:
133,382,61307,38,0,P|190:333|265:333,1,152.999995330811,2|0,0:0|0:0,0:0:0:0:
362,316,61623,2,0,P|315:335|264:332,1,101.999996887207,8|2,0:0|0:0,0:0:0:0:
96,258,61939,2,0,P|49:238|-2:241,1,101.999996887207,0|2,0:0|0:0,0:0:0:0:
30,74,62254,2,0,P|76:93|127:90,1,101.999996887207,8|0,0:0|0:0,0:0:0:0:
383,55,62570,6,0,P|316:22|244:41,1,152.999995330811,2|0,0:0|0:0,0:0:0:0:
208,136,62886,2,0,P|256:145|304:129,1,101.999996887207,8|0,0:0|0:0,0:0:0:0:
306,129,63123,1,0,0:0:0:0:
306,129,63202,2,0,L|296:238,1,101.999996887207,0|2,0:0|0:0,0:0:0:0:
285,330,63517,1,8,0:0:0:0:
167,252,63675,2,0,L|238:242,1,50.9999984436036
385,363,63833,6,0,L|283:349,1,101.999996887207,2|0,0:0|0:0,0:0:0:0:
66,266,64149,2,0,L|167:251,1,101.999996887207,8|2,0:0|0:0,0:0:0:0:
409,196,64465,2,0,L|307:182,1,101.999996887207,0|2,0:0|0:0,0:0:0:0:
111,108,64781,22,0,P|74:73|67:-9,1,127.5,8|0,0:0|0:0,0:0:0:0:
198,106,65096,6,0,L|208:207,1,101.999996887207,6|2,0:0|0:0,0:0:0:0:
409,162,65412,70,0,P|446:127|453:45,1,127.5,8|0,0:0|0:0,0:0:0:0:
322,160,65728,6,0,L|311:261,1,101.999996887207,6|2,0:0|0:0,0:0:0:0:
121,209,66044,70,0,P|84:174|77:92,1,127.5,8|0,0:0|0:0,0:0:0:0:
208,207,66360,6,0,L|218:308,1,101.999996887207,6|2,0:0|0:0,0:0:0:0:
333,348,66675,69,8,0:0:0:0:
350,154,66833,1,2,0:0:0:0:
448,290,66991,1,4,0:3:0:0:
236,193,67149,1,2,0:0:0:0:
464,114,67307,1,8,0:0:0:0:
494,102,67623,38,0,L|392:88,1,101.999996887207,6|2,0:0|0:0,0:0:0:0:
249,68,67939,1,8,0:0:0:0:
293,287,68096,1,0,0:0:0:0:
293,287,68254,2,0,P|320:232|302:166,1,101.999996887207,0|2,0:0|0:0,0:0:0:0:
133,149,68570,2,0,P|106:204|124:270,1,101.999996887207,8|0,0:0|0:0,0:0:0:0:
387,310,68886,6,0,P|332:283|266:301,1,101.999996887207,6|0,0:0|0:0,0:0:0:0:
157,376,69202,1,8,0:0:0:0:
26,203,69360,1,2,0:0:0:0:
26,203,69517,2,0,L|23:309,1,101.999996887207,0|2,0:0|0:0,0:0:0:0:
197,158,69833,1,8,0:0:0:0:
49,64,69991,1,0,0:0:0:0:
230,175,70149,6,0,P|280:180|329:168,1,101.999996887207,6|0,0:0|0:0,0:0:0:0:
512,50,70465,2,0,P|461:44|412:56,1,101.999996887207,8|0,0:0|0:0,0:0:0:0:
332,269,70781,2,0,L|329:150,1,101.999996887207,0|2,0:0|0:0,0:0:0:0:
155,34,71096,2,0,L|152:135,1,101.999996887207,8|0,0:0|0:0,0:0:0:0:
76,329,71412,38,0,P|125:317|176:324,1,101.999996887207,2|2,0:0|0:0,0:0:0:0:
431,261,71728,2,0,P|381:273|331:268,1,101.999996887207,8|0,0:0|0:0,0:0:0:0:
50,144,72044,2,0,L|151:136,1,101.999996887207,2|0,0:0|0:0,0:0:0:0:
406,52,72360,1,2,0:0:0:0:
425,44,72675,5,4,0:0:0:0:
230,107,72833,1,2,0:0:0:0:
404,361,72991,5,8,0:0:0:0:
340,166,73149,1,2,0:0:0:0:
87,340,73307,5,8,0:0:0:0:
281,276,73465,1,2,0:0:0:0:
108,23,73623,37,8,0:0:0:0:
171,217,73781,1,2,0:0:0:0:
425,44,73939,5,8,0:0:0:0:
387,241,74096,1,2,0:0:0:0:
302,34,74254,5,8,0:0:0:0:
285,254,74411,1,2,0:0:0:0:
173,40,74570,5,8,0:0:0:0:
184,279,74727,1,2,0:0:0:0:
42,60,74886,37,8,0:0:0:0:
88,316,75043,1,2,0:0:0:0:
405,159,75202,5,2,0:0:0:0:
125,145,75360,2,0,L|23:140,1,101.999996887207,2|8,0:0|0:0,0:0:0:0:
387,316,75675,2,0,L|489:311,1,101.999996887207,2|8,0:0|0:0,0:0:0:0:
256,128,75991,1,2,0:0:0:0:
88,316,76149,1,2,0:0:0:0:
25,53,76307,6,0,B|64:41|98:19|98:19|154:43|217:47,1,203.999993774414,12|0,0:0|0:0,0:0:0:0:
456,125,76781,1,2,0:0:0:0:
406,125,76859,1,0,0:0:0:0:
368,158,76938,1,0,0:0:0:0:
362,208,77017,1,0,0:0:0:0:
390,250,77096,5,2,0:0:0:0:
355,244,77175,1,0,0:0:0:0:
320,243,77254,1,0,0:0:0:0:
286,250,77333,1,0,0:0:0:0:
249,277,77412,37,2,0:0:0:0:
196,298,77491,1,0,0:0:0:0:
134,300,77570,1,0,0:0:0:0:
70,279,77649,1,0,0:0:0:0:
17,230,77728,6,0,B|25:276|25:276|-2:367,1,136,4|0,0:0|0:0,0:0:0:0:
33,67,78202,2,0,P|99:64|150:107,1,136,2|0,0:0|0:0,0:0:0:0:
163,217,78675,1,0,0:0:0:0:
68,152,78833,1,2,0:0:0:0:
225,46,78991,6,0,L|321:32,1,68,2|0,0:0|0:0,0:0:0:0:
372,105,79307,2,0,L|305:114,1,68,2|0,0:0|0:0,0:0:0:0:
249,202,79623,2,0,L|316:193,1,68,2|0,0:0|0:0,0:0:0:0:
447,222,79939,1,0,0:0:0:0:
447,222,80096,1,0,0:0:0:0:
276,289,80254,6,0,L|120:285,1,136,2|0,0:0|0:0,0:0:0:0:
317,372,80728,2,0,P|368:287|354:240,1,136,2|0,0:0|0:0,0:0:0:0:
318,162,81202,1,0,0:0:0:0:
276,289,81360,1,0,0:0:0:0:
162,182,81517,38,0,L|148:86,1,68,2|0,0:0|0:0,0:0:0:0:
221,37,81833,2,0,L|230:104,1,68,2|0,0:0|0:0,0:0:0:0:
318,162,82149,2,0,L|309:95,1,68,2|0,0:0|0:0,0:0:0:0:
379,230,82465,2,0,P|333:252|283:247,1,102,2|0,0:0|0:0,0:0:0:0:
247,221,82781,5,2,0:0:0:0:
170,265,82939,1,2,0:0:0:0:
188,351,83096,1,2,0:0:0:0:
276,360,83254,1,2,0:0:0:0:
308,362,83728,5,0,0:0:0:0:
453,329,83886,1,0,0:0:0:0:
453,329,84044,6,0,L|446:232,1,68,2|0,0:0|0:0,0:0:0:0:
324,195,84360,2,0,L|319:262,1,68,2|0,0:0|0:0,0:0:0:0:
441,170,84675,2,0,L|434:73,1,68,2|0,0:0|0:0,0:0:0:0:
337,36,84991,2,0,L|332:103,1,68,2|0,0:0|0:0,0:0:0:0:
240,209,85307,38,0,L|77:220,1,136,2|0,0:0|0:0,0:0:0:0:
39,153,85781,1,2,0:0:0:0:
124,243,85939,2,0,P|138:291|97:372,1,136,2|0,0:0|0:0,0:0:0:0:
46,293,86412,1,0,0:0:0:0:
151,126,86570,5,2,0:0:0:0:
168,147,87202,1,2,0:0:0:0:
264,25,87517,1,0,0:0:0:0:
379,164,87833,6,0,L|412:166,2,34
196,284,89096,5,2,0:0:0:0:
164,132,89412,1,0,0:0:0:0:
316,100,89728,1,2,0:0:0:0:
348,252,90044,1,2,0:0:0:0:
488,182,90360,38,0,P|445:52|316:100,1,305.999990661621,2|0,0:0|0:0,0:0:0:0:
164,131,91623,2,0,B|119:113|96:58|96:58|103:168|46:252,1,305.999990661621,2|0,0:0|0:0,0:0:0:0:
0,372,92886,6,0,P|49:384|98:370,1,101.999996887207,2|0,0:0|0:0,0:0:0:0:
178,302,93360,2,0,P|227:288|277:302,1,101.999996887207,2|0,0:0|0:0,0:0:0:0:
362,362,93833,2,0,P|399:364|432:360,1,50.9999984436036,2|0,0:0|0:0,0:0:0:0:
481,276,94149,6,0,L|494:226,2,50.9999984436036,2|0|0,0:0|0:0|0:0,0:0:0:0:
399,213,94623,2,0,L|392:105,1,101.999996887207,2|0,0:0|0:0,0:0:0:0:
287,171,95096,2,0,P|261:175|236:172,1,50.9999984436036,2|0,0:0|0:0,0:0:0:0:
115,139,95412,5,4,0:1:0:0:
