osu file format v14

[General]
AudioFilename: audio.mp3
AudioLeadIn: 0
PreviewTime: 162815
Countdown: 0
SampleSet: Soft
StackLeniency: 0.7
Mode: 0
LetterboxInBreaks: 0
WidescreenStoryboard: 0

[Editor]
DistanceSpacing: 1.2
BeatDivisor: 2
GridSize: 4
TimelineZoom: 1.4

[Metadata]
Title:Re:TrymenT
TitleUnicode:Re:TrymenT
Artist:Hotaru Murasaki
ArtistUnicode:紫咲ほたる
Creator:Kyuukai
Version:Re:NormaL
Source:Re:LieF~親愛なるあなたへ~
Tags:original dear you soundtrack retryment rask relief Shin'ainaru Anata e opening eroge visual novel kurantemelodii phyloukz kin linada yaleufeu searasp hazu firis mistlud sakurauchi riko
BeatmapID:1226593
BeatmapSetID:563680

[Difficulty]
HPDrainRate:4
CircleSize:3
OverallDifficulty:4
ApproachRate:5
SliderMultiplier:0.8
SliderTickRate:1

[Events]
//Background and Video events
0,0,"forever alone.jpg",0,0
//Break Periods
2,77752,86457
2,143436,159720
2,163447,172352
//Storyboard Layer 0 (Background)
//Storyboard Layer 1 (Fail)
//Storyboard Layer 2 (Pass)
//Storyboard Layer 3 (Foreground)
//Storyboard Sound Samples

[TimingPoints]
1763,315.789473684211,4,2,1,50,1,0
11868,-100,4,2,1,65,0,0
20078,-100,4,2,1,55,0,0
20710,-100,4,2,1,45,0,0
21973,-100,4,2,1,50,0,0
42184,-100,4,2,1,55,0,0
47236,-100,4,2,1,60,0,0
52289,-100,4,2,1,65,0,0
54815,-100,4,2,1,70,0,0
55131,-100,4,2,1,30,0,0
55289,-100,4,2,1,40,0,0
55447,-100,4,2,1,50,0,0
55605,-100,4,2,1,60,0,0
55763,-100,4,2,1,70,0,0
55920,-100,4,2,1,80,0,0
56710,-100,4,2,1,50,0,0
57026,-100,4,2,1,65,0,0
57341,-100,4,2,1,80,0,1
58920,-100,4,2,1,80,0,1
58999,-100,4,2,1,80,0,1
59236,-100,4,2,1,80,0,1
59315,-100,4,2,1,80,0,1
63973,-100,4,2,1,80,0,1
64052,-100,4,2,1,80,0,1
64289,-100,4,2,1,80,0,1
64368,-100,4,2,1,80,0,1
64605,-100,4,2,1,80,0,1
64684,-100,4,2,1,80,0,1
72499,-100,4,2,1,80,0,1
75026,-100,4,2,1,80,0,1
77552,-100,4,2,1,60,0,0
87657,-100,4,2,1,50,0,0
120815,-100,4,2,1,30,0,0
120973,-100,4,2,1,40,0,0
121131,-100,4,2,1,50,0,0
121289,-100,4,2,1,60,0,0
121447,-100,4,2,1,70,0,0
121605,-100,4,2,1,80,0,0
122394,-100,4,2,1,50,0,0
122710,-100,4,2,1,65,0,0
123026,-100,4,2,1,80,0,1
124605,-100,4,2,1,80,0,1
124684,-100,4,2,1,80,0,1
124920,-100,4,2,1,80,0,1
124999,-100,4,2,1,80,0,1
129657,-100,4,2,1,80,0,1
129736,-100,4,2,1,80,0,1
129973,-100,4,2,1,80,0,1
130052,-100,4,2,1,80,0,1
130289,-100,4,2,1,80,0,1
130368,-100,4,2,1,80,0,1
138184,-100,4,2,1,80,0,1
140710,-100,4,2,1,80,0,1
143236,-100,4,2,1,50,0,0
163447,-100,4,2,1,55,0,0
173236,-100,4,2,1,65,0,0
173552,-100,4,2,1,60,0,0
177341,-100,4,2,1,65,0,0
178605,-100,4,2,1,70,0,1
179868,-100,4,2,1,80,0,1
182236,-100,4,2,1,85,0,1
183657,-100,4,2,1,85,0,0
184289,315.789473684211,4,2,1,70,1,0
199446,-100,4,2,1,70,0,1
200710,-100,4,2,1,80,0,1
201973,-100,4,2,1,90,0,1
204499,-100,4,2,1,90,0,0
204815,-100,4,2,1,40,0,0
204894,-100,4,2,1,50,0,0
204973,-100,4,2,1,60,0,0
205052,-100,4,2,1,70,0,0
205131,315.789473684211,4,2,1,80,1,1
206709,-100,4,2,1,80,0,1
206788,-100,4,2,1,80,0,1
207025,-100,4,2,1,80,0,1
207104,-100,4,2,1,80,0,1
211762,-100,4,2,1,80,0,1
211841,-100,4,2,1,80,0,1
212078,-100,4,2,1,80,0,1
212157,-100,4,2,1,80,0,1
212394,-100,4,2,1,80,0,1
212473,-100,4,2,1,80,0,1
220288,-100,4,2,1,80,0,1
221552,-100,4,2,1,80,0,1
222815,-100,4,2,1,80,0,1
223920,-100,4,2,1,80,0,1
225341,-100,4,2,1,50,0,0
239157,-100,4,2,1,5,0,0
239236,-100,4,2,1,30,0,0
243025,-100,4,2,1,20,0,0

[Colours]
Combo1 : 255,194,166
Combo2 : 255,147,147
Combo3 : 113,208,255
Combo4 : 255,198,255

[HitObjects]
136,108,1763,6,0,P|194:115|248:90,2,120,2|2|2,0:0|0:0|0:0,0:0:0:0:
69,38,3026,2,0,P|42:80|49:152,1,120,2|2,0:0|0:0,0:0:0:0:
137,259,3973,1,2,0:0:0:0:
214,202,4289,2,0,P|272:192|344:210,1,120,2|2,0:0|0:0,0:0:0:0:
466,253,5236,1,2,0:0:0:0:
387,309,5552,6,0,P|328:318|269:306,2,120,2|2|2,0:0|0:0|0:0,0:0:0:0:
466,253,6815,2,0,P|485:308|466:364,2,120,2|2|2,0:0|0:0|0:0,0:0:0:0:
408,176,8078,2,0,P|364:169|313:178,1,80,2|2,0:0|0:0,0:0:0:0:
267,248,8710,2,0,P|228:254|189:250,1,80,2|2,0:0|0:0,0:0:0:0:
116,188,9341,6,0,P|93:242|113:309,2,120,2|2|2,0:0|0:0|0:0,0:0:0:0:
178,115,10605,2,0,P|124:92|57:112,2,120,2|2|2,0:0|0:0|0:0,0:0:0:0:
209,205,11868,6,0,P|284:219|375:203,1,160,6|0,0:0|0:0,0:0:0:0:
424,130,12815,1,0,0:0:0:0:
347,71,13131,2,0,P|280:62|213:75,2,120,2|2|2,0:0|0:0|0:0,0:0:0:0:
424,130,14394,6,0,P|446:206|429:294,1,160,6|0,0:0|0:0,0:0:0:0:
370,356,15341,2,0,L|275:350,1,80,0|0,0:0|0:0,0:0:0:0:
218,287,15973,2,0,L|138:292,2,80,2|2|2,0:0|0:0|0:0,0:0:0:0:
309,257,16920,6,0,P|328:181|306:105,1,160,2|0,0:0|0:0,0:0:0:0:
232,43,17868,1,0,0:0:0:0:
160,106,18184,2,0,P|137:181|157:258,1,160,2|0,0:0|0:0,0:0:0:0:
234,316,19131,1,2,0:0:0:0:
309,257,19447,6,0,P|351:267|392:256,1,80,2|2,0:0|0:0,0:0:0:0:
431,174,20078,2,0,P|389:164|348:175,1,80,2|2,0:0|0:0,0:0:0:0:
257,174,20710,2,0,P|179:155|92:181,1,160,2|0,0:0|0:0,0:0:0:0:
181,350,21973,6,0,P|112:358|56:348,2,120,2|2|2,0:0|0:0|0:0,0:0:0:0:
257,174,23868,2,0,P|220:160|181:156,1,80,2|2,0:0|0:0,0:0:0:0:
103,95,24499,2,0,P|83:151|98:209,2,120,2|2|2,0:0|0:0|0:0,0:0:0:0:
255,210,26394,2,0,P|292:224|331:228,1,80,2|2,0:0|0:0,0:0:0:0:
409,289,27025,6,0,P|429:233|414:175,2,120,2|2|2,0:0|0:0|0:0,0:0:0:0:
255,210,28605,2,0,L|161:203,2,80,2|2|2,0:0|0:0|0:0,0:0:0:0:
335,157,29552,6,0,P|349:204|316:284,2,120,2|2|2,0:0|0:0|0:0,0:0:0:0:
255,210,30815,2,0,P|178:191|74:219,1,160
49,287,31763,1,2,0:0:0:0:
111,359,32078,6,0,P|165:371|246:360,2,120,2|2|2,0:0|0:0|0:0,0:0:0:0:
99,205,33973,2,0,P|90:166|98:127,1,80,2|2,0:0|0:0,0:0:0:0:
179,76,34605,2,0,P|114:33|52:44,2,120,2|2|2,0:0|0:0|0:0,0:0:0:0:
98,127,35868,6,0,P|55:192|66:254,2,120,0|0|2,0:0|0:0|0:0,0:0:0:0:
150,207,37131,2,0,P|215:250|277:239,2,120,2|2|2,0:0|0:0|0:0,0:0:0:0:
260,49,38710,2,0,P|304:42|350:55,2,80,2|2|2,0:0|0:0|0:0,0:0:0:0:
183,109,39657,6,0,P|235:142|297:138,2,120,2|2|2,0:0|0:0|0:0,0:0:0:0:
57,254,41236,2,0,P|48:297|77:353,2,80,2|0|2,0:0|0:0|0:0,0:0:0:0:
145,292,42184,6,0,P|221:312|298:293,1,160,6|2,0:0|0:0,0:0:0:0:
369,228,43131,2,0,P|393:274|390:325,2,80,2|0|0,0:0|0:0|0:0,0:0:0:0:
280,191,44078,1,0,0:0:0:0:
228,272,44394,1,2,0:0:0:0:
135,246,44710,6,0,P|106:172|131:89,1,160,6|2,0:0|0:0,0:0:0:0:
195,30,45657,1,2,0:0:0:0:
218,123,45973,1,0,0:0:0:0:
287,56,46289,2,0,P|328:61|394:51,2,80,2|10|2,0:0|0:0|0:0,0:0:0:0:
195,30,47236,5,6,0:0:0:0:
125,96,47552,2,0,P|106:172|135:246,1,160,0|0,0:0|0:0,0:0:0:0:
309,164,48815,2,0,P|348:174|397:158,2,80,0|10|0,0:0|0:0|0:0,0:0:0:0:
328,69,49763,5,10,0:0:0:0:
237,100,50078,2,0,P|214:180|259:246,1,160,0|0,0:0|0:0,0:0:0:0:
419,148,51341,2,0,L|424:62,2,80,8|10|10,0:0|0:0|0:0,0:0:0:0:
414,244,52289,5,6,0:0:0:0:
342,308,52605,2,0,P|298:299|260:306,1,80,0|2,0:0|0:0,0:0:0:0:
186,361,53236,1,0,0:0:0:0:
105,309,53552,2,0,P|99:269|108:230,1,80,0|0,0:0|0:0,0:0:0:0:
155,146,54184,1,0,0:0:0:0:
207,226,54499,1,0,0:0:0:0:
263,304,54815,6,0,P|367:281|394:157,1,240,6|10,0:0|0:0,0:0:0:0:
384,116,55920,1,0,0:0:0:0:
180,244,56710,5,0,0:0:0:0:
57,97,57341,6,0,P|133:109|221:95,1,160,6|2,0:0|0:0,0:0:0:0:
296,46,58289,1,10,0:0:0:0:
376,98,58605,1,0,0:0:0:0:
403,189,58920,2,0,P|439:191|487:174,2,80,10|2|10,0:0|0:0|0:0,0:0:0:0:
308,170,59868,6,0,P|232:158|144:172,1,160,2|2,0:0|0:0,0:0:0:0:
59,200,60815,1,10,0:0:0:0:
38,293,61131,1,0,0:0:0:0:
95,369,61447,2,0,P|135:376|192:364,2,80,10|0|10,0:0|0:0|0:0,0:0:0:0:
137,282,62394,6,0,P|216:270|315:292,1,160,2|2,0:0|0:0,0:0:0:0:
376,332,63341,1,10,0:0:0:0:
453,274,63657,1,2,0:0:0:0:
481,182,63973,2,0,L|477:75,1,80,10|2,0:0|0:0,0:0:0:0:
414,29,64605,1,10,0:0:0:0:
329,74,64920,6,0,P|249:81|151:57,1,160,6|6,0:0|0:0,0:0:0:0:
92,120,65868,1,8,0:0:0:0:
145,199,66184,2,0,P|225:192|323:216,1,160,6|8,0:0|0:0,0:0:0:0:
372,273,67131,1,8,0:0:0:0:
292,327,67447,6,0,P|212:334|114:310,1,160,14|2,0:0|0:0,0:0:0:0:
63,253,68394,1,8,0:0:0:0:
144,199,68710,2,0,P|222:214|301:207,1,160,6|2,0:0|0:0,0:0:0:0:
381,154,69657,1,10,0:0:0:0:
459,98,69973,6,0,P|477:155|470:192,2,80,6|10|2,0:0|0:0|0:0,0:0:0:0:
371,58,70920,1,10,0:0:0:0:
283,98,71236,2,0,P|229:102|188:90,1,80,2|10,0:0|0:0,0:0:0:0:
127,38,71868,2,0,P|73:34|32:46,1,80,8|8,0:0|0:0,0:0:0:0:
13,128,72499,6,0,L|20:222,1,80,14|10,0:0|0:0,0:0:0:0:
105,250,73131,2,0,L|112:156,1,80,10|10,0:0|0:0,0:0:0:0:
119,75,73763,2,0,L|38:35,2,80,10|10|10,0:0|0:0|0:0,0:0:0:0:
204,119,74710,1,10,0:0:0:0:
280,61,75026,6,0,P|298:134|254:200,2,120,10|2|0,0:0|0:0|0:0,0:0:0:0:
243,30,76131,1,6,0:0:0:0:
256,192,76289,12,6,77552,0:0:0:0:
443,217,87657,6,0,P|449:279|432:366,2,120,2|2|2,0:0|0:0|0:0,0:0:0:0:
290,47,89552,6,0,P|284:86|288:126,1,80,2|2,0:0|0:0,0:0:0:0:
235,205,90184,2,0,P|292:221|348:201,2,120,2|2|2,0:0|0:0|0:0,0:0:0:0:
77,259,92078,6,0,P|116:253|156:257,1,80,2|2,0:0|0:0,0:0:0:0:
235,205,92710,2,0,P|250:262|230:317,2,120,2|2|2,0:0|0:0|0:0,0:0:0:0:
43,184,94289,2,0,P|33:238|67:286,2,80,2|2|2,0:0|0:0|0:0,0:0:0:0:
88,100,95236,2,0,P|145:55|221:52,2,120,2|2|2,0:0|0:0|0:0,0:0:0:0:
58,291,96815,2,0,P|97:297|136:290,2,80,2|0|2,0:0|0:0|0:0,0:0:0:0:
96,202,97763,6,0,P|161:198|216:238,2,120,2|2|2,0:0|0:0|0:0,0:0:0:0:
250,89,99657,2,0,P|289:93|329:89,1,80,2|2,0:0|0:0,0:0:0:0:
403,147,100289,6,0,P|421:92|405:35,2,120,2|2|2,0:0|0:0|0:0,0:0:0:0:
345,224,101552,2,0,P|404:243|459:226,2,120,0|0|2,0:0|0:0|0:0,0:0:0:0:
267,166,102815,6,0,P|248:225|265:280,2,120,2|2|2,0:0|0:0|0:0,0:0:0:0:
430,65,104394,2,0,P|462:71|516:61,2,80,2|2|2,0:0|0:0|0:0,0:0:0:0:
338,36,105341,6,0,P|272:24|197:42,2,120,2|2|2,0:0|0:0|0:0,0:0:0:0:
379,223,106920,2,0,P|411:229|465:219,2,80,2|0|2,0:0|0:0|0:0,0:0:0:0:
301,165,107868,6,0,L|141:170,1,160,6|2,0:0|0:0,0:0:0:0:
58,219,108815,2,0,P|46:181|49:142,2,80,2|2|0,0:0|0:0|0:0,0:0:0:0:
115,296,109763,1,0,0:0:0:0:
197,246,110078,1,2,0:0:0:0:
249,326,110394,2,0,L|408:331,1,160,6|2,0:0|0:0,0:0:0:0:
485,273,111341,1,2,0:0:0:0:
445,185,111657,1,0,0:0:0:0:
357,145,111973,2,0,P|349:184|357:223,2,80,2|10|2,0:0|0:0|0:0,0:0:0:0:
436,90,112920,5,14,0:0:0:0:
445,185,113236,2,0,P|451:244|383:316,1,160,0|0,0:0|0:0,0:0:0:0:
200,271,114499,2,0,L|109:281,2,80,0|10|0,0:0|0:0|0:0,0:0:0:0:
268,338,115447,2,0,P|293:248|250:189,1,160,10|8,0:0|0:0,0:0:0:0:
187,132,116394,1,0,0:0:0:0:
119,311,117026,2,0,L|28:321,2,80,8|8|8,0:0|0:0|0:0,0:0:0:0:
213,276,117973,5,6,0:0:0:0:
281,343,118289,2,0,P|321:350|391:332,1,80,0|2,0:0|0:0,0:0:0:0:
435,285,118920,1,2,0:0:0:0:
366,217,119236,2,0,P|326:210|256:228,1,80,0|0,0:0|0:0,0:0:0:0:
213,276,119868,1,0,0:0:0:0:
137,216,120184,1,0,0:0:0:0:
126,119,120499,6,0,P|41:194|87:297,1,240,6|10,0:0|0:0,0:0:0:0:
128,324,121605,1,2,0:0:0:0:
324,188,122394,5,0,0:0:0:0:
187,55,123026,6,0,P|267:39|371:71,1,160,6|2,0:0|0:0,0:0:0:0:
420,111,123973,1,10,0:0:0:0:
448,202,124289,1,0,0:0:0:0:
397,283,124605,2,0,P|351:286|310:271,2,80,10|2|10,0:0|0:0|0:0,0:0:0:0:
367,191,125552,6,0,P|288:172|203:195,1,160,2|2,0:0|0:0,0:0:0:0:
155,266,126499,1,10,0:0:0:0:
98,188,126815,1,0,0:0:0:0:
25,251,127131,2,0,L|27:341,2,80,10|0|10,0:0|0:0|0:0,0:0:0:0:
19,155,128078,6,0,P|98:103|179:156,1,160,2|2,0:0|0:0,0:0:0:0:
212,198,129026,1,10,0:0:0:0:
282,132,129341,1,2,0:0:0:0:
343,205,129657,2,0,P|377:213|440:200,1,80,10|2,0:0|0:0,0:0:0:0:
505,160,130289,1,10,0:0:0:0:
460,74,130605,6,0,P|373:79|299:53,1,160,6|6,0:0|0:0,0:0:0:0:
243,130,131552,1,8,0:0:0:0:
289,214,131868,2,0,P|376:209|450:235,1,160,6|8,0:0|0:0,0:0:0:0:
487,317,132815,1,8,0:0:0:0:
404,366,133131,6,0,L|232:360,1,160,14|2,0:0|0:0,0:0:0:0:
167,302,134078,1,8,0:0:0:0:
198,211,134394,2,0,L|370:205,1,160,6|2,0:0|0:0,0:0:0:0:
420,132,135341,1,10,0:0:0:0:
486,201,135657,6,0,P|490:245|471:304,2,80,2|10|2,0:0|0:0|0:0,0:0:0:0:
420,132,136605,1,10,0:0:0:0:
357,205,136920,2,0,P|307:213|252:191,1,80,2|10,0:0|0:0,0:0:0:0:
196,155,137552,2,0,P|146:147|91:169,1,80,8|8,0:0|0:0,0:0:0:0:
54,226,138184,6,0,L|59:313,1,80,14|10,0:0|0:0,0:0:0:0:
151,332,138815,2,0,L|155:252,1,80,10|10,0:0|0:0,0:0:0:0:
223,183,139447,2,0,L|324:170,2,80,10|10|10,0:0|0:0|0:0,0:0:0:0:
156,113,140394,1,10,0:0:0:0:
92,41,140710,6,0,P|59:117|81:176,2,120,10|2|0,0:0|0:0|0:0,0:0:0:0:
138,27,141815,1,6,0:0:0:0:
256,192,141973,12,2,143236,0:0:0:0:
256,192,160920,12,0,162184,0:0:0:0:
117,141,173552,6,0,P|181:97|262:107,1,160,4|4,3:0|3:0,0:0:0:0:
394,242,174815,2,0,P|330:286|249:276,1,160,4|4,3:0|3:0,0:0:0:0:
81,187,176078,6,0,P|57:263|96:359,2,160,4|4|4,3:0|3:0|3:0,0:0:0:0:
144,114,177657,2,0,P|182:119|240:108,1,80,4|0,3:0|0:0,0:0:0:0:
313,81,178289,1,2,0:0:0:0:
388,140,178605,6,0,L|381:263,1,80,14|10,0:0|0:0,0:0:0:0:
296,261,179236,2,0,L|291:181,1,80,2|2,0:0|0:0,0:0:0:0:
223,113,179868,2,0,L|128:109,2,80,10|10|2,0:0|0:0|0:0,0:0:0:0:
313,81,180815,1,2,0:0:0:0:
388,140,181131,6,0,P|451:145|508:128,2,120,10|2|0,0:0|0:0|0:0,0:0:0:0:
344,116,182236,1,6,0:0:0:0:
256,192,182394,12,10,183657,0:0:0:0:
263,215,184289,6,0,P|250:271|282:350,2,120,6|2|10,0:0|0:0|0:0,0:0:0:0:
353,183,185552,2,0,P|409:196|488:164,2,120,2|2|10,0:0|0:0|0:0,0:0:0:0:
280,117,186815,6,0,P|240:112|200:117,1,80,2|10,0:0|0:0,0:0:0:0:
126,177,187446,2,0,P|122:224|134:283,1,80,0|10,0:0|0:0,0:0:0:0:
214,217,188078,2,0,P|270:230|349:198,2,120,2|2|10,0:0|0:0|0:0,0:0:0:0:
126,177,189341,6,0,P|70:164|-9:196,2,120,2|2|10,0:0|0:0|0:0,0:0:0:0:
200,117,190604,2,0,P|244:111|302:122,1,80,2|10,0:0|0:0,0:0:0:0:
324,199,191236,2,0,P|363:204|403:201,1,80,2|10,0:0|0:0,0:0:0:0:
477,140,191867,6,0,P|497:196|464:275,2,120,6|2|10,0:0|0:0|0:0,0:0:0:0:
403,201,193131,2,0,P|383:145|416:66,2,120,6|2|10,0:0|0:0|0:0,0:0:0:0:
482,252,194394,5,6,0:0:0:0:
440,338,194710,2,0,P|381:343|337:327,1,80,0|2,0:0|0:0,0:0:0:0:
273,298,195341,1,10,0:0:0:0:
188,251,195657,2,0,L|45:265,2,120,6|2|10,0:0|0:0|0:0,0:0:0:0:
230,165,196920,6,0,P|269:159|328:170,1,80,6|10,0:0|0:0,0:0:0:0:
339,201,197394,2,0,P|378:207|437:196,1,80,2|2,0:0|0:0,0:0:0:0:
493,143,198025,1,2,0:0:0:0:
374,61,198499,2,0,P|287:75|208:55,1,160,10|10,0:0|0:0,0:0:0:0:
139,114,199446,6,0,L|146:199,1,80,14|10,0:0|0:0,0:0:0:0:
233,234,200078,2,0,L|240:149,1,80,10|10,0:0|0:0,0:0:0:0:
309,88,200710,2,0,L|405:82,2,80,10|10|10,0:0|0:0|0:0,0:0:0:0:
217,59,201657,1,10,0:0:0:0:
139,114,201973,6,0,L|5:109,2,120,10|2|8,0:0|0:0|0:0,0:0:0:0:
181,136,203078,1,10,0:0:0:0:
256,192,203236,12,0,204499,0:0:0:0:
420,63,205131,6,0,P|450:136|411:216,1,160,4|2,0:0|0:0,0:0:0:0:
355,277,206078,1,10,0:0:0:0:
286,209,206394,1,0,0:0:0:0:
210,267,206709,2,0,L|113:260,2,80,10|2|10,0:0|0:0|0:0,0:0:0:0:
260,349,207657,6,0,P|303:284|286:209,1,160,2|2,0:0|0:0,0:0:0:0:
231,128,208604,1,10,0:0:0:0:
155,187,208920,1,0,0:0:0:0:
78,244,209236,2,0,L|84:334,2,80,10|2|10,0:0|0:0|0:0,0:0:0:0:
155,187,210183,6,0,P|226:214|331:165,1,160,2|2,0:0|0:0,0:0:0:0:
379,131,211131,1,10,0:0:0:0:
404,223,211446,1,2,0:0:0:0:
468,151,211762,2,0,P|465:104|430:57,1,80,10|2,0:0|0:0,0:0:0:0:
362,34,212394,1,10,0:0:0:0:
286,92,212709,6,0,P|194:108|100:73,1,160,6|6,0:0|0:0,0:0:0:0:
52,35,213657,1,8,0:0:0:0:
9,121,213973,2,0,P|25:213|-10:307,1,160,6|8,0:0|0:0,0:0:0:0:
73,346,214920,1,8,0:0:0:0:
150,288,215236,6,0,L|325:300,1,160,14|2,0:0|0:0,0:0:0:0:
376,229,216183,1,8,0:0:0:0:
323,148,216499,2,0,L|163:137,1,160,6|2,0:0|0:0,0:0:0:0:
98,207,217446,1,10,0:0:0:0:
150,288,217762,6,0,P|140:320|142:378,2,80,2|10|2,0:0|0:0|0:0,0:0:0:0:
219,221,218709,1,10,0:0:0:0:
292,282,219025,2,0,P|335:287|390:280,1,80,2|2,0:0|0:0,0:0:0:0:
446,223,219657,2,0,P|451:180|444:125,1,80,0|0,0:0|0:0,0:0:0:0:
389,67,220288,6,0,L|299:70,1,80,14|10,0:0|0:0,0:0:0:0:
274,159,220920,2,0,L|364:161,1,80,10|10,0:0|0:0,0:0:0:0:
448,143,221552,2,0,P|482:86|486:45,2,80,10|10|10,0:0|0:0|0:0,0:0:0:0:
415,233,222499,1,10,0:0:0:0:
353,160,222815,6,0,P|300:131|234:131,2,120,10|2|0,0:0|0:0|0:0,0:0:0:0:
387,193,223920,1,6,0:0:0:0:
336,331,224394,2,0,L|155:329,1,160,2|10,0:0|0:0,0:0:0:0:
96,275,225341,6,0,L|77:167,2,80,6|2|0,0:0|0:0|0:0,0:0:0:0:
176,329,226288,1,2,0:0:0:0:
218,141,226920,2,0,L|125:137,2,80,2|2|2,0:0|0:0|0:0,0:0:0:0:
313,145,227867,5,2,0:0:0:0:
397,190,228183,1,2,0:0:0:0:
349,273,228499,1,0,0:0:0:0:
264,228,228815,1,2,0:0:0:0:
313,145,229131,2,0,L|359:66,2,80,2|2|2,0:0|0:0|0:0,0:0:0:0:
264,228,230078,1,2,0:0:0:0:
209,306,230394,6,0,P|124:308|40:286,1,160,2|0,0:0|0:0,0:0:0:0:
24,198,231341,1,2,0:0:0:0:
103,144,231657,2,0,P|117:195|111:236,2,80,2|0|2,0:0|0:0|0:0,0:0:0:0:
69,53,232604,1,2,0:0:0:0:
162,30,232920,6,0,P|241:22|323:33,2,160,2|2|2,0:0|0:0|0:0,0:0:0:0:
238,206,234815,1,2,0:0:0:0:
238,302,235131,1,0,0:0:0:0:
321,255,235446,1,2,0:0:0:0:
320,32,236709,5,2,0:0:0:0:
486,128,237341,2,0,L|481:222,1,80,2|2,0:0|0:0,0:0:0:0:
424,286,237973,6,0,B|322:236|284:326|191:274,1,240,2|0,0:0|0:0,0:0:0:0:
164,182,239236,2,0,P|95:259|180:371,1,240,2|2,0:0|0:0,0:0:0:0:
192,274,240499,5,0,0:0:0:0:
256,192,240815,12,0,243025,0:0:0:0:
