osu file format v14

[General]
AudioFilename: owoozo.mp3
AudioLeadIn: 0
PreviewTime: 163126
Countdown: 0
SampleSet: Soft
StackLeniency: 0.5
Mode: 0
LetterboxInBreaks: 0
WidescreenStoryboard: 1

[Editor]
Bookmarks: 56784,72573,77626,86310,123100,143310,153415,163521,172837,204573,205205,221310
DistanceSpacing: 0.8
BeatDivisor: 8
GridSize: 16
TimelineZoom: 2

[Metadata]
Title:Re:TrymenT
TitleUnicode:Re:TrymenT
Artist:Hotaru Murasaki
ArtistUnicode:紫咲ほたる
Creator:Komore
Version:joker's Insane
Source:Re:LieF〜親愛なるあなたへ〜
Tags:retryment rask relief Shin'ainaru Anata e opening full eroge visual novel amari saya piano dailycare garden irohas joker- mugiwarasekai
BeatmapID:1459210
BeatmapSetID:625986

[Difficulty]
HPDrainRate:5.9
CircleSize:4.2
OverallDifficulty:8
ApproachRate:9.1
SliderMultiplier:1.5
SliderTickRate:1

[Events]
//Background and Video events
0,0,"aaa.jpg",0,0
//Break Periods
2,77825,85726
2,143509,152831
2,163521,172410
//Storyboard Layer 0 (Background)
//Storyboard Layer 1 (Fail)
//Storyboard Layer 2 (Pass)
//Storyboard Layer 3 (Foreground)
//Storyboard Sound Samples

[TimingPoints]
1837,315.789473684211,4,2,1,50,1,2
1837,-125,4,2,1,50,0,2
9415,-125,4,2,1,50,0,184362
10600,-125,4,2,1,50,0,184362
10679,-125,4,2,1,50,0,184362
11626,-83.3333333333333,4,2,1,50,0,184362
11863,-83.3333333333333,4,2,1,50,0,184362
11942,-83.3333333333333,4,2,1,50,0,184362
20784,-136.986301369863,4,2,1,50,0,184362
22047,-125,4,2,1,50,0,184362
42258,-100,4,2,1,50,0,184362
44705,-100,4,2,1,50,0,184362
44784,-100,4,2,1,50,0,184362
46679,-100,4,2,1,50,0,184362
47626,-100,4,2,1,50,0,184362
52284,-100,4,2,1,50,0,184362
52363,-90.9090909090909,4,2,1,50,0,184362
55126,-90.9090909090909,4,2,1,50,0,184362
55205,-90.9090909090909,4,2,1,50,0,184362
55994,-142.857142857143,4,2,1,50,0,184362
56705,-90.9090909090909,4,2,1,50,0,184362
56784,-52.6315789473684,4,2,2,50,0,184362
56863,-52.6315789473684,4,2,2,50,0,184362
57100,-52.6315789473684,4,2,1,50,0,184362
57415,-83.3333333333333,4,2,1,50,0,184362
57652,-83.3333333333333,4,2,1,50,0,184362
57731,-83.3333333333333,4,2,1,50,0,184362
60179,-83.3333333333333,4,2,1,50,0,184362
60258,-83.3333333333333,4,2,1,50,0,184362
63968,-83.3333333333333,4,2,1,50,0,184362
64047,-83.3333333333333,4,2,1,50,0,184362
64284,-83.3333333333333,4,2,1,50,0,184362
64363,-83.3333333333333,4,2,1,50,0,184362
64600,-83.3333333333333,4,2,1,50,0,184362
64679,-83.3333333333333,4,2,1,50,0,184362
64915,-83.3333333333333,4,2,1,50,0,184362
64994,-83.3333333333333,4,2,1,50,0,184362
65231,-83.3333333333333,4,2,1,50,0,184362
65310,-83.3333333333333,4,2,1,50,0,184362
65863,-83.3333333333333,4,2,1,50,0,184362
65942,-83.3333333333333,4,2,1,50,0,184362
69652,-83.3333333333333,4,2,1,50,0,184362
69731,-83.3333333333333,4,2,1,50,0,184362
72573,-83.3333333333333,4,2,1,50,0,184362
86310,-125,4,2,1,50,0,184362
87731,-125,4,2,1,50,0,184362
107942,-100,4,2,1,50,0,184362
110389,-100,4,2,1,50,0,184362
110468,-100,4,2,1,50,0,184362
112363,-100,4,2,1,50,0,184362
113310,-100,4,2,1,50,0,184362
117968,-100,4,2,1,50,0,184362
118047,-90.9090909090909,4,2,1,50,0,184362
120810,-90.9090909090909,4,2,1,50,0,184362
120889,-90.9090909090909,4,2,1,50,0,184362
121679,-142.857142857143,4,2,1,50,0,184362
122389,-200,4,2,1,50,0,184362
122468,-52.6315789473684,4,2,2,50,0,184362
122547,-52.6315789473684,4,2,2,50,0,184362
122705,-52.6315789473684,4,2,2,50,0,184362
122784,-52.6315789473684,4,2,1,50,0,184362
123100,-83.3333333333333,4,2,1,50,0,184362
123337,-83.3333333333333,4,2,1,50,0,184362
123415,-83.3333333333333,4,2,1,50,0,184362
125863,-83.3333333333333,4,2,1,50,0,184362
125942,-83.3333333333333,4,2,1,50,0,184362
128073,-83.3333333333333,4,2,1,50,0,184362
128152,-83.3333333333333,4,2,1,50,0,184362
129652,-83.3333333333333,4,2,1,50,0,184362
129731,-83.3333333333333,4,2,1,50,0,184362
129968,-83.3333333333333,4,2,1,50,0,184362
130047,-83.3333333333333,4,2,1,50,0,184362
130284,-83.3333333333333,4,2,1,50,0,184362
130363,-83.3333333333333,4,2,1,50,0,184362
130679,-83.3333333333333,4,2,1,50,0,184362
130915,-83.3333333333333,4,2,1,50,0,184362
130994,-83.3333333333333,4,2,1,50,0,184362
131547,-83.3333333333333,4,2,1,50,0,184362
131626,-83.3333333333333,4,2,1,50,0,184362
135652,-83.3333333333333,4,2,1,50,0,184362
135731,-90.9090909090909,4,2,1,50,0,184362
135968,-90.9090909090909,4,2,1,50,0,184362
136047,-90.9090909090909,4,2,1,50,0,184362
138258,-90.9090909090909,4,2,1,50,0,184362
153415,-133.333333333333,4,2,3,50,0,184362
160994,-133.333333333333,4,2,1,50,0,184362
162258,-133.333333333333,4,2,1,50,0,184362
173626,-100,4,2,1,50,0,184362
178679,-90.9090909090909,4,2,1,50,0,184362
182547,-90.9090909090909,4,2,1,50,0,184362
182626,-90.9090909090909,4,2,1,50,0,184362
183731,-90.9090909090909,4,2,1,50,0,184362
184363,315.789473684211,4,2,1,50,1,0
184363,-90.9090909090909,4,2,1,50,0,0
186810,-100,4,2,1,50,0,0
186889,-90.9090909090909,4,2,1,50,0,0
190915,-90.9090909090909,4,2,1,50,0,0
190994,-90.9090909090909,4,2,1,50,0,0
191863,-90.9090909090909,4,2,1,50,0,0
191941,-90.9090909090909,4,2,1,50,0,0
192178,-90.9090909090909,4,2,1,50,0,0
192257,-90.9090909090909,4,2,1,50,0,0
192810,-90.9090909090909,4,2,1,50,0,0
192889,-90.9090909090909,4,2,1,50,0,0
193441,-90.9090909090909,4,2,1,50,0,0
193520,-90.9090909090909,4,2,1,50,0,0
194389,-90.9090909090909,4,2,1,50,0,0
194468,-90.9090909090909,4,2,1,50,0,0
195652,-90.9090909090909,4,2,1,50,0,0
195731,-90.9090909090909,4,2,1,50,0,0
196915,-90.9090909090909,4,2,1,50,0,0
196994,-90.9090909090909,4,2,1,50,0,0
198889,-90.9090909090909,4,2,1,50,0,0
199520,-90.9090909090909,4,2,1,50,0,0
200468,-90.9090909090909,4,2,1,50,0,0
200705,-90.9090909090909,4,2,1,50,0,0
200784,-90.9090909090909,4,2,1,50,0,0
202047,-90.9090909090909,4,2,1,50,0,0
203468,-90.9090909090909,4,2,1,50,0,0
204889,-90.9090909090909,4,2,1,50,0,0
205205,315.789473684211,4,2,1,50,1,0
205205,-71.4285714285714,4,2,1,50,0,0
205441,-100,4,2,1,50,0,0
205520,-83.3333333333333,4,2,1,50,0,0
207731,-83.3333333333333,4,2,1,50,0,0
207968,-83.3333333333333,4,2,1,50,0,0
208047,-83.3333333333333,4,2,1,50,0,0
211757,-83.3333333333333,4,2,1,50,0,0
211836,-83.3333333333333,4,2,1,50,0,0
212073,-83.3333333333333,4,2,1,50,0,0
212152,-83.3333333333333,4,2,1,50,0,0
212389,-83.3333333333333,4,2,1,50,0,0
212468,-83.3333333333333,4,2,1,50,0,0
212783,-83.3333333333333,4,2,1,50,0,0
213020,-83.3333333333333,4,2,1,50,0,0
213099,-83.3333333333333,4,2,1,50,0,0
213652,-83.3333333333333,4,2,1,50,0,0
213731,-83.3333333333333,4,2,1,50,0,0
217441,-83.3333333333333,4,2,1,50,0,0
217520,-83.3333333333333,4,2,1,50,0,0
220362,-83.3333333333333,4,2,1,50,0,0
225415,-133.333333333333,4,2,1,50,0,0
230389,-133.333333333333,4,2,1,50,0,0
230468,-133.333333333333,4,2,1,50,0,0
232994,-133.333333333333,4,2,2,50,0,0
233073,-133.333333333333,4,2,1,50,0,0
236783,-153.846153846153,4,2,1,50,0,0
238047,-200,4,2,1,50,0,0
239862,-200,4,2,1,50,0,0
239941,-200,4,2,1,50,0,0
243099,-200,4,2,1,50,0,0

[Colours]
Combo1 : 229,229,229
Combo2 : 221,221,238
Combo3 : 193,193,255
Combo4 : 191,239,255

[HitObjects]
121,287,1837,6,0,B|87:232|114:170|114:170|136:188|141:234,2,180,2|2|2,0:0|0:0|0:0,0:0:0:0:
253,217,3100,6,0,B|318:236|367:197|367:197|403:201|435:231,2,180,2|2|2,0:0|0:0|0:0,0:0:0:0:
269,47,4363,5,2,0:0:0:0:
277,81,4521,1,0,0:0:0:0:
289,123,4679,1,0,0:0:0:0:
269,47,4837,6,0,P|209:17|125:94,1,180,2|0,0:0|0:0,0:0:0:0:
88,234,5626,5,2,0:0:0:0:
270,154,6100,1,2,0:0:0:0:
35,92,6573,1,2,0:0:0:0:
88,234,6889,6,0,B|150:240|205:214|205:214|176:230|166:265,2,180,2|2|2,0:0|0:0|0:0,0:0:0:0:
252,292,8152,5,2,0:0:0:0:
280,283,8468,1,2,0:0:0:0:
356,177,8784,1,2,0:0:0:0:
373,255,9100,1,2,0:0:0:0:
233,169,9415,6,0,B|208:127|209:55|209:55|177:90|177:132,1,180,2|2,0:0|0:0,0:0:0:0:
276,309,10363,1,2,0:0:0:0:
366,142,10679,5,2,0:0:0:0:
443,382,11152,1,2,0:0:0:0:
166,277,11626,1,2,0:0:0:0:
166,277,11942,6,0,P|159:232|149:188,1,89.9999972534181,4|0,0:0|0:0,0:0:0:0:
276,130,12258,2,0,P|273:179|264:241,1,89.9999972534181,2|0,3:2|0:0,0:0:0:0:
390,279,12573,2,0,P|380:236|374:191,1,89.9999972534181,2|0,3:2|0:0,0:0:0:0:
499,242,12889,2,0,P|494:287|493:332,1,89.9999972534181,2|0,3:2|0:0,0:0:0:0:
341,354,13205,6,0,P|298:336|228:324,1,89.9999972534181,2|0,3:2|0:0,0:0:0:0:
139,364,13521,1,0,0:0:0:0:
64,194,13679,6,0,P|107:204|149:221,1,89.9999972534181,4|2,3:0|3:2,0:0:0:0:
261,115,13994,1,0,3:0:0:0:
86,66,14152,1,4,3:0:0:0:
157,212,14310,1,0,0:0:0:0:
269,33,14468,6,0,P|281:97|296:216,1,179.999994506836,4|2,0:0|3:2,0:0:0:0:
430,340,14942,2,0,P|449:292|428:242,1,89.9999972534181,2|2,0:0|3:2,0:0:0:0:
287,128,15258,2,0,P|277:171|296:211,1,89.9999972534181,2|2,0:0|3:2,0:0:0:0:
466,141,15573,2,0,P|413:137|372:172,1,89.9999972534181,2|2,0:0|3:2,0:0:0:0:
353,311,15889,1,0,0:0:0:0:
353,311,15968,1,0,0:0:0:0:
353,311,16047,5,4,3:0:0:0:
295,210,16205,1,2,0:0:0:0:
155,293,16363,1,4,3:0:0:0:
91,202,16521,1,2,0:0:0:0:
252,292,16679,1,4,3:0:0:0:
95,361,16837,1,2,0:0:0:0:
8,170,16994,6,0,P|72:116|164:154,1,179.999994506836,2|2,0:0|3:2,0:0:0:0:
252,292,17468,2,0,P|262:221|281:104,1,179.999994506836,4|2,3:0|0:0,0:0:0:0:
360,15,17942,1,2,3:2:0:0:
412,173,18100,1,2,0:0:0:0:
412,173,18179,1,2,0:0:0:0:
412,173,18258,5,2,0:0:0:0:
264,40,18415,1,0,0:0:0:0:
427,88,18573,1,2,3:2:0:0:
280,228,18731,2,0,P|216:171|123:209,1,179.999994506836,4|4,3:0|3:0,0:0:0:0:
197,333,19205,1,2,3:2:0:0:
284,240,19363,1,2,0:0:0:0:
335,364,19521,5,4,3:2:0:0:
423,383,19679,1,2,0:0:0:0:
491,339,19837,1,2,0:0:0:0:
512,270,19994,1,2,0:0:0:0:
492,210,20152,5,4,3:1:0:0:
451,175,20310,1,2,0:0:0:0:
408,163,20468,1,2,0:0:0:0:
372,167,20626,1,2,0:0:0:0:
345,179,20784,6,0,P|303:222|352:374,1,219.000006015015,6|0,3:2|0:0,0:0:0:0:
398,279,22047,6,0,P|336:279|294:239,1,120,4|0,3:0|0:0,0:0:0:0:
368,199,22521,2,0,P|358:128|344:64,1,120,2|0,0:0|0:0,0:0:0:0:
253,22,22994,1,2,0:0:0:0:
221,203,23310,6,0,P|214:167|211:131,1,60,0|0,0:0|0:0,0:0:0:0:
253,22,23626,2,0,P|260:58|263:94,1,60,0|0,0:0|0:0,0:0:0:0:
141,111,23942,5,2,0:0:0:0:
138,122,24258,1,2,0:0:0:0:
136,134,24573,6,0,P|122:192|112:251,1,120,2|0,0:0|0:0,0:0:0:0:
215,310,25047,2,0,P|240:267|194:205,1,120,2|0,0:0|0:0,0:0:0:0:
135,348,25521,2,0,B|168:343|193:330|193:330|252:341|284:364|284:364|314:340|368:332,1,240,2|0,0:0|0:0,0:0:0:0:
468,207,26468,5,2,0:0:0:0:
456,204,26784,1,2,0:0:0:0:
445,200,27100,6,0,P|383:206|321:215,1,120,4|0,3:0|0:0,0:0:0:0:
391,122,27573,2,0,P|411:81|343:31,1,120,2|0,0:0|0:0,0:0:0:0:
277,117,28047,1,2,0:0:0:0:
334,273,28363,6,0,P|330:243|323:199,1,60,0|0,0:0|0:0,0:0:0:0:
231,155,28679,2,0,P|255:133|289:108,1,60,2|0,0:0|0:0,0:0:0:0:
233,252,28994,5,2,0:0:0:0:
229,263,29310,1,0,0:0:0:0:
226,275,29626,6,0,P|184:261|123:315,1,120,2|0,0:0|0:0,0:0:0:0:
57,227,30100,2,0,B|28:191|29:142|29:142|63:103|63:45,2,180,2|0|2,0:0|0:0|0:0,0:0:0:0:
200,175,31205,5,0,0:0:0:0:
140,287,31363,1,0,0:0:0:0:
247,248,31521,5,0,1:0:0:0:
195,340,31679,1,0,1:0:0:0:
293,316,31837,1,0,0:0:0:0:
254,384,31994,1,0,3:0:0:0:
365,281,32152,6,0,P|431:272|486:267,1,120,4|0,3:0|0:0,0:0:0:0:
365,281,32626,2,0,P|344:229|387:167,1,120,2|0,0:0|0:0,0:0:0:0:
482,159,33100,1,2,0:0:0:0:
322,141,33415,6,0,P|347:157|375:178,1,60,0|0,0:0|0:0,0:0:0:0:
461,64,33731,2,0,P|434:80|408:101,1,60,0|0,0:0|0:0,0:0:0:0:
321,0,34047,5,0,1:0:0:0:
318,11,34363,1,2,0:0:0:0:
316,23,34679,6,0,P|276:55|209:14,1,120,2|0,0:0|0:0,0:0:0:0:
149,81,35152,2,0,P|142:111|140:141,1,60,2|0,0:0|1:0,0:0:0:0:
24,105,35626,1,2,0:0:0:0:
18,116,35942,6,0,P|23:175|33:235,1,120,0|0,3:0|0:0,0:0:0:0:
109,269,36415,2,0,P|104:298|96:327,1,60,0|0,0:0|1:0,0:0:0:0:
233,368,36889,1,0,0:0:0:0:
243,375,37205,6,0,P|262:344|216:270,1,120,4|0,3:0|0:0,0:0:0:0:
187,183,37679,2,0,P|191:152|199:118,1,60,2|0,0:0|1:0,0:0:0:0:
294,0,38152,2,0,P|300:29|311:124,1,120,0|0,0:0|0:0,0:0:0:0:
369,268,38784,5,2,0:0:0:0:
366,280,39100,1,0,1:0:0:0:
363,292,39415,1,2,0:0:0:0:
360,304,39731,6,0,P|384:250|340:186,1,120,2|0,0:0|0:0,0:0:0:0:
293,88,40205,1,2,0:0:0:0:
265,177,40363,1,0,1:0:0:0:
271,188,40679,6,0,B|243:213|202:218|202:218|139:169|84:201,1,180,2|2,0:0|0:0,0:0:0:0:
14,348,41310,5,2,0:0:0:0:
148,318,41468,1,2,0:0:0:0:
24,298,41626,5,2,2:3:0:0:
130,268,41784,1,2,2:3:0:0:
36,248,41942,1,2,2:3:0:0:
24,246,42100,1,2,2:3:0:0:
204,217,42258,6,0,P|258:168|348:204,1,150,4|2,0:0|3:2,0:0:0:0:
419,241,42731,1,2,0:0:0:0:
497,152,42889,2,0,P|492:108|484:68,1,75,2|0,3:2|0:0,0:0:0:0:
381,38,43205,1,2,3:2:0:0:
339,172,43363,6,0,P|332:208|328:246,1,75,4|0,3:0|3:0,0:0:0:0:
251,79,43679,1,4,3:0:0:0:
175,165,43837,2,0,P|88:154|44:190,1,150,0|2,3:0|3:2,0:0:0:0:
0,277,44310,1,0,0:0:0:0:
133,321,44468,2,0,P|129:288|119:226,1,75,2|0,3:2|0:0,0:0:0:0:
271,321,44784,6,0,P|336:335|402:286,1,150,4|2,3:2|3:2,0:0:0:0:
319,242,45258,1,2,0:0:0:0:
382,153,45415,2,0,P|427:139|462:132,1,75,2|0,3:2|0:0,0:0:0:0:
486,240,45731,1,2,3:2:0:0:
325,252,45889,2,0,P|254:234|172:225,1,150,4|4,3:0|3:0,0:0:0:0:
80,144,46363,6,0,P|135:128|165:122,1,75,0|0,3:0|0:0,0:0:0:0:
262,38,46679,1,8,0:0:0:0:
121,28,46837,1,8,0:0:0:0:
237,136,46994,1,0,3:0:0:0:
74,129,47152,1,0,3:0:0:0:
267,23,47310,6,0,P|334:12|393:72,1,150,4|2,0:0|0:0,0:0:0:0:
427,170,47784,1,2,3:2:0:0:
313,94,47942,2,0,P|300:144|292:195,1,75,8|0,0:0|0:0,0:0:0:0:
179,189,48258,2,0,P|123:175|32:163,1,150,2|0,3:2|0:0,0:0:0:0:
94,45,48731,6,0,P|157:7|238:40,1,150,8|0,0:0|3:0,0:0:0:0:
303,179,49205,1,8,0:0:0:0:
350,61,49363,1,8,0:0:0:0:
215,119,49521,2,0,P|204:154|193:205,1,75,4|4,3:0|3:0,0:0:0:0:
282,320,49837,6,0,P|229:278|137:302,1,150,4|2,0:0|0:0,0:0:0:0:
83,358,50310,1,2,3:2:0:0:
19,251,50468,2,0,P|6:213|-1:178,1,75,8|2,0:0|0:0,0:0:0:0:
44,80,50784,1,2,3:2:0:0:
120,187,50942,6,0,P|192:191|276:200,1,150,2|0,3:2|0:0,0:0:0:0:
372,127,51415,2,0,P|329:116|282:108,1,75,8|4,0:0|2:3,0:0:0:0:
179,11,51731,1,8,0:0:0:0:
208,120,51889,1,8,0:0:0:0:
342,15,52047,1,2,3:2:0:0:
342,15,52363,6,0,P|382:78|349:157,1,165.000005035401,4|2,0:0|3:2,0:0:0:0:
269,247,52837,1,0,0:0:0:0:
269,247,52915,1,0,0:0:0:0:
269,247,52994,2,0,P|219:234|181:227,1,82.5000025177003,2|0,3:2|0:0,0:0:0:0:
114,140,53310,1,2,3:2:0:0:
48,256,53468,1,0,0:0:0:0:
48,256,53547,1,0,0:0:0:0:
48,256,53626,6,0,P|56:297|67:337,1,82.5000025177003,2|0,3:2|0:0,0:0:0:0:
182,238,53942,2,0,P|186:196|193:156,1,82.5000025177003,2|0,3:2|0:0,0:0:0:0:
321,236,54258,2,0,P|306:274|296:314,1,82.5000025177003,2|0,3:2|0:0,0:0:0:0:
426,237,54573,1,2,3:2:0:0:
332,148,54731,1,0,0:0:0:0:
332,148,54810,1,0,0:0:0:0:
332,148,54889,6,0,P|257:156|204:91,1,165.000005035401,4|4,1:0|1:0,0:0:0:0:
291,69,55363,1,2,3:2:0:0:
172,22,55521,1,4,1:0:0:0:
233,163,55679,1,2,3:2:0:0:
70,108,55837,1,4,1:0:0:0:
183,250,55994,6,0,P|144:330|126:242,1,236.249992790222,8|0,0:0|0:0,0:0:0:0:
125,233,56784,6,0,P|140:338|155:228,1,284.999992389679,2|0,0:0|0:0,0:0:0:0:
112,143,57179,1,0,0:0:0:0:
104,129,57258,1,0,0:0:0:0:
101,114,57337,1,0,0:0:0:0:
103,100,57415,6,0,P|151:45|264:73,1,179.999994506836,4|8,1:0|0:0,0:0:0:0:
354,191,57889,1,0,0:0:0:0:
354,191,57968,1,0,0:0:0:0:
354,191,58047,2,0,P|365:137|376:93,1,89.9999972534181,2|0,0:0|3:0,0:0:0:0:
195,142,58363,2,0,P|205:187|214:232,1,89.9999972534181,8|0,0:0|0:0,0:0:0:0:
73,356,58679,6,0,P|52:308|63:265,1,89.9999972534181,2|0,3:2|0:0,0:0:0:0:
201,132,58994,1,8,1:2:0:0:
81,91,59152,1,0,3:0:0:0:
148,282,59310,1,8,1:0:0:0:
267,238,59468,1,0,3:0:0:0:
71,82,59626,2,0,P|50:130|61:173,1,89.9999972534181,8|0,0:0|0:0,0:0:0:0:
208,27,59942,6,0,P|296:36|395:42,1,179.999994506836,4|8,1:0|0:0,0:0:0:0:
490,170,60415,2,0,P|443:178|393:186,1,89.9999972534181,0|2,0:0|0:0,0:0:0:0:
321,306,60731,1,0,3:0:0:0:
205,139,60889,2,0,P|249:115|299:131,1,89.9999972534181,8|0,0:0|0:0,0:0:0:0:
118,243,61205,6,0,P|156:267|200:260,1,89.9999972534181,2|0,3:2|0:0,0:0:0:0:
64,118,61521,1,8,1:2:0:0:
19,270,61679,1,0,3:0:0:0:
201,150,61837,2,0,L|190:48,1,89.9999972534181,8|0,1:2|3:0,0:0:0:0:
378,168,62152,1,8,0:0:0:0:
374,188,62230,1,0,0:0:0:0:
371,210,62309,1,0,0:0:0:0:
366,231,62388,1,0,0:0:0:0:
362,253,62468,6,0,P|267:225|202:290,1,179.999994506836,4|8,3:0|0:0,0:0:0:0:
329,368,62942,1,2,0:0:0:0:
329,368,63021,1,2,0:0:0:0:
329,368,63100,2,0,P|378:380|430:385,1,89.9999972534181,2|0,0:0|3:0,0:0:0:0:
512,283,63415,2,0,P|497:234|476:187,1,89.9999972534181,8|0,0:0|0:0,0:0:0:0:
297,112,63731,6,0,P|291:158|316:198,1,89.9999972534181,0|0,3:0|0:0,0:0:0:0:
451,78,64047,1,8,1:2:0:0:
334,20,64205,1,0,3:0:0:0:
309,206,64363,1,8,1:2:0:0:
207,127,64521,1,0,3:0:0:0:
253,328,64679,2,0,P|203:309|217:226,1,134.999995880127,8|0,1:2|0:0,0:0:0:0:
307,217,64994,6,0,P|347:232|415:240,1,89.9999972534181,4|0,1:0|3:0,0:0:0:0:
250,337,65310,2,0,P|210:352|142:360,1,89.9999972534181,8|0,0:0|0:0,0:0:0:0:
49,185,65626,1,4,1:0:0:0:
12,321,65784,1,0,3:0:0:0:
168,239,65942,2,0,P|183:193|195:143,1,89.9999972534181,8|0,0:0|0:0,0:0:0:0:
9,76,66258,6,0,P|48:33|179:58,1,179.999994506836,4|8,1:0|0:0,0:0:0:0:
101,124,66731,1,0,3:0:0:0:
278,170,66889,1,4,3:0:0:0:
156,31,67047,1,0,3:0:0:0:
220,252,67205,1,4,3:0:0:0:
220,252,67521,5,4,1:0:0:0:
78,200,67679,1,4,3:0:0:0:
219,102,67837,2,0,P|304:89|366:166,1,179.999994506836,8|2,0:0|0:0,0:0:0:0:
424,283,68310,1,0,3:0:0:0:
483,129,68468,2,0,P|472:79|460:32,1,89.9999972534181,8|0,0:0|0:0,0:0:0:0:
278,170,68784,6,0,P|195:163|87:157,1,179.999994506836,4|8,1:0|0:0,0:0:0:0:
7,285,69258,2,0,P|51:278|97:274,1,89.9999972534181,4|2,3:0|0:0,0:0:0:0:
199,361,69573,1,0,3:0:0:0:
190,175,69731,2,0,P|211:213|231:255,1,89.9999972534181,8|0,0:0|0:0,0:0:0:0:
318,82,70047,6,0,P|358:55|404:68,1,89.9999972534181,4|0,3:0|3:0,0:0:0:0:
345,235,70363,2,0,P|301:213|289:167,1,89.9999972534181,8|0,0:0|0:0,0:0:0:0:
476,137,70679,1,2,0:0:0:0:
476,137,70837,1,0,3:0:0:0:
421,296,70994,2,0,P|405:350|398:390,1,89.9999972534181,8|0,0:0|0:0,0:0:0:0:
203,299,71310,6,0,P|167:266|168:218,1,89.9999972534181,2|0,0:0|3:0,0:0:0:0:
345,235,71626,2,0,P|334:283|292:305,1,89.9999972534181,8|0,0:0|3:0,0:0:0:0:
218,131,71942,1,8,0:0:0:0:
218,131,72100,1,0,0:0:0:0:
380,168,72258,2,0,P|406:163|433:154,1,44.999998626709,10|2,0:0|0:0,0:0:0:0:
330,33,72415,2,0,P|308:26|286:22,1,44.999998626709,2|2,0:0|0:0,0:0:0:0:
135,131,72573,6,0,P|141:187|152:240,1,89.9999972534181,4|0,1:2|3:0,0:0:0:0:
396,254,72889,2,0,P|390:310|379:363,1,89.9999972534181,4|0,1:2|3:0,0:0:0:0:
241,145,73205,2,0,P|245:100|253:56,1,89.9999972534181,4|0,1:2|3:0,0:0:0:0:
477,209,73521,2,0,P|485:253|489:297,1,89.9999972534181,4|0,1:2|3:0,0:0:0:0:
176,384,73837,6,0,P|145:338|161:291,1,89.9999972534181,4|0,1:2|3:0,0:0:0:0:
391,198,74152,2,0,P|357:169|313:172,1,89.9999972534181,4|0,1:2|3:0,0:0:0:0:
89,22,74468,2,0,P|60:55|63:99,1,89.9999972534181,4|0,1:2|3:0,0:0:0:0:
260,271,74784,2,0,P|252:234|247:220,1,44.999998626709,4|0,1:2|0:0,0:0:0:0:
144,112,74942,2,0,P|137:133|133:155,1,44.999998626709,0|0,3:0|0:0,0:0:0:0:
232,362,75100,5,4,1:2:0:0:
385,242,75258,2,0,P|400:191|410:142,1,89.9999972534181,4|0,3:2|3:0,0:0:0:0:
182,37,75573,2,0,P|223:21|273:15,1,89.9999972534181,0|8,3:0|0:0,0:0:0:0:
223,193,75889,2,0,P|232:241|245:291,1,89.9999972534181,0|8,3:0|0:0,0:0:0:0:
41,60,76205,6,0,P|28:148|18:241,1,179.999994506836,4|2,0:0|0:0,0:0:0:0:
176,346,76679,1,10,0:0:0:0:
216,371,76757,1,2,0:0:0:0:
263,375,76836,1,2,0:0:0:0:
307,356,76915,1,2,0:0:0:0:
336,318,76994,2,0,P|334:292|322:267,1,44.999998626709,10|0,0:0|0:0,0:0:0:0:
215,119,77152,2,0,P|204:138|203:171,1,44.999998626709,2|0,0:0|0:0,0:0:0:0:
359,202,77310,5,10,0:0:0:0:
386,198,77388,1,2,0:0:0:0:
413,195,77467,1,2,0:0:0:0:
440,192,77546,1,2,0:0:0:0:
468,189,77625,1,6,0:0:0:0:
256,192,86310,5,0,0:0:0:0:
256,192,86389,12,0,87573,0:0:0:0:
91,250,87731,6,0,P|156:241|215:236,1,120,4|2,3:0|0:0,0:0:0:0:
162,126,88205,2,0,P|208:147|244:82,1,120,0|0,0:0|0:0,0:0:0:0:
180,29,88679,1,2,0:0:0:0:
28,173,88994,6,0,L|17:113,1,60,0|0,0:0|0:0,0:0:0:0:
81,19,89310,2,0,L|91:78,1,60,0|0,0:0|0:0,0:0:0:0:
121,219,89626,1,2,0:0:0:0:
124,231,89942,1,2,0:0:0:0:
127,243,90258,6,0,P|182:280|238:255,1,120,2|0,0:0|0:0,0:0:0:0:
298,175,90731,2,0,P|292:128|284:50,1,120,2|0,0:0|0:0,0:0:0:0:
377,120,91205,2,0,B|406:177|474:185|519:152|533:83|498:45,1,240,2|0,0:0|0:0,0:0:0:0:
344,6,92152,1,2,0:0:0:0:
333,10,92468,1,2,0:0:0:0:
322,16,92784,6,0,P|273:25|192:30,1,120,4|0,3:0|0:0,0:0:0:0:
116,111,93258,2,0,P|178:112|220:169,1,120,2|0,0:0|0:0,0:0:0:0:
174,232,93731,1,2,0:0:0:0:
17,186,94047,6,0,P|67:172|81:169,1,60,0|0,0:0|0:0,0:0:0:0:
44,282,94363,2,0,P|94:293|108:297,1,60,2|0,0:0|0:0,0:0:0:0:
203,354,94679,1,2,0:0:0:0:
213,347,94994,1,2,0:0:0:0:
225,340,95310,6,0,P|259:313|334:337,1,120,2|0,0:0|0:0,0:0:0:0:
415,246,95784,2,0,P|346:235|226:210,2,180,2|2|2,0:0|0:0|0:0,0:0:0:0:
496,122,96889,6,0,P|464:141|429:162,1,60,2|2,0:0|0:0,0:0:0:0:
317,108,97205,5,0,1:0:0:0:
446,56,97363,1,0,1:0:0:0:
328,103,97521,1,2,0:0:0:0:
435,61,97679,1,0,3:0:0:0:
350,189,97837,6,0,P|309:216|239:193,1,120,4|0,3:0|0:0,0:0:0:0:
159,134,98310,2,0,P|170:72|179:15,1,120,2|0,0:0|0:0,0:0:0:0:
253,101,98784,1,0,0:0:0:0:
92,58,99100,6,0,P|111:95|123:117,1,60,0|0,0:0|0:0,0:0:0:0:
253,101,99415,2,0,P|234:138|222:160,1,60,0|0,0:0|0:0,0:0:0:0:
131,210,99731,1,0,1:0:0:0:
122,218,100047,1,2,0:0:0:0:
114,227,100363,6,0,B|127:277|136:361,1,120,0|0,3:0|0:0,0:0:0:0:
223,300,100837,2,0,P|233:268|244:228,1,60,2|0,0:0|1:0,0:0:0:0:
177,120,101310,1,0,0:0:0:0:
183,109,101626,6,0,P|225:81|304:102,1,120,0|0,3:0|0:0,0:0:0:0:
367,163,102100,2,0,P|385:132|401:108,1,60,0|0,0:0|1:0,0:0:0:0:
274,187,102573,1,2,0:0:0:0:
265,195,102889,6,0,P|272:251|277:332,1,120,4|0,3:0|0:0,0:0:0:0:
361,363,103363,2,0,P|391:350|423:340,1,60,2|0,0:0|1:0,0:0:0:0:
491,225,103837,1,2,0:0:0:0:
484,216,104152,6,0,P|405:186|363:214,1,120,0|2,0:0|0:0,0:0:0:0:
291,255,104626,2,0,P|256:249|224:239,1,60,0|0,0:0|1:0,0:0:0:0:
300,124,105100,1,2,0:0:0:0:
306,113,105415,6,0,P|348:118|427:125,1,120,2|0,0:0|0:0,0:0:0:0:
503,195,105889,1,0,0:0:0:0:
420,237,106047,1,0,1:0:0:0:
409,243,106363,6,0,B|368:252|349:269|349:269|284:267|242:212,1,180,2|2,0:0|0:0,0:0:0:0:
171,83,106994,2,0,P|159:116|151:152,1,60,2|2,0:0|0:0,0:0:0:0:
115,284,107310,5,2,2:3:0:0:
238,227,107468,1,2,2:3:0:0:
124,280,107626,1,2,2:3:0:0:
229,232,107784,1,2,2:3:0:0:
57,199,107942,6,0,P|46:145|27:45,1,150,4|2,0:0|3:2,0:0:0:0:
128,5,108415,1,2,0:0:0:0:
194,129,108573,2,0,P|247:148|286:157,1,75,2|0,3:2|0:0,0:0:0:0:
352,72,108889,1,2,3:2:0:0:
423,213,109047,1,2,0:0:0:0:
423,213,109126,1,0,0:0:0:0:
423,213,109205,6,0,P|413:257|404:306,1,75,2|0,3:2|0:0,0:0:0:0:
329,379,109521,1,2,3:2:0:0:
329,379,109679,1,0,0:0:0:0:
207,323,109837,2,0,P|197:279|188:230,1,75,2|0,3:2|0:0,0:0:0:0:
97,191,110152,1,2,3:2:0:0:
190,98,110310,1,0,1:0:0:0:
190,98,110389,1,0,1:0:0:0:
190,98,110468,6,0,P|229:134|338:100,1,150,4|2,0:0|3:2,0:0:0:0:
386,35,110942,1,2,0:0:0:0:
466,134,111100,2,0,P|453:177|442:221,1,75,2|0,3:2|0:0,0:0:0:0:
474,306,111415,1,2,3:2:0:0:
334,216,111573,6,0,P|263:207|185:202,1,150,2|0,0:0|0:0,0:0:0:0:
55,282,112047,2,0,P|96:276|138:271,1,75,2|2,3:2|0:0,0:0:0:0:
53,148,112363,1,4,3:0:0:0:
188,212,112521,1,0,3:0:0:0:
126,53,112679,1,0,3:0:0:0:
192,222,112837,1,0,3:0:0:0:
241,49,112994,6,0,P|293:18|380:41,1,150,4|2,0:0|0:0,0:0:0:0:
316,122,113468,1,2,3:2:0:0:
460,98,113626,2,0,P|447:148|433:190,1,75,8|0,0:0|0:0,0:0:0:0:
363,263,113942,1,2,3:2:0:0:
309,112,114100,6,0,P|266:120|214:134,1,75,2|0,3:2|0:0,0:0:0:0:
154,244,114415,2,0,P|122:209|134:112,1,150,8|0,0:0|3:0,0:0:0:0:
248,214,114889,1,8,0:0:0:0:
186,330,115047,1,8,0:0:0:0:
305,282,115205,2,0,P|356:272|392:269,1,75,4|4,3:0|3:0,0:0:0:0:
486,166,115521,6,0,P|438:128|352:135,1,150,4|2,0:0|0:0,0:0:0:0:
279,53,115994,1,2,3:2:0:0:
227,198,116152,1,8,0:0:0:0:
158,104,116310,2,0,P|141:68|129:23,1,75,2|2,0:0|3:2,0:0:0:0:
49,183,116626,6,0,P|37:241|21:332,1,150,2|0,3:2|0:0,0:0:0:0:
140,263,117100,2,0,P|189:250|231:243,1,75,8|0,0:0|3:0,0:0:0:0:
331,379,117415,1,8,0:0:0:0:
220,345,117573,1,8,0:0:0:0:
268,169,117731,1,4,3:0:0:0:
268,169,118047,6,0,P|320:218|415:193,1,165.000005035401,4|2,0:0|3:2,0:0:0:0:
492,103,118521,1,0,0:0:0:0:
492,103,118600,1,0,0:0:0:0:
492,103,118679,2,0,P|436:95|385:77,1,82.5000025177003,2|0,3:2|0:0,0:0:0:0:
329,5,118994,1,2,3:2:0:0:
261,133,119152,1,0,0:0:0:0:
261,133,119231,1,0,0:0:0:0:
261,133,119310,6,0,P|269:189|287:240,1,82.5000025177003,2|0,3:2|0:0,0:0:0:0:
156,73,119626,2,0,P|138:126|132:180,1,82.5000025177003,2|0,3:2|0:0,0:0:0:0:
68,3,119942,2,0,P|28:43|-1:89,1,82.5000025177003,2|0,3:2|0:0,0:0:0:0:
42,178,120258,1,2,3:2:0:0:
2,302,120415,1,0,0:0:0:0:
2,302,120494,1,0,0:0:0:0:
2,302,120573,6,0,P|38:260|157:301,1,165.000005035401,4|2,0:0|3:2,0:0:0:0:
232,366,121047,1,2,3:2:0:0:
266,226,121205,1,2,3:2:0:0:
142,358,121363,1,2,3:2:0:0:
120,183,121521,1,6,3:2:0:0:
314,313,121679,6,0,B|388:360|469:334|469:334|435:302|382:294,1,236.249992790222,8|0,0:0|0:0,0:0:0:0:
398,290,122468,6,0,B|420:288|470:313|480:334|480:334|485:353|359:374|287:303,1,284.999992389679,0|8,0:0|0:0,0:0:0:0:
194,269,122863,1,8,0:0:0:0:
178,266,122942,1,8,0:0:0:0:
161,268,123021,1,8,0:0:0:0:
148,276,123100,6,0,P|71:298|-1:223,1,179.999994506836,4|8,1:0|0:0,0:0:0:0:
101,117,123573,1,0,0:0:0:0:
101,117,123652,1,0,0:0:0:0:
101,117,123731,2,0,P|145:132|188:155,1,89.9999972534181,2|0,0:0|3:0,0:0:0:0:
253,296,124047,2,0,P|273:256|288:213,1,89.9999972534181,8|0,0:0|0:0,0:0:0:0:
450,100,124363,6,0,P|394:95|358:129,1,89.9999972534181,2|0,3:2|0:0,0:0:0:0:
461,298,124679,1,8,1:2:0:0:
512,199,124837,1,0,3:0:0:0:
312,180,124994,1,8,1:0:0:0:
446,289,125152,1,0,3:0:0:0:
278,351,125310,2,0,P|256:312|264:269,1,89.9999972534181,8|0,0:0|0:0,0:0:0:0:
406,120,125626,6,0,P|331:127|219:144,1,179.999994506836,4|8,1:0|0:0,0:0:0:0:
108,223,126100,2,0,P|118:274|133:325,1,89.9999972534181,0|2,0:0|0:0,0:0:0:0:
254,248,126415,1,0,3:0:0:0:
111,114,126573,2,0,P|65:94|11:105,1,89.9999972534181,8|0,0:0|3:0,0:0:0:0:
43,294,126889,6,0,P|89:314|143:303,1,89.9999972534181,2|0,3:2|0:0,0:0:0:0:
300,224,127205,1,8,1:2:0:0:
194,185,127363,1,0,3:0:0:0:
282,353,127521,2,0,P|328:333|382:344,1,89.9999972534181,8|0,1:2|3:0,0:0:0:0:
497,199,127837,1,8,0:0:0:0:
479,195,127915,1,0,0:0:0:0:
461,192,127994,1,0,0:0:0:0:
443,188,128073,1,0,0:0:0:0:
425,185,128152,6,0,P|383:138|254:150,1,179.999994506836,4|8,3:0|0:0,0:0:0:0:
130,25,128626,1,2,0:0:0:0:
130,25,128705,1,2,0:0:0:0:
130,25,128784,2,0,P|133:76|143:139,1,89.9999972534181,2|0,0:0|3:0,0:0:0:0:
199,272,129100,2,0,P|153:255|86:243,1,89.9999972534181,8|0,0:0|0:0,0:0:0:0:
276,126,129415,6,0,P|322:109|389:97,1,89.9999972534181,0|0,3:0|0:0,0:0:0:0:
474,279,129731,1,8,1:2:0:0:
309,223,129889,1,0,3:0:0:0:
487,172,130047,1,8,1:2:0:0:
373,303,130205,1,0,3:0:0:0:
413,105,130363,2,0,P|329:113|316:69,1,134.999995880127,8|0,1:2|0:0,0:0:0:0:
391,21,130679,6,0,P|436:21|483:56,1,89.9999972534181,4|0,1:0|3:0,0:0:0:0:
496,196,130994,2,0,P|496:241|461:288,1,89.9999972534181,8|0,0:0|0:0,0:0:0:0:
265,195,131310,1,4,1:0:0:0:
353,329,131468,1,0,3:0:0:0:
392,175,131626,2,0,P|392:130|357:83,1,89.9999972534181,8|0,0:0|0:0,0:0:0:0:
165,9,131942,6,0,P|145:106|130:206,1,179.999994506836,4|8,1:0|0:0,0:0:0:0:
225,284,132415,1,0,3:0:0:0:
289,96,132573,1,4,3:0:0:0:
123,189,132731,1,0,3:0:0:0:
318,231,132889,1,4,3:0:0:0:
318,231,133205,5,4,1:0:0:0:
289,96,133363,1,4,3:0:0:0:
229,268,133521,2,0,P|280:321|388:298,1,179.999994506836,8|2,0:0|0:0,0:0:0:0:
460,213,133994,1,0,3:0:0:0:
311,124,134152,2,0,P|264:132|210:151,1,89.9999972534181,8|0,0:0|0:0,0:0:0:0:
46,288,134468,6,0,P|84:235|207:270,1,179.999994506836,4|8,1:0|0:0,0:0:0:0:
120,128,134942,2,0,P|100:76|93:29,1,89.9999972534181,4|2,3:0|0:0,0:0:0:0:
17,171,135258,1,0,3:0:0:0:
211,163,135415,2,0,P|253:159|310:136,1,89.9999972534181,8|0,0:0|0:0,0:0:0:0:
345,312,135731,6,0,P|320:275|329:227,1,82.5000025177003,4|0,3:0|3:0,0:0:0:0:
460,115,136047,2,0,P|419:113|386:137,1,82.5000025177003,8|0,0:0|0:0,0:0:0:0:
233,236,136363,2,0,P|208:199|217:151,1,82.5000025177003,2|0,0:0|3:0,0:0:0:0:
329,52,136679,1,8,0:0:0:0:
329,52,136837,1,0,0:0:0:0:
383,213,136994,6,0,P|335:237|286:221,1,82.5000025177003,4|0,3:0|3:0,0:0:0:0:
191,87,137310,2,0,P|189:127|211:162,1,82.5000025177003,8|0,0:0|3:0,0:0:0:0:
292,315,137626,2,0,P|244:339|195:323,1,82.5000025177003,8|0,0:0|0:0,0:0:0:0:
124,190,137942,2,0,P|115:229|113:243,1,41.2500012588501,10|2,0:0|0:0,0:0:0:0:
41,350,138100,2,0,P|32:311|30:296,1,41.2500012588501,2|2,0:0|0:0,0:0:0:0:
25,101,138258,6,0,P|72:75|128:65,1,82.5000025177003,4|0,1:2|3:0,0:0:0:0:
312,188,138573,2,0,P|265:162|209:152,1,82.5000025177003,4|0,1:2|3:0,0:0:0:0:
387,0,138889,2,0,P|413:47|423:103,1,82.5000025177003,4|0,1:2|3:0,0:0:0:0:
278,262,139205,2,0,P|304:215|314:159,1,82.5000025177003,4|0,1:2|3:0,0:0:0:0:
20,207,139521,6,0,P|32:256|75:286,1,82.5000025177003,4|0,1:2|3:0,0:0:0:0:
256,91,139837,2,0,P|225:63|185:56,1,82.5000025177003,4|0,1:2|3:0,0:0:0:0:
213,331,140152,2,0,P|253:324|283:296,1,82.5000025177003,4|0,1:2|3:0,0:0:0:0:
446,166,140468,2,0,P|413:151|375:145,1,41.2500012588501,4|0,1:2|0:0,0:0:0:0:
298,202,140626,2,0,P|278:195|260:185,1,41.2500012588501,0|0,3:0|0:0,0:0:0:0:
122,4,140784,5,4,1:2:0:0:
48,195,140942,2,0,P|68:259|85:301,1,82.5000025177003,4|0,3:2|3:0,0:0:0:0:
239,113,141258,2,0,P|252:74|264:34,1,82.5000025177003,2|8,3:2|0:0,0:0:0:0:
130,117,141573,1,2,3:2:0:0:
130,117,141731,1,8,0:0:0:0:
262,332,141889,6,0,P|310:284|411:306,1,165.000005035401,4|2,0:0|0:0,0:0:0:0:
222,214,142363,1,10,0:0:0:0:
180,218,142441,1,2,0:0:0:0:
139,222,142520,1,2,0:0:0:0:
98,226,142599,1,2,0:0:0:0:
57,231,142679,2,0,P|37:189|35:181,1,41.2500012588501,10|2,0:0|0:0,0:0:0:0:
206,73,142837,2,0,P|186:114|184:122,1,41.2500012588501,2|2,0:0|0:0,0:0:0:0:
289,280,142994,5,10,0:0:0:0:
312,298,143072,1,2,0:0:0:0:
341,308,143151,1,2,0:0:0:0:
372,307,143230,1,2,0:0:0:0:
400,296,143309,1,6,0:0:0:0:
111,272,153415,5,2,0:0:0:0:
173,121,153889,1,2,0:0:0:0:
173,121,154047,2,0,P|227:142|294:126,1,112.500004291535,2|0,0:0|1:0,0:0:0:0:
374,89,154521,1,2,0:0:0:0:
417,261,154837,5,2,0:0:0:0:
417,261,154994,2,0,L|407:323,1,56.2500021457673,2|2,0:0|0:0,0:0:0:0:
290,274,155310,1,0,0:0:0:0:
285,290,155468,2,0,L|216:324,1,56.2500021457673,2|0,0:0|0:0,0:0:0:0:
140,256,155784,1,2,0:0:0:0:
258,176,155942,6,0,P|250:132|237:45,1,112.500004291535,2|2,0:0|0:0,0:0:0:0:
357,151,156415,2,0,P|390:121|473:132,1,112.500004291535,2|2,0:0|0:0,0:0:0:0:
377,262,157047,1,2,0:0:0:0:
258,176,157205,6,0,P|207:169|129:165,1,112.500004291535,2|2,0:0|0:0,0:0:0:0:
205,328,157837,2,0,P|172:298|89:309,1,112.500004291535,0|2,1:0|0:0,0:0:0:0:
42,201,158468,6,0,B|98:162|147:165|147:165|209:211,2,168.750006437302,0|0|2,3:0|0:0|0:0,0:0:0:0:
106,297,159573,1,2,0:0:0:0:
106,297,160047,5,2,0:0:0:0:
106,297,160205,2,0,L|183:319,1,56.2500021457673,0|0,0:0|1:0,0:0:0:0:
264,235,160521,1,2,0:0:0:0:
270,250,160679,2,0,L|294:317,1,56.2500021457673,2|2,0:0|0:0,0:0:0:0:
400,246,160994,6,0,B|474:163|468:87|464:-6|389:-42|308:-10|300:62|338:125,1,435.937516629697,4|0,3:0|0:0,0:0:0:0:
63,261,172994,6,0,B|163:309|149:203|267:274,1,196.875007510186,4|0,2:3|0:0,0:0:0:0:
135,187,173626,6,0,B|180:168|228:168|282:197|282:197|247:142|211:125,1,225,4|0,0:0|0:0,0:0:0:0:
140,31,174258,2,0,P|61:68|145:89,1,225,8|0,0:0|0:0,0:0:0:0:
263,39,174889,6,0,B|369:-21|364:91|481:25,1,225,2|0,3:2|0:0,0:0:0:0:
437,149,175521,2,0,B|404:294|404:294|474:237,1,225,8|0,0:0|0:0,0:0:0:0:
342,139,176152,6,0,B|290:95|203:87|203:87|128:149,1,225,2|0,3:2|0:0,0:0:0:0:
81,231,176784,2,0,B|155:270|223:220|223:220|264:222|293:245,1,225,8|0,0:0|0:0,0:0:0:0:
415,318,177415,6,0,L|399:226,1,75,2|0,0:0|0:0,0:0:0:0:
316,89,177731,2,0,L|303:162,1,75,8|0,0:0|0:0,0:0:0:0:
213,325,178047,2,0,L|197:233,1,75,8|8,0:0|0:0,0:0:0:0:
111,86,178363,1,8,0:0:0:0:
107,103,178441,1,0,0:0:0:0:
104,121,178520,1,0,0:0:0:0:
101,139,178599,1,0,0:0:0:0:
97,158,178679,6,0,P|142:145|209:134,1,82.5000025177003,4|0,1:2|3:0,0:0:0:0:
289,275,178994,2,0,P|334:288|401:299,1,82.5000025177003,4|0,1:2|3:0,0:0:0:0:
324,70,179310,2,0,P|303:110|283:161,1,82.5000025177003,4|0,1:2|3:0,0:0:0:0:
149,242,179626,2,0,P|170:282|190:333,1,82.5000025177003,4|0,1:2|3:0,0:0:0:0:
436,246,179942,6,0,P|395:216|338:215,1,82.5000025177003,4|0,1:2|3:0,0:0:0:0:
172,126,180258,2,0,P|203:99|243:90,1,82.5000025177003,4|0,1:2|3:0,0:0:0:0:
448,44,180573,2,0,P|407:14|350:13,1,82.5000025177003,4|0,1:0|3:0,0:0:0:0:
284,181,180889,1,4,1:2:0:0:
287,200,180967,1,0,0:0:0:0:
290,220,181046,1,0,3:0:0:0:
293,239,181125,1,0,0:0:0:0:
296,259,181204,5,4,1:0:0:0:
149,181,181363,2,0,L|165:88,1,82.5000025177003,4|0,1:0|0:0,0:0:0:0:
381,213,181679,2,0,L|394:294,1,82.5000025177003,4|0,3:0|0:0,0:0:0:0:
247,377,181994,1,4,3:0:0:0:
247,377,182152,1,0,0:0:0:0:
285,130,182310,6,0,P|350:84|444:115,1,165.000005035401,8|2,0:0|0:0,0:0:0:0:
309,264,182784,5,0,0:0:0:0:
274,285,182862,1,0,0:0:0:0:
233,292,182941,1,2,0:0:0:0:
196,277,183020,1,0,0:0:0:0:
161,255,183099,5,8,0:0:0:0:
131,239,183178,1,8,0:0:0:0:
98,242,183257,1,8,0:0:0:0:
68,256,183336,1,8,0:0:0:0:
47,281,183415,2,0,L|31:218,1,41.2500012588501,8|8,0:0|0:0,0:0:0:0:
102,91,183573,2,0,L|112:130,1,41.2500012588501,8|8,0:0|0:0,0:0:0:0:
238,203,183731,5,8,0:0:0:0:
257,200,183809,1,8,0:0:0:0:
277,198,183888,1,8,0:0:0:0:
297,196,183967,1,8,0:0:0:0:
316,194,184046,1,8,0:0:0:0:
336,192,184125,1,8,0:0:0:0:
356,190,184204,1,8,0:0:0:0:
375,188,184283,1,8,0:0:0:0:
392,186,184363,6,0,P|423:127|354:44,1,165.000005035401,4|8,0:0|0:0,0:0:0:0:
218,133,184836,2,0,P|242:297|244:314,1,165.000005035401,2|0,0:0|0:0,0:0:0:0:
58,384,185310,2,0,L|75:289,1,82.5000025177003,8|0,0:0|0:0,0:0:0:0:
139,179,185626,6,0,P|194:222|284:204,1,165.000005035401,2|8,0:0|0:0,0:0:0:0:
390,337,186099,2,0,P|408:261|430:174,1,165.000005035401,2|0,0:0|0:0,0:0:0:0:
314,21,186573,2,0,P|325:75|332:122,1,82.5000025177003,8|0,0:0|0:0,0:0:0:0:
200,241,186889,6,0,P|208:200|215:159,1,82.5000025177003,2|0,0:0|0:0,0:0:0:0:
66,113,187205,1,8,0:0:0:0:
121,281,187363,2,0,P|162:321|267:298,1,165.000005035401,2|0,0:0|0:0,0:0:0:0:
346,198,187836,2,0,P|355:250|366:297,1,82.5000025177003,8|0,0:0|0:0,0:0:0:0:
200,241,188152,6,0,P|159:201|41:224,1,165.000005035401,2|8,0:0|0:0,0:0:0:0:
167,75,188626,2,0,P|229:83|339:95,1,165.000005035401,2|0,0:0|0:0,0:0:0:0:
329,351,189099,2,0,P|284:307|294:239,1,123.75000377655,8|0,0:0|0:0,0:0:0:0:
346,198,189415,6,0,B|466:213|466:213|413:166,1,165.000005035401,2|8,0:0|0:0,0:0:0:0:
330,94,189889,2,0,P|258:63|169:122,1,165.000005035401,2|0,0:0|0:0,0:0:0:0:
117,244,190363,2,0,P|69:221|32:191,1,82.5000025177003,8|0,0:0|0:0,0:0:0:0:
261,160,190678,6,0,P|248:207|242:267,1,82.5000025177003,2|0,0:0|0:0,0:0:0:0:
364,361,190994,2,0,L|342:280,1,82.5000025177003,8|0,0:0|0:0,0:0:0:0:
458,239,191310,2,0,L|393:175,1,82.5000025177003,2|0,0:0|0:0,0:0:0:0:
489,95,191626,2,0,L|404:61,1,82.5000025177003,8|0,0:0|0:0,0:0:0:0:
277,165,191941,6,0,P|207:182|133:128,1,165.000005035401,4|2,0:0|0:0,0:0:0:0:
220,91,192415,1,2,0:0:0:0:
162,263,192573,2,0,P|171:318|182:360,1,82.5000025177003,12|0,0:0|0:0,0:0:0:0:
322,326,192889,1,8,0:0:0:0:
341,323,192967,1,0,0:0:0:0:
361,321,193046,1,8,0:0:0:0:
380,318,193125,1,0,0:0:0:0:
398,316,193205,6,0,P|429:247|360:169,1,165.000005035401,4|8,0:0|0:0,0:0:0:0:
169,114,193678,1,2,0:0:0:0:
255,233,193836,1,4,3:0:0:0:
255,233,193994,1,4,3:0:0:0:
331,53,194152,2,0,P|375:21|464:44,1,123.75000377655,4|0,3:0|0:0,0:0:0:0:
402,109,194468,6,0,P|328:94|222:81,1,165.000005035401,4|8,0:0|0:0,0:0:0:0:
136,160,194941,1,0,0:0:0:0:
223,309,195099,2,0,P|245:253|264:216,1,82.5000025177003,2|2,0:0|3:2,0:0:0:0:
395,186,195415,2,0,P|417:242|436:279,1,82.5000025177003,8|0,0:0|0:0,0:0:0:0:
299,157,195731,6,0,P|274:95|329:17,1,165.000005035401,4|8,0:0|0:0,0:0:0:0:
462,100,196205,2,0,P|446:161|422:295,1,165.000005035401,2|0,0:0|0:0,0:0:0:0:
287,365,196678,2,0,P|275:308|270:273,1,82.5000025177003,8|0,0:0|0:0,0:0:0:0:
56,180,196994,6,0,P|97:135|213:161,1,165.000005035401,4|8,0:0|0:0,0:0:0:0:
152,334,197468,2,0,P|124:292|107:249,1,82.5000025177003,2|0,0:0|0:0,0:0:0:0:
271,284,197784,2,0,P|283:235|304:193,1,82.5000025177003,2|8,3:2|0:0,0:0:0:0:
380,340,198099,2,0,P|422:312|465:295,1,82.5000025177003,2|2,0:0|3:2,0:0:0:0:
417,168,198415,5,2,0:0:0:0:
506,217,198573,1,8,0:0:0:0:
368,252,198731,1,2,3:2:0:0:
456,95,198889,1,8,0:0:0:0:
510,227,199047,1,8,0:0:0:0:
317,181,199205,1,8,0:0:0:0:
297,178,199283,1,0,0:0:0:0:
277,180,199362,1,8,0:0:0:0:
258,186,199441,1,0,0:0:0:0:
242,196,199520,6,0,P|193:187|147:158,1,82.5000025177003,4|0,1:0|3:0,0:0:0:0:
64,21,199836,1,4,1:0:0:0:
43,176,199994,1,0,3:0:0:0:
194,52,200152,2,0,P|231:34|271:28,1,82.5000025177003,4|0,1:0|0:0,0:0:0:0:
388,171,200468,2,0,P|384:211|369:250,1,82.5000025177003,2|0,0:0|0:0,0:0:0:0:
122,365,200784,6,0,P|97:318|112:271,1,82.5000025177003,4|0,1:0|3:0,0:0:0:0:
367,339,201099,2,0,P|320:364|273:349,1,82.5000025177003,4|0,1:0|3:0,0:0:0:0:
331,94,201415,2,0,P|356:141|341:188,1,82.5000025177003,4|0,1:0|3:0,0:0:0:0:
84,121,201731,1,8,0:0:0:0:
98,107,201809,1,8,0:0:0:0:
116,98,201888,1,8,0:0:0:0:
135,95,201967,1,8,0:0:0:0:
155,98,202046,5,4,0:0:0:0:
100,290,202205,2,0,P|109:334|119:393,1,82.5000025177003,2|8,0:0|0:0,0:0:0:0:
254,189,202520,2,0,P|265:140|278:92,1,82.5000025177003,2|8,0:0|0:0,0:0:0:0:
399,274,202836,2,0,P|409:313|418:354,1,82.5000025177003,2|8,0:0|0:0,0:0:0:0:
504,153,203152,2,0,P|428:130|354:192,1,165.000005035401,8|8,0:0|0:0,0:0:0:0:
271,324,203626,5,8,0:0:0:0:
250,338,203704,1,8,0:0:0:0:
226,342,203783,1,8,0:0:0:0:
202,333,203862,1,8,0:0:0:0:
185,315,203941,1,8,0:0:0:0:
178,291,204020,1,8,0:0:0:0:
183,267,204099,1,8,0:0:0:0:
198,248,204178,1,8,0:0:0:0:
216,239,204257,5,8,0:0:0:0:
210,193,204335,1,8,0:0:0:0:
204,147,204414,1,8,0:0:0:0:
199,101,204493,1,0,0:0:0:0:
193,55,204572,1,0,0:0:0:0:
46,216,205205,6,0,P|113:176|221:261,1,209.999993591309,4|8,1:0|0:0,0:0:0:0:
353,352,205678,1,0,0:0:0:0:
353,352,205757,1,0,0:0:0:0:
353,352,205836,2,0,P|361:306|376:256,1,89.9999972534181,2|0,0:0|3:0,0:0:0:0:
481,101,206152,2,0,P|493:144|500:188,1,89.9999972534181,8|0,0:0|0:0,0:0:0:0:
337,89,206468,6,0,P|291:84|241:117,1,89.9999972534181,2|0,3:2|0:0,0:0:0:0:
164,307,206783,1,8,1:2:0:0:
275,228,206941,1,0,3:0:0:0:
45,139,207099,1,8,1:0:0:0:
170,86,207257,1,0,3:0:0:0:
43,245,207415,2,0,P|41:290|77:340,1,89.9999972534181,8|0,0:0|0:0,0:0:0:0:
209,160,207731,6,0,P|293:149|409:141,1,179.999994506836,4|8,1:0|0:0,0:0:0:0:
488,297,208205,2,0,P|441:276|395:262,1,89.9999972534181,0|2,0:0|0:0,0:0:0:0:
319,372,208520,1,0,3:0:0:0:
175,265,208678,2,0,P|154:218|140:172,1,89.9999972534181,8|0,0:0|3:0,0:0:0:0:
327,46,208994,6,0,P|283:46|229:98,1,89.9999972534181,2|0,3:2|0:0,0:0:0:0:
282,269,209310,1,8,1:2:0:0:
142,181,209468,1,0,3:0:0:0:
357,211,209626,2,0,P|401:211|455:159,1,89.9999972534181,8|0,1:2|3:0,0:0:0:0:
245,69,209941,1,8,0:0:0:0:
226,70,210019,1,0,0:0:0:0:
207,72,210098,1,0,0:0:0:0:
188,74,210177,1,0,0:0:0:0:
173,78,210257,6,0,P|160:179|153:269,1,179.999994506836,4|8,3:0|0:0,0:0:0:0:
386,371,210731,1,2,0:0:0:0:
386,371,210810,1,2,0:0:0:0:
386,371,210889,2,0,P|400:327|378:271,1,89.9999972534181,2|0,0:0|3:0,0:0:0:0:
270,111,211205,2,0,P|256:155|278:211,1,89.9999972534181,8|0,0:0|0:0,0:0:0:0:
485,78,211520,6,0,P|440:63|388:52,1,89.9999972534181,0|0,3:0|0:0,0:0:0:0:
469,238,211836,1,8,1:2:0:0:
351,169,211994,1,0,3:0:0:0:
397,360,212152,1,8,1:2:0:0:
476,226,212310,1,0,3:0:0:0:
288,304,212468,2,0,P|242:267|160:295,1,134.999995880127,8|0,1:2|0:0,0:0:0:0:
110,346,212783,6,0,P|84:301|92:245,1,89.9999972534181,4|8,1:0|3:0,0:0:0:0:
188,71,213099,2,0,P|214:116|206:172,1,89.9999972534181,8|0,0:0|0:0,0:0:0:0:
44,7,213415,1,4,1:0:0:0:
0,151,213573,1,8,3:0:0:0:
172,282,213731,2,0,P|216:280|253:256,1,89.9999972534181,8|0,0:0|0:0,0:0:0:0:
457,106,214047,6,0,P|395:78|311:147,1,179.999994506836,4|8,1:0|0:0,0:0:0:0:
361,257,214520,1,0,3:0:0:0:
208,131,214678,1,4,3:0:0:0:
397,162,214836,1,0,3:0:0:0:
322,353,214994,1,4,3:0:0:0:
322,353,215310,5,4,1:0:0:0:
449,278,215468,1,4,3:0:0:0:
249,194,215626,2,0,P|179:204|66:214,1,179.999994506836,8|2,0:0|0:0,0:0:0:0:
20,107,216099,1,0,3:0:0:0:
146,10,216257,2,0,P|168:58|184:105,1,89.9999972534181,8|0,0:0|0:0,0:0:0:0:
70,304,216573,6,0,P|116:363|229:321,1,179.999994506836,4|8,1:0|0:0,0:0:0:0:
319,253,217047,1,4,3:0:0:0:
180,93,217205,2,0,P|158:141|142:188,1,89.9999972534181,2|0,0:0|3:0,0:0:0:0:
215,351,217520,1,8,0:0:0:0:
215,351,217678,1,0,0:0:0:0:
310,157,217836,6,0,P|374:129|413:136,1,89.9999972534181,4|8,3:0|3:0,0:0:0:0:
145,176,218152,2,0,P|88:134|75:97,1,89.9999972534181,8|0,0:0|0:0,0:0:0:0:
243,291,218468,2,0,P|235:360|209:390,1,89.9999972534181,2|0,0:0|3:0,0:0:0:0:
87,278,218783,1,8,0:0:0:0:
87,278,218941,1,0,0:0:0:0:
225,118,219099,6,0,P|201:73|134:48,1,89.9999972534181,4|0,3:0|3:0,0:0:0:0:
331,249,219415,2,0,P|381:250|437:205,1,89.9999972534181,8|0,0:0|3:0,0:0:0:0:
162,262,219731,2,0,P|135:305|146:375,1,89.9999972534181,0|8,0:0|0:0,0:0:0:0:
329,381,220047,2,0,P|338:336|340:330,1,44.999998626709,8|8,0:0|0:0,0:0:0:0:
415,232,220205,2,0,P|406:187|404:181,1,44.999998626709,8|8,0:0|0:0,0:0:0:0:
210,16,220362,6,0,P|192:88|188:123,1,89.9999972534181,4|0,1:2|3:0,0:0:0:0:
474,111,220678,2,0,P|492:183|496:218,1,89.9999972534181,4|0,1:2|3:0,0:0:0:0:
245,188,220994,2,0,P|227:260|223:295,1,89.9999972534181,4|0,1:2|3:0,0:0:0:0:
450,287,221310,2,0,P|468:359|472:394,1,89.9999972534181,4|0,1:2|3:0,0:0:0:0:
377,136,221626,6,0,P|325:104|285:103,1,89.9999972534181,4|0,1:2|3:0,0:0:0:0:
226,361,221941,2,0,P|279:331|300:297,1,89.9999972534181,4|0,1:2|3:0,0:0:0:0:
90,115,222257,2,0,P|88:176|107:211,1,89.9999972534181,4|0,1:2|3:0,0:0:0:0:
357,235,222573,2,0,P|304:223|298:223,1,44.999998626709,4|0,1:2|0:0,0:0:0:0:
145,298,222731,2,0,P|198:286|204:286,1,44.999998626709,0|0,3:0|0:0,0:0:0:0:
419,374,222889,5,4,1:2:0:0:
508,167,223047,2,0,P|464:134|413:118,1,89.9999972534181,4|0,3:2|3:0,0:0:0:0:
178,188,223362,2,0,P|146:155|125:116,1,89.9999972534181,2|8,3:2|0:0,0:0:0:0:
249,8,223678,1,2,3:2:0:0:
249,8,223836,1,8,0:0:0:0:
349,284,223994,6,0,P|266:261|205:322,1,179.999994506836,4|2,0:0|0:0,0:0:0:0:
0,211,224468,1,10,0:0:0:0:
44,205,224546,1,2,0:0:0:0:
89,199,224625,1,2,0:0:0:0:
133,194,224704,1,2,0:0:0:0:
178,188,224783,2,0,P|186:159|193:141,1,44.999998626709,10|0,0:0|0:0,0:0:0:0:
0,63,224941,2,0,P|7:84|13:105,1,44.999998626709,2|2,0:0|0:0,0:0:0:0:
22,304,225099,5,10,0:0:0:0:
42,325,225177,1,2,0:0:0:0:
69,338,225256,1,2,0:0:0:0:
99,342,225335,1,2,0:0:0:0:
128,334,225415,6,0,P|187:311|242:324,1,112.500004291535,6|2,0:0|0:0,0:0:0:0:
325,264,225889,2,0,P|334:206|344:144,1,112.500004291535,2|0,0:0|0:0,0:0:0:0:
437,96,226362,2,0,P|444:141|446:151,1,56.2500021457673,2|2,0:0|0:0,0:0:0:0:
431,243,226678,5,2,0:0:0:0:
435,254,226994,1,2,0:0:0:0:
439,265,227310,1,2,0:0:0:0:
443,275,227626,1,2,0:0:0:0:
288,363,227941,6,0,L|303:241,1,112.500004291535,2|0,0:0|0:0,0:0:0:0:
252,163,228415,2,0,B|212:126|147:129|147:129|88:174,1,168.750006437302,2|2,0:0|0:0,0:0:0:0:
142,334,229205,5,2,0:0:0:0:
146,323,229521,1,2,0:0:0:0:
150,312,229837,1,2,0:0:0:0:
154,302,230153,1,2,0:0:0:0:
76,168,230468,5,2,0:0:0:0:
163,213,230626,1,2,0:0:0:0:
247,165,230783,1,2,0:0:0:0:
333,212,230941,2,0,L|450:202,2,112.500004291535,2|0|0,0:0|0:0|0:0,0:0:0:0:
256,370,231731,6,0,P|231:330|258:269,1,112.500004291535,2|2,0:0|0:0,0:0:0:0:
318,100,232362,2,0,P|335:229|336:236,1,112.500004291535,2|2,0:0|0:0,0:0:0:0:
392,281,232994,6,0,B|291:350|274:222|180:291,1,225.000008583069,2|2,0:0|0:0,0:0:0:0:
49,141,234257,2,0,B|105:154|202:124|202:124|189:153|133:180,1,225.000008583069,2|2,0:0|0:0,0:0:0:0:
0,282,235520,5,2,0:0:0:0:
0,282,236783,6,0,B|56:281|93:312|93:312|124:267|182:267,1,194.999991073609,2|2,0:0|0:0,0:0:0:0:
259,316,237731,1,2,0:0:0:0:
344,215,238047,6,0,B|392:129|314:97|355:7|355:7|359:46|391:92,1,300,2|2,0:0|0:0,0:0:0:0:
436,197,239941,6,0,L|444:160,3,37.5,2|2|2|2,0:0|0:0|0:0|0:0,0:0:0:0:
386,85,240573,5,2,0:0:0:0:
256,192,240652,12,2,243099,0:0:0:0:
