osu file format v14

[General]
AudioFilename: owoozo.mp3
AudioLeadIn: 0
PreviewTime: 163126
Countdown: 0
SampleSet: Soft
StackLeniency: 0.7
Mode: 0
LetterboxInBreaks: 0
WidescreenStoryboard: 0

[Editor]
Bookmarks: 143310
DistanceSpacing: 1.3
BeatDivisor: 8
GridSize: 32
TimelineZoom: 1.8

[Metadata]
Title:Re:TrymenT
TitleUnicode:Re:TrymenT
Artist:Hotaru Murasaki
ArtistUnicode:紫咲ほたる
Creator:Komore
Version:Garden's Hard
Source:Re:LieF〜親愛なるあなたへ〜
Tags:retryment rask relief Shin'ainaru Anata e opening full eroge visual novel amari saya piano dailycare garden irohas joker- mugiwarasekai
BeatmapID:1416248
BeatmapSetID:625986

[Difficulty]
HPDrainRate:5
CircleSize:3.8
OverallDifficulty:6
ApproachRate:8
SliderMultiplier:1.4
SliderTickRate:1

[Events]
//Background and Video events
0,0,"aaa.jpg",0,0
//Break Periods
2,87931,97087
2,143510,152665
2,163521,172087
//Storyboard Layer 0 (Background)
//Storyboard Layer 1 (Fail)
//Storyboard Layer 2 (Pass)
//Storyboard Layer 3 (Foreground)
//Storyboard Sound Samples

[TimingPoints]
1837,315.789473684211,4,2,1,50,1,0
9415,-133.333333333333,4,2,1,55,0,0
10600,-133.333333333333,4,2,1,35,0,0
10679,-133.333333333333,4,2,1,60,0,0
11942,-100,4,2,1,67,0,0
22047,-133.333333333333,4,2,1,50,0,0
40047,-133.333333333333,4,2,1,15,0,0
40363,-133.333333333333,4,2,1,50,0,0
42258,-100,4,2,1,60,0,0
44705,-100,4,2,1,35,0,0
44784,-100,4,2,1,60,0,0
46679,-100,4,2,1,65,0,0
47626,-100,4,2,1,61,0,0
52284,-100,4,2,1,35,0,0
52363,-100,4,2,1,65,0,0
55126,-100,4,2,1,35,0,0
55205,-100,4,2,1,65,0,0
55994,-133.333333333333,4,2,1,50,0,0
56705,-133.333333333333,4,2,1,35,0,0
56784,-133.333333333333,4,2,2,50,0,0
57100,-133.333333333333,4,2,1,50,0,0
57415,-100,4,2,1,70,0,0
57652,-100,4,2,1,35,0,0
57731,-100,4,2,1,70,0,0
60179,-100,4,2,1,35,0,0
60258,-100,4,2,1,70,0,0
63968,-100,4,2,1,35,0,0
64047,-100,4,2,1,70,0,0
64284,-100,4,2,1,35,0,0
64363,-100,4,2,1,70,0,0
64600,-100,4,2,1,35,0,0
64679,-100,4,2,1,70,0,0
64915,-100,4,2,1,35,0,0
64994,-100,4,2,1,70,0,0
65231,-100,4,2,1,35,0,0
65310,-100,4,2,1,70,0,0
65863,-100,4,2,1,35,0,0
65942,-100,4,2,1,70,0,0
69652,-100,4,2,1,35,0,0
69731,-100,4,2,1,70,0,0
72573,-100,4,2,1,75,0,0
77626,-133.333333333333,4,2,1,75,0,0
86310,-133.333333333333,4,2,1,50,0,0
107942,-100,4,2,1,60,0,0
110389,-100,4,2,1,35,0,0
110468,-100,4,2,1,60,0,0
112363,-100,4,2,1,65,0,0
113310,-100,4,2,1,61,0,0
117968,-100,4,2,1,35,0,0
118047,-100,4,2,1,65,0,0
120810,-100,4,2,1,35,0,0
120889,-100,4,2,1,65,0,0
121679,-133.333333333333,4,2,1,50,0,0
122389,-133.333333333333,4,2,1,35,0,0
122468,-133.333333333333,4,2,2,65,0,0
122705,-133.333333333333,4,2,1,35,0,0
122784,-133.333333333333,4,2,1,68,0,0
123100,-100,4,2,1,75,0,0
123337,-100,4,2,1,35,0,0
123415,-100,4,2,1,75,0,0
125863,-100,4,2,1,35,0,0
125942,-100,4,2,1,75,0,0
128073,-100,4,2,1,35,0,0
128152,-100,4,2,1,75,0,0
129652,-100,4,2,1,35,0,0
129731,-100,4,2,1,75,0,0
129968,-100,4,2,1,35,0,0
130047,-100,4,2,1,75,0,0
130284,-100,4,2,1,35,0,0
130363,-100,4,2,1,60,0,0
130679,-100,4,2,1,75,0,0
130915,-100,4,2,1,35,0,0
130994,-100,4,2,1,75,0,0
131547,-100,4,2,1,35,0,0
131626,-100,4,2,1,75,0,0
135652,-100,4,2,1,35,0,0
135731,-100,4,2,1,75,0,0
135968,-100,4,2,1,35,0,0
136047,-100,4,2,1,75,0,0
138258,-100,4,2,1,78,0,0
153415,-133.333333333333,4,2,1,50,0,0
173626,-133.333333333333,4,2,1,60,0,0
177415,-100,4,2,1,60,0,0
177652,-100,4,2,1,35,0,0
177731,-100,4,2,1,62,0,0
177968,-100,4,2,1,35,0,0
178047,-100,4,2,1,64,0,0
178284,-100,4,2,1,35,0,0
178363,-100,4,2,1,66,0,0
178600,-100,4,2,1,35,0,0
178679,-100,4,2,1,68,0,0
182547,-100,4,2,1,35,0,0
182626,-100,4,2,1,70,0,0
183731,-100,4,2,1,50,0,0
184363,315.789473684211,4,2,1,65,1,0
186810,-100,4,2,1,35,0,0
186889,-100,4,2,1,65,0,0
190915,-100,4,2,1,35,0,0
190994,-100,4,2,1,65,0,0
191863,-100,4,2,1,35,0,0
191941,-100,4,2,1,60,0,0
192178,-100,4,2,1,35,0,0
192257,-100,4,2,1,60,0,0
192810,-100,4,2,1,35,0,0
192889,-100,4,2,1,60,0,0
193441,-100,4,2,1,35,0,0
193520,-100,4,2,1,60,0,0
194389,-100,4,2,1,35,0,0
194468,-100,4,2,1,65,0,0
195652,-100,4,2,1,35,0,0
195731,-100,4,2,1,65,0,0
196915,-100,4,2,1,35,0,0
196994,-100,4,2,1,65,0,0
198889,-100,4,2,1,68,0,0
199520,-100,4,2,1,72,0,0
200468,-100,4,2,1,74,0,0
200705,-100,4,2,1,35,0,0
200784,-100,4,2,1,78,0,0
202047,-100,4,2,1,80,0,0
204889,-100,4,2,1,63,0,0
205205,315.789473684211,4,2,1,78,1,0
205441,-100,4,2,1,35,0,0
205520,-100,4,2,1,78,0,0
207968,-100,4,2,1,35,0,0
208047,-100,4,2,1,78,0,0
211757,-100,4,2,1,35,0,0
211836,-100,4,2,1,78,0,0
212073,-100,4,2,1,35,0,0
212152,-100,4,2,1,78,0,0
212389,-100,4,2,1,35,0,0
212468,-100,4,2,1,65,0,0
212783,-100,4,2,1,78,0,0
213020,-100,4,2,1,35,0,0
213099,-100,4,2,1,78,0,0
213652,-100,4,2,1,35,0,0
213731,-100,4,2,1,78,0,0
217441,-100,4,2,1,35,0,0
217520,-100,4,2,1,78,0,0
220362,-100,4,2,1,83,0,0
225415,-133.333333333333,4,2,1,50,0,0
230389,-133.333333333333,4,2,1,35,0,0
230468,-133.333333333333,4,2,1,50,0,0
232994,-133.333333333333,4,2,2,50,0,0
233073,-133.333333333333,4,2,1,50,0,0
235520,-200,4,2,1,50,0,0
239862,-200,4,2,1,35,0,0
239941,-200,4,2,1,50,0,0
243099,-200,4,2,1,30,0,0

[Colours]
Combo1 : 229,229,229
Combo2 : 221,221,238
Combo3 : 193,193,255
Combo4 : 191,239,255

[HitObjects]
365,110,11942,6,0,P|439:115|485:171,2,140,4|2|2,0:0|3:2|3:2,0:0:0:0:
283,150,12731,1,0,0:0:0:0:
197,119,12889,2,0,P|201:81|204:36,1,70,2|0,3:2|0:0,0:0:0:0:
94,16,13205,6,0,P|97:82|106:176,1,140,2|0,3:2|0:0,0:0:0:0:
169,216,13679,2,0,P|103:195|39:220,1,140,4|0,3:0|3:0,0:0:0:0:
4,304,14152,1,4,3:0:0:0:
65,370,14310,1,0,0:0:0:0:
149,335,14468,6,0,L|221:325,1,70,4|0,0:0|0:0,0:0:0:0:
358,280,14784,1,2,3:2:0:0:
358,280,14942,2,0,L|281:268,1,70,2|2,0:0|3:2,0:0:0:0:
215,214,15258,2,0,P|210:181|212:138,1,70,2|2,0:0|3:2,0:0:0:0:
303,57,15573,2,0,P|303:91|299:126,1,70,2|0,0:0|0:0,0:0:0:0:
214,35,15889,6,0,L|209:-3,2,35,0|0|4,0:0|0:0|3:0,0:0:0:0:
141,91,16205,1,2,0:0:0:0:
141,91,16363,2,0,L|47:94,1,70,4|2,3:0|0:0,0:0:0:0:
16,166,16679,1,4,3:0:0:0:
16,166,16837,1,2,0:0:0:0:
87,221,16994,6,0,L|98:363,1,140,2|2,0:0|3:2,0:0:0:0:
189,366,17468,2,0,P|263:355|311:296,1,140,4|2,3:0|0:0,0:0:0:0:
219,278,17942,1,2,3:2:0:0:
299,223,18100,5,2,0:0:0:0:
299,223,18179,1,2,0:0:0:0:
299,223,18258,2,0,L|296:132,1,70,2|0,0:0|0:0,0:0:0:0:
345,76,18573,1,2,3:2:0:0:
435,86,18731,2,0,P|466:134|446:232,1,140,4|4,3:0|3:0,0:0:0:0:
368,230,19205,2,0,L|282:221,1,70,2|2,3:2|0:0,0:0:0:0:
214,101,19521,6,0,L|222:171,1,70,4|2,3:2|0:0,0:0:0:0:
305,132,19837,2,0,L|298:63,1,70,2|2,0:0|0:0,0:0:0:0:
152,21,20152,6,0,L|221:13,1,70,4|2,3:1|0:0,0:0:0:0:
214,101,20468,2,0,L|131:112,1,70,2|2,0:0|0:0,0:0:0:0:
58,77,20784,5,6,3:2:0:0:
89,305,22047,5,4,3:0:0:0:
89,305,22363,2,0,L|79:199,2,105.000004005432,0|0|2,0:0|0:0|0:0,0:0:0:0:
161,347,23152,1,0,0:0:0:0:
236,310,23310,2,0,P|288:300|346:307,1,105.000004005432,0|0,0:0|0:0,0:0:0:0:
496,244,23942,2,0,P|435:242|381:217,1,105.000004005432,2|2,0:0|0:0,0:0:0:0:
400,57,24573,5,2,0:0:0:0:
400,57,24889,2,0,P|409:83|416:120,1,52.5000020027161,0|2,0:0|0:0,0:0:0:0:
345,156,25205,2,0,P|292:141|220:157,1,105.000004005432,0|2,0:0|0:0,0:0:0:0:
164,179,25679,1,0,0:0:0:0:
188,259,25837,2,0,L|194:375,1,105.000004005432,0|0,0:0|0:0,0:0:0:0:
46,242,26468,2,0,P|69:242|98:245,2,52.5000020027161,2|0|2,0:0|0:0|0:0,0:0:0:0:
133,97,27100,5,4,3:0:0:0:
133,97,27258,1,0,3:0:0:0:
211,124,27415,2,0,P|240:121|269:114,1,52.5000020027161,0|0,0:0|0:0,0:0:0:0:
334,71,27731,2,0,P|391:63|444:89,1,105.000004005432,0|2,0:0|0:0,0:0:0:0:
475,154,28205,2,0,L|461:273,1,105.000004005432,0|0,0:0|0:0,0:0:0:0:
390,301,28679,1,2,0:0:0:0:
390,301,28994,2,0,L|262:292,1,105.000004005432,2|0,0:0|0:0,0:0:0:0:
125,240,29626,6,0,L|245:227,1,105.000004005432,2|0,0:0|0:0,0:0:0:0:
304,189,30100,2,0,P|319:142|305:83,1,105.000004005432,2|0,0:0|0:0,0:0:0:0:
243,34,30573,2,0,L|168:40,1,52.5000020027161,0|0,0:0|0:0,0:0:0:0:
112,71,30889,1,0,0:0:0:0:
112,71,31047,2,0,P|108:43|111:7,2,52.5000020027161,0|0|0,0:0|0:0|0:0,0:0:0:0:
149,146,31521,2,0,P|144:184|136:214,1,52.5000020027161,0|0,1:0|1:0,0:0:0:0:
76,252,31837,2,0,P|55:278|36:295,1,52.5000020027161,0|0,0:0|3:0,0:0:0:0:
210,260,32152,5,4,3:0:0:0:
210,260,32468,2,0,L|326:247,1,105.000004005432,0|0,0:0|0:0,0:0:0:0:
386,292,32942,2,0,P|446:292|492:259,1,105.000004005432,0|0,0:0|0:0,0:0:0:0:
417,215,33415,1,0,0:0:0:0:
358,372,33731,1,0,0:0:0:0:
417,215,34047,2,0,P|420:157|393:94,1,105.000004005432,0|2,1:0|0:0,0:0:0:0:
354,45,34521,1,0,0:0:0:0:
285,94,34679,5,2,0:0:0:0:
285,94,34994,2,0,L|162:87,1,105.000004005432,0|0,0:0|1:0,0:0:0:0:
108,43,35468,2,0,P|96:92|115:143,1,105.000004005432,0|0,0:0|0:0,0:0:0:0:
187,183,35942,1,0,3:0:0:0:
13,104,36258,1,0,0:0:0:0:
187,183,36573,2,0,L|315:171,1,105.000004005432,0|0,1:0|0:0,0:0:0:0:
132,255,37205,5,4,3:0:0:0:
132,255,37363,1,0,3:0:0:0:
164,332,37521,2,0,P|160:364|159:393,1,52.5000020027161,0|0,0:0|0:0,0:0:0:0:
243,375,37837,2,0,L|362:365,1,105.000004005432,0|0,1:0|0:0,0:0:0:0:
426,336,38310,2,0,P|446:278|434:233,1,105.000004005432,0|0,0:0|1:0,0:0:0:0:
381,174,38784,1,2,0:0:0:0:
381,174,39100,2,0,P|365:131|376:65,1,105.000004005432,0|2,1:0|0:0,0:0:0:0:
436,237,39731,6,0,B|347:291|341:203|228:254,1,210.000008010865,2|0,0:0|1:0,0:0:0:0:
110,366,40679,2,0,P|118:342|123:304,1,52.5000020027161,2|0,0:0|1:0,0:0:0:0:
46,274,40994,2,0,P|40:228|38:156,1,105.000004005432,0|2,0:0|0:0,0:0:0:0:
83,97,41468,1,2,0:0:0:0:
83,97,41626,2,0,L|157:106,1,52.5000020027161,2|2,2:3|2:3,0:0:0:0:
208,144,41942,2,0,L|272:131,1,52.5000020027161,2|2,2:3|2:3,0:0:0:0:
304,255,42258,6,0,P|269:200|285:129,1,140,4|2,0:0|3:2,0:0:0:0:
340,58,42731,2,0,L|483:71,1,140,2|0,0:0|0:0,0:0:0:0:
512,161,43205,1,2,3:2:0:0:
512,161,43363,1,4,3:0:0:0:
413,230,43521,2,0,P|413:195|420:161,1,70,0|4,3:0|3:0,0:0:0:0:
492,285,43837,1,0,3:0:0:0:
492,285,44152,2,0,P|497:321|497:358,2,70,2|0|2,3:2|0:0|3:2,0:0:0:0:
411,328,44626,1,0,0:0:0:0:
330,285,44784,6,0,P|263:275|193:319,1,140,4|2,3:2|3:2,0:0:0:0:
136,373,45258,1,2,0:0:0:0:
49,346,45415,2,0,L|41:195,1,140,0|2,0:0|3:2,0:0:0:0:
86,126,45889,1,4,3:0:0:0:
171,158,46047,2,0,P|210:158|262:146,1,70,0|4,3:0|3:0,0:0:0:0:
303,22,46363,1,0,3:0:0:0:
303,22,46679,2,0,L|311:96,1,70,8|8,0:0|0:0,0:0:0:0:
387,190,46994,2,0,L|396:121,1,70,0|0,3:0|3:0,0:0:0:0:
315,247,47310,6,0,P|384:282|478:194,1,210,4|0,0:0|0:0,0:0:0:0:
396,120,47942,2,0,L|238:107,1,140,8|2,0:0|3:2,0:0:0:0:
168,132,48415,2,0,L|174:57,1,70,2|0,3:2|0:0,0:0:0:0:
82,57,48731,1,8,0:0:0:0:
82,57,48889,2,0,L|73:138,1,70,0|0,3:0|3:0,0:0:0:0:
117,211,49205,1,8,0:0:0:0:
117,211,49363,1,8,0:0:0:0:
159,291,49521,2,0,L|242:284,1,70,4|4,3:0|3:0,0:0:0:0:
125,381,49837,5,4,0:0:0:0:
125,381,50152,2,0,L|200:374,1,70,2|2,0:0|3:2,0:0:0:0:
284,356,50468,2,0,P|314:294|294:219,1,140,8|2,0:0|3:2,0:0:0:0:
211,202,50942,2,0,P|181:161|196:58,1,140,2|0,3:2|0:0,0:0:0:0:
275,0,51415,2,0,P|271:33|275:68,1,70,8|4,0:0|2:3,0:0:0:0:
324,145,51731,2,0,L|393:137,1,70,8|8,0:0|0:0,0:0:0:0:
480,68,52047,1,2,3:2:0:0:
480,68,52363,6,0,L|467:213,1,140,4|2,0:0|3:2,0:0:0:0:
452,297,52837,1,0,0:0:0:0:
367,264,52994,2,0,P|333:255|277:269,1,70,2|0,3:2|0:0,0:0:0:0:
236,326,53310,1,2,3:2:0:0:
333,354,53468,5,0,0:0:0:0:
333,354,53547,1,0,0:0:0:0:
333,354,53626,2,0,L|336:207,1,140,2|2,3:2|3:2,0:0:0:0:
302,128,54100,1,0,0:0:0:0:
222,172,54258,2,0,P|183:178|134:160,1,70,2|0,3:2|0:0,0:0:0:0:
80,116,54573,2,0,L|76:33,1,70,2|0,3:2|0:0,0:0:0:0:
189,88,54889,6,0,L|182:255,1,140,4|4,1:0|1:0,0:0:0:0:
259,278,55363,1,2,3:2:0:0:
339,235,55521,2,0,P|375:218|420:217,1,70,4|2,1:0|3:2,0:0:0:0:
489,249,55837,1,4,1:0:0:0:
403,314,55994,6,0,B|291:366|272:266|138:331,1,262.500010013581,8|2,0:0|0:0,0:0:0:0:
148,326,57415,6,0,P|178:258|152:172,1,140,4|8,1:0|0:0,0:0:0:0:
117,131,57889,1,0,0:0:0:0:
117,131,57968,1,0,0:0:0:0:
117,131,58047,2,0,L|32:138,1,70,2|0,0:0|3:0,0:0:0:0:
176,62,58363,1,8,0:0:0:0:
176,62,58521,2,0,P|257:49|321:90,1,140,0|0,0:0|0:0,0:0:0:0:
360,147,58994,2,0,P|355:188|353:243,1,70,8|0,1:2|3:0,0:0:0:0:
411,287,59310,2,0,P|394:326|381:360,1,70,8|0,1:0|3:0,0:0:0:0:
305,302,59626,1,8,0:0:0:0:
305,302,59784,1,0,0:0:0:0:
354,216,59942,6,0,B|380:201|408:197|408:197|456:217|519:188,1,140,4|8,1:0|0:0,0:0:0:0:
451,114,60415,2,0,B|404:102|404:102|354:108|315:129,1,140,0|0,0:0|3:0,0:0:0:0:
234,88,60889,1,8,0:0:0:0:
166,149,61047,2,0,P|77:157|29:120,1,140,0|0,0:0|0:0,0:0:0:0:
107,4,61521,2,0,L|113:75,1,70,8|0,1:2|3:0,0:0:0:0:
234,88,61837,2,0,P|270:83|326:85,1,70,8|0,1:2|3:0,0:0:0:0:
411,126,62152,2,0,L|378:135,3,35,8|0|0|0,0:0|0:0|0:0|0:0,0:0:0:0:
353,157,62468,6,0,P|345:198|343:246,1,70,4|0,3:0|0:0,0:0:0:0:
429,257,62784,2,0,P|441:308|447:375,1,105,8|2,0:0|0:0,0:0:0:0:
417,370,63100,2,0,L|329:363,1,70,2|0,0:0|3:0,0:0:0:0:
276,307,63415,1,8,0:0:0:0:
191,341,63573,2,0,P|187:267|182:191,1,140,0|0,0:0|0:0,0:0:0:0:
121,71,64047,2,0,P|116:106|113:141,1,70,8|0,1:2|0:0,0:0:0:0:
36,191,64363,2,0,P|41:245|46:273,1,70,8|0,1:2|0:0,0:0:0:0:
17,348,64679,2,0,P|48:366|86:378,1,70,8|0,1:2|0:0,0:0:0:0:
191,341,64994,6,0,P|252:309|332:316,1,140,4|8,1:0|0:0,0:0:0:0:
375,237,65468,1,0,0:0:0:0:
405,363,65626,2,0,P|368:304|386:216,1,140,4|8,1:0|0:0,0:0:0:0:
436,168,66100,1,0,0:0:0:0:
307,181,66258,6,0,B|362:201|362:201|453:160,1,140,4|8,1:0|0:0,0:0:0:0:
442,0,66731,1,0,3:0:0:0:
475,84,66889,2,0,B|438:88|438:88|383:77,1,70,4|0,3:0|3:0,0:0:0:0:
308,37,67205,1,4,3:0:0:0:
308,37,67521,6,0,P|232:38|190:84,1,140,4|8,1:0|0:0,0:0:0:0:
194,178,67994,1,0,0:0:0:0:
194,178,68152,2,0,P|121:166|45:158,1,140,2|8,0:0|0:0,0:0:0:0:
99,78,68626,1,0,0:0:0:0:
190,81,68784,2,0,P|261:109|285:183,1,140,4|8,1:0|0:0,0:0:0:0:
286,260,69258,1,4,3:0:0:0:
286,260,69415,2,0,P|364:251|438:249,1,140,2|8,0:0|0:0,0:0:0:0:
492,186,69889,1,0,0:0:0:0:
431,118,70047,6,0,P|435:78|433:38,1,70,4|0,3:0|3:0,0:0:0:0:
342,43,70363,2,0,P|309:34|262:25,1,70,8|0,0:0|0:0,0:0:0:0:
236,110,70679,2,0,P|185:117|148:124,1,70,2|0,0:0|3:0,0:0:0:0:
143,208,70994,2,0,P|110:232|76:263,1,70,8|0,0:0|0:0,0:0:0:0:
172,368,71310,6,0,P|170:333|166:299,1,70,2|0,0:0|3:0,0:0:0:0:
236,240,71626,2,0,P|237:203|245:158,1,70,8|0,0:0|3:0,0:0:0:0:
166,120,71942,2,0,L|156:40,1,70,8|0,0:0|0:0,0:0:0:0:
234,1,72258,1,10,0:0:0:0:
320,54,72415,5,2,0:0:0:0:
320,54,72494,1,2,0:0:0:0:
320,54,72573,2,0,L|410:44,1,70,4|0,1:2|3:0,0:0:0:0:
404,136,72889,2,0,L|480:154,1,70,4|0,1:2|3:0,0:0:0:0:
482,243,73205,2,0,L|510:322,1,70,4|0,1:2|3:0,0:0:0:0:
393,231,73521,1,4,1:2:0:0:
393,231,73679,1,0,3:0:0:0:
332,299,73837,6,0,L|254:289,1,70,4|0,1:2|3:0,0:0:0:0:
184,336,74152,2,0,L|126:290,1,70,4|0,1:2|3:0,0:0:0:0:
41,319,74468,2,0,L|27:246,1,70,4|0,1:2|3:0,0:0:0:0:
64,97,74784,2,0,L|79:184,1,70,4|0,1:2|3:0,0:0:0:0:
156,209,75100,5,4,1:2:0:0:
156,209,75258,2,0,P|191:195|237:183,1,70,4|0,3:2|0:0,0:0:0:0:
245,98,75573,2,0,P|315:106|392:113,1,140,0|0,3:0|3:0,0:0:0:0:
479,127,76047,1,8,0:0:0:0:
479,127,76205,6,0,P|444:195|469:262,1,140,4|2,0:0|0:0,0:0:0:0:
511,365,76679,2,0,L|506:331,3,35,10|2|2|2,0:0|0:0|0:0|0:0,0:0:0:0:
472,344,76994,2,0,P|435:349|391:352,1,70,10|2,0:0|0:0,0:0:0:0:
312,371,77310,2,0,P|277:344|254:319,1,70,10|2,0:0|0:0,0:0:0:0:
213,224,77626,6,0,B|264:213|264:213|313:234|313:234|384:222,2,157.500006008148,6|0|0,0:0|0:0|0:0,0:0:0:0:
432,303,78889,2,0,P|464:238|445:159,1,157.500006008148,0|0,0:0|0:0,0:0:0:0:
385,64,79521,2,0,P|377:89|371:115,1,52.5000020027161,0|0,0:0|0:0,0:0:0:0:
298,157,79837,2,0,P|268:148|230:145,1,52.5000020027161,0|0,0:0|0:0,0:0:0:0:
166,206,80152,6,0,P|81:229|9:136,1,210.000008010865,0|0,0:0|0:0,0:0:0:0:
108,93,80942,1,0,0:0:0:0:
108,93,81100,2,0,L|100:165,1,52.5000020027161,0|0,0:0|0:0,0:0:0:0:
240,59,81573,6,0,L|237:-5,2,52.5000020027161,0|0|0,0:0|0:0|0:0,0:0:0:0:
309,107,82047,2,0,P|345:103|367:94,1,52.5000020027161,0|0,0:0|0:0,0:0:0:0:
430,50,82363,1,0,0:0:0:0:
430,50,82521,1,0,0:0:0:0:
510,73,82679,6,0,B|522:129|522:129|504:175|504:175|516:244,2,157.500006008148,0|0|0,0:0|0:0|0:0,0:0:0:0:
265,215,83942,2,0,P|350:237|432:200,1,157.500006008148,0|0,0:0|0:0,0:0:0:0:
484,268,84573,2,0,P|490:298|494:329,1,52.5000020027161,0|0,0:0|0:0,0:0:0:0:
424,369,84889,2,0,L|361:362,1,52.5000020027161,0|0,0:0|0:0,0:0:0:0:
303,313,85205,2,0,P|257:296|201:306,1,105.000004005432,0|0,0:0|0:0,0:0:0:0:
126,341,85679,1,0,0:0:0:0:
47,309,85837,6,0,P|42:283|40:256,1,52.5000020027161,0|0,0:0|0:0,0:0:0:0:
65,176,86152,1,0,0:0:0:0:
155,206,86310,1,0,0:0:0:0:
256,192,86389,12,4,87731,3:0:0:0:
149,294,97837,5,4,3:0:0:0:
149,294,98152,2,0,L|273:284,1,105.000004005432,0|0,0:0|1:0,0:0:0:0:
329,249,98626,2,0,P|342:199|320:138,1,105.000004005432,0|0,0:0|0:0,0:0:0:0:
290,72,99100,1,0,0:0:0:0:
178,196,99415,1,0,0:0:0:0:
296,85,99731,1,0,1:0:0:0:
176,211,100047,1,2,0:0:0:0:
418,133,100363,5,0,3:0:0:0:
418,133,100679,2,0,P|411:191|406:255,1,105.000004005432,0|0,0:0|1:0,0:0:0:0:
469,293,101152,2,0,P|418:289|365:317,1,105.000004005432,0|0,0:0|0:0,0:0:0:0:
305,365,101626,1,0,3:0:0:0:
143,318,101942,1,0,0:0:0:0:
311,347,102258,1,0,1:0:0:0:
147,334,102573,1,2,0:0:0:0:
53,170,102889,5,4,3:0:0:0:
53,170,103205,2,0,P|59:221|65:285,2,105.000004005432,0|0|2,0:0|1:0|0:0,0:0:0:0:
4,101,103994,2,0,P|62:119|123:100,1,105.000004005432,0|0,0:0|1:0,0:0:0:0:
164,51,104468,1,2,0:0:0:0:
225,207,104784,1,0,1:0:0:0:
184,43,105100,1,2,0:0:0:0:
246,198,105415,6,0,B|305:183|349:210|349:210|415:197|414:131,1,210.000008010865,2|0,0:0|1:0,0:0:0:0:
326,0,106363,1,2,0:0:0:0:
326,0,106521,2,0,L|333:113,1,105.000004005432,0|2,1:0|0:0,0:0:0:0:
272,220,106994,2,0,L|268:168,1,52.5000020027161,2|2,0:0|0:0,0:0:0:0:
355,239,107310,2,0,L|361:303,1,52.5000020027161,2|2,2:3|2:3,0:0:0:0:
299,350,107626,1,2,2:3:0:0:
299,350,107942,6,0,P|235:325|152:340,1,140,4|2,0:0|3:2,0:0:0:0:
89,383,108415,2,0,P|78:355|77:315,1,70,2|0,0:0|0:0,0:0:0:0:
11,250,108731,2,0,P|13:212|34:170,1,70,0|2,0:0|3:2,0:0:0:0:
112,240,109047,1,2,0:0:0:0:
112,240,109126,1,0,0:0:0:0:
112,240,109205,2,0,P|188:238|249:180,1,140,2|2,3:2|3:2,0:0:0:0:
319,162,109679,2,0,P|353:164|396:173,2,70,0|2|0,0:0|3:2|0:0,0:0:0:0:
243,110,110152,2,0,L|249:33,1,70,2|2,3:2|0:0,0:0:0:0:
158,20,110468,6,0,L|144:170,1,140,4|2,0:0|3:2,0:0:0:0:
85,228,110942,2,0,P|53:237|14:236,2,70,2|0|0,0:0|0:0|0:0,0:0:0:0:
174,244,111415,1,2,3:2:0:0:
237,178,111573,2,0,P|306:162|366:195,1,140,2|0,0:0|0:0,0:0:0:0:
431,255,112047,2,0,L|425:334,1,70,2|2,3:2|0:0,0:0:0:0:
351,378,112363,1,4,3:0:0:0:
351,378,112521,1,0,3:0:0:0:
270,335,112679,1,0,3:0:0:0:
270,335,112837,1,0,3:0:0:0:
292,247,112994,5,4,0:0:0:0:
165,377,113310,2,0,L|85:372,1,70,2|2,0:0|3:2,0:0:0:0:
24,314,113626,2,0,L|19:153,1,140,8|2,0:0|3:2,0:0:0:0:
108,198,114100,2,0,P|178:199|243:139,1,140,2|8,3:2|0:0,0:0:0:0:
189,12,114573,2,0,P|179:47|182:82,1,70,0|0,3:0|3:0,0:0:0:0:
274,59,114889,1,8,0:0:0:0:
274,59,115047,1,8,0:0:0:0:
326,133,115205,1,4,3:0:0:0:
326,133,115363,1,4,3:0:0:0:
412,104,115521,5,4,0:0:0:0:
474,275,115837,2,0,P|428:270|389:271,1,70,2|2,0:0|3:2,0:0:0:0:
348,342,116152,2,0,P|368:274|332:195,1,140,8|2,0:0|3:2,0:0:0:0:
262,173,116626,2,0,P|330:177|383:133,1,140,2|0,3:2|0:0,0:0:0:0:
415,48,117100,2,0,L|335:30,1,70,8|0,0:0|3:0,0:0:0:0:
264,71,117415,1,8,0:0:0:0:
264,71,117573,1,8,0:0:0:0:
192,14,117731,1,4,3:0:0:0:
307,154,118047,6,0,P|231:164|159:177,1,140,4|2,0:0|3:2,0:0:0:0:
103,110,118521,1,0,0:0:0:0:
42,178,118679,2,0,P|36:216|34:264,1,70,2|0,3:2|0:0,0:0:0:0:
83,325,118994,1,2,3:2:0:0:
166,288,119152,5,0,0:0:0:0:
166,288,119231,1,0,0:0:0:0:
166,288,119310,2,0,P|238:276|313:320,1,140,2|2,3:2|3:2,0:0:0:0:
358,370,119784,1,0,0:0:0:0:
443,339,119942,2,0,P|455:303|456:258,1,70,2|0,3:2|0:0,0:0:0:0:
470,121,120258,2,0,P|486:152|494:187,1,70,2|0,3:2|0:0,0:0:0:0:
382,218,120573,6,0,L|234:201,1,140,4|2,0:0|3:2,0:0:0:0:
153,220,121047,1,2,3:2:0:0:
80,164,121205,2,0,P|66:133|68:72,1,70,2|2,3:2|3:2,0:0:0:0:
156,108,121521,1,6,3:2:0:0:
153,220,121679,6,0,B|164:297|122:283|141:358|141:358|77:328|81:369|13:343,1,262.500010013581,8|0,0:0|0:0,0:0:0:0:
239,235,122784,2,0,L|280:227,3,26.2500010013581,8|8|8|8,0:0|0:0|0:0|0:0,0:0:0:0:
298,243,123100,6,0,P|367:258|436:211,1,140,4|8,1:0|0:0,0:0:0:0:
461,142,123573,1,0,0:0:0:0:
461,142,123652,1,0,0:0:0:0:
461,142,123731,2,0,L|467:52,1,70,2|0,0:0|3:0,0:0:0:0:
398,9,124047,1,8,0:0:0:0:
324,62,124205,2,0,P|254:57|168:55,1,140,0|0,0:0|0:0,0:0:0:0:
54,132,124679,2,0,P|89:126|124:124,1,70,8|0,1:2|3:0,0:0:0:0:
202,170,124994,2,0,P|214:207|219:249,1,70,8|0,1:0|3:0,0:0:0:0:
170,315,125310,1,8,0:0:0:0:
170,315,125468,1,0,0:0:0:0:
237,376,125626,6,0,P|310:377|363:341,1,140,4|8,1:0|0:0,0:0:0:0:
448,306,126100,2,0,P|362:296|315:231,1,140,0|0,0:0|3:0,0:0:0:0:
413,219,126573,1,8,0:0:0:0:
303,241,126731,2,0,L|145:269,1,140,0|0,3:0|0:0,0:0:0:0:
83,307,127205,2,0,P|45:293|15:257,1,70,8|0,1:2|3:0,0:0:0:0:
13,181,127521,1,8,1:2:0:0:
119,33,127837,2,0,L|113:73,3,35,8|0|0|0,0:0|0:0|0:0|0:0,0:0:0:0:
100,103,128152,6,0,L|195:96,1,70,4|0,3:0|0:0,0:0:0:0:
245,45,128468,2,0,L|361:58,1,105,8|2,0:0|0:0,0:0:0:0:
349,56,128784,2,0,P|352:101|366:131,1,70,2|0,0:0|3:0,0:0:0:0:
438,73,129100,1,8,0:0:0:0:
487,149,129258,2,0,P|479:215|472:297,1,140,0|0,0:0|0:0,0:0:0:0:
319,256,129731,2,0,L|389:250,1,70,8|0,1:2|0:0,0:0:0:0:
401,340,130047,2,0,L|306:348,1,70,8|0,1:2|0:0,0:0:0:0:
245,312,130363,2,0,P|209:315|158:342,1,70,8|0,1:2|0:0,0:0:0:0:
99,374,130679,6,0,P|144:319|139:237,1,140,4|8,1:0|0:0,0:0:0:0:
89,180,131152,1,0,0:0:0:0:
215,200,131310,2,0,P|144:213|79:164,1,140,4|8,1:0|0:0,0:0:0:0:
160,122,131784,1,0,0:0:0:0:
21,144,131942,6,0,L|181:118,1,140,4|8,1:0|0:0,0:0:0:0:
225,59,132415,1,0,3:0:0:0:
225,59,132573,2,0,L|305:69,1,70,4|0,3:0|3:0,0:0:0:0:
383,33,132889,1,4,3:0:0:0:
383,33,133205,6,0,L|394:178,1,140,4|8,1:0|0:0,0:0:0:0:
484,204,133679,1,0,0:0:0:0:
484,204,133837,2,0,L|475:351,1,140,2|8,0:0|0:0,0:0:0:0:
394,303,134310,1,0,0:0:0:0:
321,358,134468,6,0,P|249:359|194:306,1,140,4|8,1:0|0:0,0:0:0:0:
288,271,134942,1,4,3:0:0:0:
288,271,135100,2,0,P|324:209|301:123,1,140,2|8,0:0|0:0,0:0:0:0:
134,115,135731,6,0,L|210:105,1,70,4|0,3:0|0:0,0:0:0:0:
231,192,136047,2,0,L|133:204,1,70,8|0,0:0|0:0,0:0:0:0:
43,292,136363,2,0,L|119:282,1,70,2|0,0:0|3:0,0:0:0:0:
140,369,136679,2,0,L|42:381,1,70,8|0,0:0|0:0,0:0:0:0:
206,304,136994,6,0,L|366:319,1,140,4|8,3:0|0:0,0:0:0:0:
425,361,137468,1,0,3:0:0:0:
482,289,137626,2,0,P|488:249|482:203,1,70,8|0,0:0|0:0,0:0:0:0:
408,134,137942,2,0,L|402:169,3,35,10|2|2|2,0:0|0:0|0:0|0:0,0:0:0:0:
379,193,138258,5,4,1:2:0:0:
225,289,138573,2,0,L|141:271,1,70,4|0,1:2|3:0,0:0:0:0:
67,296,138889,2,0,L|34:220,1,70,4|0,1:2|3:0,0:0:0:0:
65,144,139205,1,4,1:2:0:0:
65,144,139363,1,0,3:0:0:0:
153,165,139521,6,0,P|195:163|241:139,1,70,4|0,1:2|3:0,0:0:0:0:
300,198,139837,2,0,P|321:170|331:124,1,70,4|0,1:2|3:0,0:0:0:0:
421,137,140152,2,0,P|432:103|432:56,1,70,4|0,1:2|3:0,0:0:0:0:
364,8,140468,1,4,1:2:0:0:
384,225,140784,5,4,1:2:0:0:
384,225,140942,2,0,P|390:267|405:296,1,70,4|0,3:2|0:0,0:0:0:0:
469,353,141258,2,0,P|408:333|318:360,1,140,2|2,3:2|3:2,0:0:0:0:
248,374,141731,1,8,0:0:0:0:
175,318,141889,1,4,0:0:0:0:
256,192,141968,12,6,143310,0:0:0:0:
83,240,153415,5,2,0:0:0:0:
171,282,153889,1,2,0:0:0:0:
171,282,154047,2,0,P|224:279|282:242,1,105.000004005432,2|0,0:0|1:0,0:0:0:0:
232,178,154521,2,0,P|214:135|223:64,1,105.000004005432,2|2,0:0|0:0,0:0:0:0:
276,16,154994,1,2,0:0:0:0:
354,46,155152,2,0,L|470:35,1,105.000004005432,2|2,0:0|0:0,0:0:0:0:
490,114,155626,2,0,L|422:122,1,52.5000020027161,0|2,0:0|0:0,0:0:0:0:
364,163,155942,5,2,0:0:0:0:
497,265,156258,1,0,0:0:0:0:
412,287,156415,2,0,P|408:263|412:234,1,52.5000020027161,2|0,0:0|0:0,0:0:0:0:
497,265,156731,2,0,P|497:321|488:374,1,105.000004005432,2|2,0:0|0:0,0:0:0:0:
403,365,157205,2,0,L|289:355,2,105.000004005432,2|2|0,0:0|0:0|1:0,0:0:0:0:
261,274,158152,1,2,0:0:0:0:
112,384,158468,6,0,P|99:337|194:365,1,210.000008010865,0|0,3:0|1:0,0:0:0:0:
33,266,159415,1,2,0:0:0:0:
33,266,159573,2,0,L|26:152,1,105.000004005432,2|0,0:0|0:0,0:0:0:0:
3,79,160047,2,0,P|47:114|114:102,1,105.000004005432,2|0,0:0|1:0,0:0:0:0:
157,57,160521,1,2,0:0:0:0:
238,77,160679,2,0,L|249:143,1,52.5000020027161,2|2,0:0|0:0,0:0:0:0:
261,211,160994,1,4,3:0:0:0:
256,192,161073,12,0,162218,0:0:0:0:
66,220,172837,6,0,L|72:253,2,26.2500010013581,4|4|4,3:0|3:0|2:3,0:0:0:0:
141,183,173152,2,0,L|167:297,1,105.000004005432,0|0,3:0|3:0,0:0:0:0:
98,337,173626,6,0,P|167:298|251:308,1,157.500006008148,4|0,0:0|0:0,0:0:0:0:
320,337,174258,2,0,P|406:339|479:288,1,157.500006008148,8|0,0:0|0:0,0:0:0:0:
503,228,174889,1,2,3:2:0:0:
394,99,175363,1,0,0:0:0:0:
394,99,175521,2,0,P|418:140|423:211,1,105.000004005432,8|0,0:0|0:0,0:0:0:0:
362,260,175994,1,0,0:0:0:0:
362,260,176152,6,0,L|236:254,1,105.000004005432,2|0,3:2|0:0,0:0:0:0:
29,211,176784,2,0,L|151:197,1,105.000004005432,8|2,0:0|3:2,0:0:0:0:
242,10,177415,2,0,L|251:93,1,70,2|0,0:0|0:0,0:0:0:0:
330,121,177731,2,0,L|324:202,1,70,8|0,0:0|0:0,0:0:0:0:
222,259,178047,2,0,L|267:253,2,35,8|0|0,0:0|0:0|0:0,0:0:0:0:
322,327,178363,1,8,0:0:0:0:
322,327,178679,6,0,P|368:323|405:299,1,70,4|0,1:2|3:0,0:0:0:0:
471,274,178994,2,0,L|485:197,1,70,4|0,1:2|3:0,0:0:0:0:
414,144,179310,2,0,L|404:66,1,70,4|0,1:2|3:0,0:0:0:0:
491,26,179626,1,0,0:0:0:0:
491,26,179784,1,0,3:0:0:0:
388,81,179942,6,0,P|349:84|299:66,1,70,4|0,1:2|3:0,0:0:0:0:
210,1,180258,2,0,B|229:30|229:30|229:80,1,70,4|0,1:2|3:0,0:0:0:0:
185,145,180573,2,0,L|105:136,1,70,4|0,1:0|3:0,0:0:0:0:
24,128,180889,1,4,1:2:0:0:
124,298,181205,5,4,1:0:0:0:
124,298,181363,2,0,P|129:260|122:225,1,70,4|0,1:0|0:0,0:0:0:0:
50,356,181679,2,0,P|116:336|192:345,1,140,4|4,3:0|3:0,0:0:0:0:
251,280,182152,1,0,0:0:0:0:
336,311,182310,2,0,L|338:160,1,140,8|2,0:0|0:0,0:0:0:0:
488,204,182784,2,0,P|456:212|419:211,1,70,0|2,0:0|0:0,0:0:0:0:
374,88,183100,2,0,P|408:84|462:95,1,70,8|8,0:0|0:0,0:0:0:0:
337,171,183415,2,0,P|296:174|251:162,1,70,8|8,0:0|0:0,0:0:0:0:
169,103,183731,6,0,L|178:148,7,35,8|8|8|8|8|8|8|8,0:0|0:0|0:0|0:0|0:0|0:0|0:0|0:0,0:0:0:0:
149,167,184363,6,0,L|143:315,1,140,4|8,0:0|0:0,0:0:0:0:
220,354,184836,2,0,P|151:344|85:374,1,140,2|0,0:0|0:0,0:0:0:0:
11,323,185310,1,8,0:0:0:0:
228,267,185626,2,0,P|315:260|374:210,1,140,2|8,0:0|0:0,0:0:0:0:
398,150,186099,2,0,P|399:233|456:283,1,140,2|0,0:0|0:0,0:0:0:0:
484,191,186573,1,8,0:0:0:0:
364,53,186889,6,0,L|218:59,1,140,2|8,0:0|0:0,0:0:0:0:
163,127,187363,2,0,L|89:117,1,70,2|0,0:0|0:0,0:0:0:0:
7,88,187678,1,0,0:0:0:0:
7,88,187836,2,0,P|36:118|34:207,1,105,8|0,0:0|0:0,0:0:0:0:
45,178,188152,2,0,L|36:343,1,140,2|8,0:0|0:0,0:0:0:0:
115,365,188626,2,0,P|194:363|248:310,1,140,2|0,0:0|0:0,0:0:0:0:
262,237,189099,1,8,0:0:0:0:
80,248,189415,6,0,L|66:83,1,140,2|8,0:0|0:0,0:0:0:0:
39,21,189889,2,0,P|77:69|156:77,1,140,2|0,0:0|0:0,0:0:0:0:
241,44,190363,2,0,L|257:158,1,105,8|0,0:0|0:0,0:0:0:0:
255,147,190678,2,0,P|323:113|411:128,2,140,2|8|2,0:0|0:0|0:0,0:0:0:0:
198,218,191468,1,0,0:0:0:0:
256,287,191626,2,0,L|263:364,1,70,8|0,0:0|0:0,0:0:0:0:
348,326,191941,6,0,L|498:315,1,140,4|2,0:0|0:0,0:0:0:0:
477,224,192415,1,2,0:0:0:0:
477,224,192494,1,0,0:0:0:0:
477,224,192573,2,0,B|407:221|407:221|321:235,1,140,12|8,0:0|0:0,0:0:0:0:
329,140,193047,1,8,0:0:0:0:
329,140,193126,1,0,0:0:0:0:
329,140,193205,2,0,B|375:132|375:132|400:136|400:136|421:131|421:131|474:135,1,140,4|8,0:0|0:0,0:0:0:0:
503,50,193678,2,0,P|482:15|392:51,1,140,2|4,0:0|3:0,0:0:0:0:
329,140,194152,1,4,3:0:0:0:
329,140,194468,6,0,L|186:132,1,140,4|8,0:0|0:0,0:0:0:0:
112,180,194941,2,0,P|98:216|106:278,1,70,0|2,0:0|0:0,0:0:0:0:
227,230,195257,2,0,L|176:229,2,35,2|0|8,3:2|0:0|0:0,0:0:0:0:
74,331,195731,2,0,P|25:297|24:205,1,140,4|8,0:0|0:0,0:0:0:0:
46,135,196205,2,0,P|117:143|179:89,1,140,2|0,0:0|0:0,0:0:0:0:
94,55,196678,1,8,0:0:0:0:
205,199,196994,6,0,L|367:191,1,140,4|8,0:0|0:0,0:0:0:0:
400,119,197468,2,0,P|391:93|386:45,1,70,2|0,0:0|0:0,0:0:0:0:
494,128,197784,2,0,P|493:174|480:224,1,70,2|8,3:2|0:0,0:0:0:0:
468,286,198099,1,2,0:0:0:0:
468,286,198257,2,0,L|488:355,1,70,0|2,0:0|0:0,0:0:0:0:
396,366,198573,2,0,L|373:292,1,70,8|2,0:0|3:2,0:0:0:0:
285,283,198889,1,8,0:0:0:0:
285,283,199047,1,8,0:0:0:0:
212,337,199205,1,8,0:0:0:0:
212,337,199363,1,8,0:0:0:0:
126,308,199520,6,0,P|112:262|154:164,1,140,4|4,1:0|1:0,0:0:0:0:
229,154,199994,1,0,3:0:0:0:
229,154,200073,1,0,0:0:0:0:
229,154,200152,2,0,L|321:146,1,70,4|0,1:0|0:0,0:0:0:0:
434,83,200468,1,2,0:0:0:0:
434,83,200784,2,0,L|345:72,1,70,4|0,1:0|3:0,0:0:0:0:
288,23,201099,2,0,L|207:34,1,70,4|0,1:0|3:0,0:0:0:0:
127,21,201415,2,0,L|56:68,1,70,4|0,1:0|3:0,0:0:0:0:
161,181,201731,2,0,P|165:140|158:105,1,70,8|8,0:0|0:0,0:0:0:0:
80,245,202047,5,4,0:0:0:0:
80,245,202205,2,0,P|79:286|99:334,1,70,2|8,0:0|0:0,0:0:0:0:
244,266,202520,2,0,L|168:266,1,70,2|8,0:0|0:0,0:0:0:0:
173,362,202836,2,0,L|263:359,1,70,2|8,0:0|0:0,0:0:0:0:
329,323,203152,5,8,0:0:0:0:
329,323,203231,1,8,0:0:0:0:
329,323,203310,2,0,L|339:280,3,35,8|8|8|8,0:0|0:0|0:0|0:0,0:0:0:0:
368,255,203626,2,0,L|370:213,3,35,8|8|8|8,0:0|0:0|0:0|0:0,0:0:0:0:
396,183,203941,2,0,L|379:127,3,35,8|8|8|8,0:0|0:0|0:0|0:0,0:0:0:0:
386,103,204257,2,0,L|353:64,3,35,8|8|8|0,0:0|0:0|0:0|0:0,0:0:0:0:
363,76,205205,6,0,P|435:66|494:107,1,140,4|8,1:0|0:0,0:0:0:0:
463,259,205678,1,0,0:0:0:0:
463,259,205757,1,0,0:0:0:0:
463,259,205836,2,0,P|466:217|472:175,1,70,2|0,0:0|3:0,0:0:0:0:
361,252,206152,1,8,0:0:0:0:
361,252,206310,2,0,P|287:254|203:263,1,140,0|0,0:0|0:0,0:0:0:0:
133,286,206783,2,0,P|114:248|108:200,1,70,8|0,1:2|3:0,0:0:0:0:
196,101,207099,2,0,P|193:136|185:170,1,70,8|0,1:0|3:0,0:0:0:0:
101,133,207415,1,8,0:0:0:0:
101,133,207573,1,0,0:0:0:0:
27,186,207731,6,0,B|12:227|12:227|36:334,1,140,4|8,1:0|0:0,0:0:0:0:
140,367,208205,2,0,L|105:212,1,140,0|0,0:0|3:0,0:0:0:0:
180,174,208678,1,8,0:0:0:0:
258,220,208836,2,0,P|357:219|394:186,1,140,0|0,3:0|0:0,0:0:0:0:
361,39,209310,2,0,L|356:109,1,70,8|0,1:2|3:0,0:0:0:0:
477,184,209626,2,0,P|467:151|446:124,1,70,8|0,1:2|3:0,0:0:0:0:
390,200,209941,2,0,L|397:317,1,105,8|0,0:0|0:0,0:0:0:0:
396,304,210257,6,0,P|338:277|251:307,1,140,4|8,3:0|0:0,0:0:0:0:
192,348,210731,2,0,L|195:390,2,35,2|2|2,0:0|0:0|0:0,0:0:0:0:
445,381,211205,2,0,P|473:342|480:303,1,70,8|0,0:0|0:0,0:0:0:0:
448,235,211520,2,0,P|449:174|472:89,2,140,0|8|8,3:0|1:2|1:2,0:0:0:0:
390,306,212310,1,0,0:0:0:0:
304,273,212468,2,0,L|217:268,1,70,8|0,1:2|0:0,0:0:0:0:
42,214,212783,6,0,B|100:185|100:185|197:200,1,140,4|8,1:0|0:0,0:0:0:0:
234,268,213257,1,0,0:0:0:0:
248,140,213415,2,0,P|216:200|233:267,1,140,4|8,1:0|0:0,0:0:0:0:
306,212,213889,1,0,0:0:0:0:
444,194,214047,6,0,L|305:211,1,140,4|8,1:0|0:0,0:0:0:0:
233,267,214520,1,0,3:0:0:0:
311,312,214678,2,0,L|401:300,2,70,4|0|4,3:0|3:0|3:0,0:0:0:0:
233,267,215152,5,0,0:0:0:0:
183,343,215310,2,0,P|104:342|54:284,1,140,4|8,1:0|0:0,0:0:0:0:
147,266,215783,1,0,0:0:0:0:
147,266,215941,2,0,L|135:122,1,140,2|8,0:0|0:0,0:0:0:0:
160,38,216415,1,0,0:0:0:0:
236,86,216573,2,0,P|320:88|378:39,1,140,4|8,1:0|0:0,0:0:0:0:
444,14,217047,1,4,3:0:0:0:
444,14,217205,2,0,P|398:66|408:148,1,140,2|8,0:0|0:0,0:0:0:0:
456,204,217678,1,0,0:0:0:0:
381,256,217836,6,0,P|317:263|213:287,2,140,4|8|2,3:0|0:0|0:0,0:0:0:0:
461,208,218626,1,0,3:0:0:0:
461,208,218783,2,0,P|466:168|476:123,1,70,8|0,0:0|0:0,0:0:0:0:
364,28,219099,6,0,P|373:103|374:177,2,140,4|8|0,3:0|0:0|0:0,0:0:0:0:
282,69,219889,1,8,0:0:0:0:
282,69,220047,2,0,P|243:67|206:57,1,70,8|8,0:0|0:0,0:0:0:0:
140,4,220362,5,4,1:2:0:0:
31,150,220678,2,0,L|46:221,1,70,4|0,1:2|3:0,0:0:0:0:
38,309,220994,2,0,L|101:348,1,70,4|0,1:2|3:0,0:0:0:0:
178,302,221310,1,4,1:2:0:0:
178,302,221468,1,0,3:0:0:0:
267,285,221626,6,0,L|278:202,1,70,4|0,1:2|3:0,0:0:0:0:
217,146,221941,2,0,L|282:98,1,70,4|0,1:2|3:0,0:0:0:0:
276,12,222257,2,0,L|366:-4,1,70,4|0,1:2|3:0,0:0:0:0:
510,53,222573,2,0,L|412:42,1,70,4|0,1:2|3:0,0:0:0:0:
359,166,222889,5,4,1:2:0:0:
359,165,223047,2,0,P|353:123|356:94,1,70,4|0,3:2|0:0,0:0:0:0:
452,188,223362,2,0,P|455:224|447:270,1,70,2|8,3:2|0:0,0:0:0:0:
382,318,223678,2,0,L|292:306,1,70,2|8,3:2|0:0,0:0:0:0:
114,376,223994,6,0,P|186:371|226:304,1,140,4|2,0:0|0:0,0:0:0:0:
154,184,224468,2,0,P|156:224|169:265,1,70,10|2,0:0|0:0,0:0:0:0:
312,308,224783,2,0,P|327:270|333:233,1,70,10|2,0:0|0:0,0:0:0:0:
266,116,225099,2,0,L|258:159,3,35,10|2|2|2,0:0|0:0|0:0|0:0,0:0:0:0:
249,195,225415,5,6,0:0:0:0:
254,184,226678,2,0,P|303:166|367:171,1,105.000004005432,2|2,0:0|0:0,0:0:0:0:
507,266,227310,2,0,P|459:269|390:239,1,105.000004005432,2|2,0:0|0:0,0:0:0:0:
402,82,227941,5,2,0:0:0:0:
402,82,229205,2,0,P|415:132|405:200,1,105.000004005432,2|2,0:0|0:0,0:0:0:0:
255,250,229836,2,0,P|242:200|252:132,1,105.000004005432,2|2,0:0|0:0,0:0:0:0:
467,281,230468,6,0,P|412:276|341:277,1,105.000004005432,2|2,0:0|0:0,0:0:0:0:
294,326,230941,2,0,P|243:335|171:342,1,105.000004005432,2|0,0:0|0:0,0:0:0:0:
110,313,231415,2,0,L|96:253,1,52.5000020027161,2|0,0:0|0:0,0:0:0:0:
26,216,231731,6,0,B|147:248|111:182|236:217,2,210.000008010865,2|2|2,0:0|0:0|0:0,0:0:0:0:
300,286,233626,2,0,P|326:226|316:169,1,105.000004005432,2|0,0:0|0:0,0:0:0:0:
256,33,234257,5,2,0:0:0:0:
195,103,234889,1,2,0:0:0:0:
286,122,235520,2,0,B|360:142|416:88|416:88|450:159|392:153|434:226,1,280,2|2,0:0|0:0,0:0:0:0:
512,314,237099,1,2,0:0:0:0:
512,314,237415,2,0,L|432:308,1,70,2|2,0:0|0:0,0:0:0:0:
239,273,238047,6,0,B|235:254|220:244|220:244|267:265|317:237|317:237|384:281|332:361,2,280,2|2|2,0:0|0:0|0:0,0:0:0:0:
256,192,240652,12,2,243099,0:0:0:0:
