osu file format v14

[General]
AudioFilename: owoozo.mp3
AudioLeadIn: 0
PreviewTime: 163126
Countdown: 0
SampleSet: Soft
StackLeniency: 0.4
Mode: 0
LetterboxInBreaks: 0
WidescreenStoryboard: 1

[Editor]
DistanceSpacing: 1.8
BeatDivisor: 4
GridSize: 16
TimelineZoom: 2

[Metadata]
Title:Re:TrymenT
TitleUnicode:Re:TrymenT
Artist:Hotaru Murasaki
ArtistUnicode:紫咲ほたる
Creator:Komore
Version:Dailycare's Extra
Source:Re:LieF〜親愛なるあなたへ〜
Tags:retryment rask relief Shin'ainaru Anata e opening full eroge visual novel amari saya piano dailycare garden irohas joker- mugiwarasekai
BeatmapID:1399911
BeatmapSetID:625986

[Difficulty]
HPDrainRate:6.1
CircleSize:4
OverallDifficulty:8.6
ApproachRate:9.3
SliderMultiplier:1.5
SliderTickRate:1

[Events]
//Background and Video events
0,0,"aaa.jpg",0,0
//Break Periods
2,77826,85756
2,143510,152861
//Storyboard Layer 0 (Background)
//Storyboard Layer 1 (Fail)
//Storyboard Layer 2 (Pass)
//Storyboard Layer 3 (Foreground)
//Storyboard Sound Samples

[TimingPoints]
1837,315.789473684211,4,2,1,50,1,184362
9415,-100,4,2,1,55,0,184362
10600,-100,4,2,1,35,0,184362
10679,-100,4,2,1,60,0,184362
11942,-100,4,2,1,67,0,184362
20784,-100,4,2,1,50,0,184362
22047,-133.333333333333,4,2,1,50,0,184362
42258,-111.111111111111,4,2,1,60,0,184362
44705,-111.111111111111,4,2,1,35,0,184362
44784,-111.111111111111,4,2,1,60,0,184362
46679,-111.111111111111,4,2,1,65,0,184362
47626,-111.111111111111,4,2,1,61,0,184362
52284,-111.111111111111,4,2,1,35,0,184362
52363,-100,4,2,1,65,0,184362
55126,-100,4,2,1,35,0,184362
55205,-100,4,2,1,65,0,184362
55994,-200,4,2,1,50,0,184362
56705,-200,4,2,1,35,0,184362
56784,-80,4,2,2,50,0,184362
56863,-80,4,2,1,50,0,184362
57415,-90.9090909090909,4,2,1,70,0,184362
57652,-90.9090909090909,4,2,1,35,0,184362
57731,-90.9090909090909,4,2,1,70,0,184362
60179,-90.9090909090909,4,2,1,35,0,184362
60258,-90.9090909090909,4,2,1,70,0,184362
63968,-90.9090909090909,4,2,1,35,0,184362
64047,-90.9090909090909,4,2,1,70,0,184362
64284,-90.9090909090909,4,2,1,35,0,184362
64363,-90.9090909090909,4,2,1,70,0,184362
64600,-90.9090909090909,4,2,1,35,0,184362
64679,-90.9090909090909,4,2,1,70,0,184362
64915,-90.9090909090909,4,2,1,35,0,184362
64994,-90.9090909090909,4,2,1,70,0,184362
65231,-90.9090909090909,4,2,1,35,0,184362
65310,-90.9090909090909,4,2,1,70,0,184362
65863,-90.9090909090909,4,2,1,35,0,184362
65942,-90.9090909090909,4,2,1,70,0,184362
69652,-90.9090909090909,4,2,1,35,0,184362
69731,-90.9090909090909,4,2,1,70,0,184362
70284,-90.9090909090909,4,2,1,35,0,184362
70363,-90.9090909090909,4,2,1,70,0,184362
72573,-90.9090909090909,4,2,1,75,0,184362
86310,-90.9090909090909,4,2,1,50,0,184362
87731,-133.333333333333,4,2,1,50,0,184362
107942,-111.111111111111,4,2,1,60,0,184362
110389,-111.111111111111,4,2,1,35,0,184362
110468,-111.111111111111,4,2,1,60,0,184362
112363,-111.111111111111,4,2,1,65,0,184362
113310,-111.111111111111,4,2,1,61,0,184362
117968,-111.111111111111,4,2,1,35,0,184362
118047,-100,4,2,1,65,0,184362
120810,-100,4,2,1,35,0,184362
120889,-100,4,2,1,65,0,184362
121679,-200,4,2,1,50,0,184362
122389,-200,4,2,1,35,0,184362
122468,-80,4,2,2,65,0,184362
122547,-80,4,2,1,65,0,184362
122705,-80,4,2,1,35,0,184362
122784,-80,4,2,1,68,0,184362
123100,-90.9090909090909,4,2,1,75,0,184362
123337,-90.9090909090909,4,2,1,35,0,184362
123415,-90.9090909090909,4,2,1,75,0,184362
125863,-90.9090909090909,4,2,1,35,0,184362
125942,-90.9090909090909,4,2,1,75,0,184362
128073,-90.9090909090909,4,2,1,35,0,184362
128152,-90.9090909090909,4,2,1,75,0,184362
129652,-90.9090909090909,4,2,1,35,0,184362
129731,-90.9090909090909,4,2,1,75,0,184362
129968,-90.9090909090909,4,2,1,35,0,184362
130047,-90.9090909090909,4,2,1,75,0,184362
130284,-90.9090909090909,4,2,1,35,0,184362
130363,-90.9090909090909,4,2,1,60,0,184362
130679,-90.9090909090909,4,2,1,75,0,184362
130915,-90.9090909090909,4,2,1,35,0,184362
130994,-90.9090909090909,4,2,1,75,0,184362
131547,-90.9090909090909,4,2,1,35,0,184362
131626,-90.9090909090909,4,2,1,75,0,184362
135652,-90.9090909090909,4,2,1,35,0,184362
135731,-90.9090909090909,4,2,1,75,0,184362
135968,-90.9090909090909,4,2,1,35,0,184362
136047,-90.9090909090909,4,2,1,75,0,184362
138258,-90.9090909090909,4,2,1,78,0,184362
153415,-133.333333333333,4,2,1,50,0,184362
172994,-80,4,2,1,50,0,184362
173152,-133.333333333333,4,2,1,50,0,184362
173626,-111.111111111111,4,2,1,60,0,184362
177652,-111.111111111111,4,2,1,35,0,184362
177731,-111.111111111111,4,2,1,62,0,184362
177968,-111.111111111111,4,2,1,35,0,184362
178047,-111.111111111111,4,2,1,64,0,184362
178284,-111.111111111111,4,2,1,35,0,184362
178363,-111.111111111111,4,2,1,66,0,184362
178600,-111.111111111111,4,2,1,35,0,184362
178679,-90.9090909090909,4,2,1,68,0,184362
182547,-90.9090909090909,4,2,1,35,0,184362
182626,-90.9090909090909,4,2,1,70,0,184362
183731,-90.9090909090909,4,2,1,50,0,184362
184363,315.789473684211,4,2,1,65,1,0
184363,-90.9090909090909,4,2,1,65,0,0
186810,-100,4,2,1,35,0,0
186889,-90.9090909090909,4,2,1,65,0,0
190915,-90.9090909090909,4,2,1,35,0,0
190994,-90.9090909090909,4,2,1,65,0,0
191863,-90.9090909090909,4,2,1,35,0,0
191941,-90.9090909090909,4,2,1,60,0,0
192178,-90.9090909090909,4,2,1,35,0,0
192257,-90.9090909090909,4,2,1,60,0,0
192810,-90.9090909090909,4,2,1,35,0,0
192889,-90.9090909090909,4,2,1,60,0,0
193441,-90.9090909090909,4,2,1,35,0,0
193520,-90.9090909090909,4,2,1,60,0,0
194389,-90.9090909090909,4,2,1,35,0,0
194468,-90.9090909090909,4,2,1,65,0,0
195652,-90.9090909090909,4,2,1,35,0,0
195731,-90.9090909090909,4,2,1,65,0,0
196915,-90.9090909090909,4,2,1,35,0,0
196994,-90.9090909090909,4,2,1,65,0,0
198889,-90.9090909090909,4,2,1,68,0,0
199520,-71.4285714285714,4,2,1,72,0,0
200468,-71.4285714285714,4,2,1,74,0,0
200705,-71.4285714285714,4,2,1,35,0,0
200784,-71.4285714285714,4,2,1,78,0,0
202047,-71.4285714285714,4,2,1,80,0,0
203468,-90.9090909090909,4,2,1,80,0,0
204889,-90.9090909090909,4,2,1,63,0,0
205205,315.789473684211,4,2,1,78,1,0
205205,-71.4285714285714,4,2,1,78,0,0
205441,-100,4,2,1,35,0,0
205520,-81.9672131147541,4,2,1,78,0,0
207731,-71.4285714285714,4,2,1,78,0,0
207968,-71.4285714285714,4,2,1,35,0,0
208047,-81.9672131147541,4,2,1,78,0,0
211757,-81.9672131147541,4,2,1,35,0,0
211836,-81.9672131147541,4,2,1,78,0,0
212073,-81.9672131147541,4,2,1,35,0,0
212152,-81.9672131147541,4,2,1,78,0,0
212389,-81.9672131147541,4,2,1,35,0,0
212468,-81.9672131147541,4,2,1,65,0,0
212783,-81.9672131147541,4,2,1,78,0,0
213020,-81.9672131147541,4,2,1,35,0,0
213099,-81.9672131147541,4,2,1,78,0,0
213652,-81.9672131147541,4,2,1,35,0,0
213731,-81.9672131147541,4,2,1,78,0,0
217441,-81.9672131147541,4,2,1,35,0,0
217520,-81.9672131147541,4,2,1,78,0,0
220362,-81.9672131147541,4,2,1,83,0,0
225415,-133.333333333333,4,2,1,50,0,0
230389,-133.333333333333,4,2,1,35,0,0
230468,-133.333333333333,4,2,1,50,0,0
232994,-133.333333333333,4,2,2,50,0,0
233231,-133.333333333333,4,2,1,50,0,0
238047,-200,4,2,1,50,0,0
239862,-200,4,2,1,35,0,0
239941,-200,4,2,1,50,0,0
243099,-200,4,2,1,30,0,0

[Colours]
Combo1 : 229,229,229
Combo2 : 221,221,238
Combo3 : 193,193,255
Combo4 : 191,239,255

[HitObjects]
500,68,1837,5,2,0:0:0:0:
302,132,2310,1,2,0:0:0:0:
453,273,2784,1,2,0:0:0:0:
452,126,3100,5,2,0:0:0:0:
378,153,3573,1,2,0:0:0:0:
435,201,4047,1,2,0:0:0:0:
95,17,4363,5,2,0:0:0:0:
95,17,5310,1,0,0:0:0:0:
139,93,5626,5,2,0:0:0:0:
272,107,6100,1,2,0:0:0:0:
354,10,6573,1,2,0:0:0:0:
62,132,6889,5,2,0:0:0:0:
260,196,7362,1,2,0:0:0:0:
109,337,7836,1,2,0:0:0:0:
110,190,8152,5,2,0:0:0:0:
184,217,8468,1,2,0:0:0:0:
127,265,8784,1,2,0:0:0:0:
168,139,9100,1,2,0:0:0:0:
276,220,9415,5,2,0:0:0:0:
392,251,9889,1,2,0:0:0:0:
473,159,10363,1,2,0:0:0:0:
399,126,10679,5,2,0:0:0:0:
330,308,11152,1,2,0:0:0:0:
133,363,11626,1,2,0:0:0:0:
0,222,11784,2,0,L|-15:170,1,37.5,2|0,0:0|0:0,0:0:0:0:
64,53,11942,6,0,P|51:117|41:147,1,75,4|0,0:0|0:0,0:0:0:0:
261,202,12258,2,0,P|274:138|284:108,1,75,2|0,3:2|0:0,0:0:0:0:
101,210,12573,2,0,P|56:245|58:344,1,150,2|2,3:2|3:2,0:0:0:0:
217,363,13047,1,0,0:0:0:0:
181,181,13205,6,0,P|172:124|153:21,1,150,2|0,3:2|0:0,0:0:0:0:
350,107,13679,2,0,L|434:121,1,75,4|2,3:0|3:2,0:0:0:0:
301,262,13994,1,0,3:0:0:0:
463,207,14152,2,0,L|379:221,1,75,4|0,3:0|0:0,0:0:0:0:
285,364,14468,6,0,P|326:308|419:322,1,150,4|2,0:0|3:2,0:0:0:0:
235,173,14942,2,0,P|227:210|221:271,1,75,2|2,0:0|3:2,0:0:0:0:
414,134,15258,2,0,P|409:96|401:60,1,75,2|2,0:0|3:2,0:0:0:0:
262,17,15573,1,2,0:0:0:0:
317,200,15731,1,2,3:2:0:0:
477,11,15889,5,0,0:0:0:0:
477,11,15968,1,0,0:0:0:0:
477,11,16047,1,4,3:0:0:0:
328,80,16205,1,2,0:0:0:0:
388,268,16363,1,4,3:0:0:0:
459,135,16521,1,2,0:0:0:0:
226,254,16679,5,4,3:0:0:0:
379,146,16837,1,2,0:0:0:0:
262,17,16994,6,0,P|225:56|253:170,1,150,2|2,0:0|3:2,0:0:0:0:
94,302,17468,2,0,P|131:263|103:149,1,150,4|2,3:0|0:0,0:0:0:0:
37,118,17942,1,2,3:2:0:0:
226,254,18100,5,2,0:0:0:0:
226,254,18179,1,2,0:0:0:0:
226,254,18258,2,0,P|283:241|406:216,1,150,2|2,0:0|3:2,0:0:0:0:
183,86,18731,2,0,P|126:99|3:124,1,150,4|4,3:0|3:0,0:0:0:0:
184,333,19205,1,2,3:2:0:0:
248,152,19363,1,2,0:0:0:0:
71,198,19521,6,0,L|155:212,1,75,4|2,3:2|0:0,0:0:0:0:
441,198,19837,2,0,L|357:212,1,75,2|2,0:0|0:0,0:0:0:0:
115,364,20152,2,0,L|192:328,1,75,4|2,3:1|0:0,0:0:0:0:
397,364,20468,2,0,L|319:328,1,75,2|2,0:0|0:0,0:0:0:0:
256,112,20784,5,6,3:2:0:0:
256,192,20863,12,4,22047,3:0:0:0:
195,166,22363,5,0,0:0:0:0:
121,129,22679,2,0,P|80:102|-23:161,1,168.750006437302,0|0,0:0|0:0,0:0:0:0:
37,290,23310,6,0,P|57:258|56:177,2,112.500004291535,0|0|2,0:0|0:0|0:0,0:0:0:0:
139,235,24258,1,2,0:0:0:0:
115,333,24573,5,2,0:0:0:0:
210,299,24889,2,0,L|233:361,1,56.2500021457673,0|2,0:0|0:0,0:0:0:0:
230,352,25205,2,0,P|267:382|345:372,1,112.500004291535,0|2,0:0|0:0,0:0:0:0:
429,346,25679,1,0,0:0:0:0:
457,263,25837,6,0,P|401:259|357:291,2,112.500004291535,0|0|2,0:0|0:0|0:0,0:0:0:0:
429,346,26626,1,0,0:0:0:0:
429,346,26784,1,2,0:0:0:0:
313,135,27100,5,4,3:0:0:0:
236,163,27415,1,0,0:0:0:0:
200,90,27731,2,0,P|158:84|80:62,1,112.500004291535,0|2,0:0|0:0,0:0:0:0:
278,62,28205,2,0,P|331:46|387:38,1,112.500004291535,0|0,0:0|0:0,0:0:0:0:
219,10,28679,1,2,0:0:0:0:
301,218,28994,1,2,0:0:0:0:
369,122,29310,1,0,0:0:0:0:
187,171,29626,6,0,P|153:206|164:279,1,112.500004291535,2|0,0:0|0:0,0:0:0:0:
121,345,30100,2,0,B|218:332|172:399|292:361,1,168.750006437302,2|0,0:0|0:0,0:0:0:0:
282,364,30889,1,0,0:0:0:0:
301,219,31047,5,2,0:0:0:0:
386,372,31205,1,0,0:0:0:0:
242,283,31363,1,0,0:0:0:0:
440,174,31521,5,0,1:0:0:0:
332,301,31679,1,0,1:0:0:0:
276,122,31837,1,0,0:0:0:0:
496,110,31994,1,0,3:0:0:0:
385,234,32152,5,4,3:0:0:0:
358,157,32468,1,0,0:0:0:0:
412,98,32784,1,0,0:0:0:0:
412,98,32942,2,0,P|437:60|423:-10,1,112.500004291535,0|0,0:0|0:0,0:0:0:0:
298,0,33415,5,0,0:0:0:0:
261,70,33731,1,0,0:0:0:0:
270,148,34047,1,0,1:0:0:0:
339,189,34363,1,2,0:0:0:0:
412,98,34679,5,2,0:0:0:0:
328,89,34994,1,0,0:0:0:0:
270,148,35310,1,0,1:0:0:0:
270,148,35468,2,0,P|233:142|150:134,1,112.500004291535,0|0,0:0|0:0,0:0:0:0:
16,213,35942,5,0,3:0:0:0:
91,185,36258,1,0,0:0:0:0:
167,213,36573,1,0,1:0:0:0:
212,280,36889,1,0,0:0:0:0:
390,371,37205,5,4,3:0:0:0:
336,181,37521,1,0,0:0:0:0:
284,313,37837,2,0,P|348:300|405:292,1,112.500004291535,0|0,1:0|0:0,0:0:0:0:
468,325,38310,2,0,P|508:287|489:166,1,168.750006437302,0|2,0:0|0:0,0:0:0:0:
429,142,39100,1,0,1:0:0:0:
371,201,39415,1,2,0:0:0:0:
257,143,39731,6,0,L|241:18,1,112.500004291535,2|0,0:0|0:0,0:0:0:0:
242,31,40205,1,2,0:0:0:0:
320,0,40363,2,0,B|374:12|374:12|329:46,1,112.500004291535,0|2,1:0|0:0,0:0:0:0:
169,87,40837,2,0,B|115:75|115:75|160:41,1,112.500004291535,0|2,1:0|0:0,0:0:0:0:
296,122,41310,5,2,0:0:0:0:
214,279,41468,1,2,0:0:0:0:
370,165,41626,5,2,2:3:0:0:
349,279,41784,1,2,2:3:0:0:
445,161,41942,5,2,2:3:0:0:
478,239,42100,1,2,2:3:0:0:
240,178,42258,6,0,P|175:188|75:198,1,134.999995880127,4|2,0:0|3:2,0:0:0:0:
1,338,42731,2,0,P|47:285|129:299,1,134.999995880127,2|0,0:0|0:0,0:0:0:0:
154,111,43205,1,2,3:2:0:0:
46,34,43363,6,0,L|62:105,1,67.4999979400635,4|0,3:0|3:0,0:0:0:0:
189,262,43679,1,4,3:0:0:0:
251,81,43837,1,0,3:0:0:0:
251,81,44152,5,2,3:2:0:0:
154,111,44310,1,0,0:0:0:0:
229,178,44468,2,0,L|300:189,1,67.4999979400635,2|0,3:2|0:0,0:0:0:0:
471,193,44784,6,0,P|454:160|353:150,1,134.999995880127,4|2,3:2|3:2,0:0:0:0:
308,313,45258,2,0,P|366:292|450:269,1,134.999995880127,2|0,0:0|0:0,0:0:0:0:
336,65,45731,1,2,3:2:0:0:
495,107,45889,6,0,P|465:98|426:89,1,67.4999979400635,4|0,3:0|3:0,0:0:0:0:
273,235,46205,1,4,3:0:0:0:
471,193,46363,1,0,3:0:0:0:
471,193,46442,1,0,0:0:0:0:
471,193,46521,1,0,0:0:0:0:
298,100,46679,5,8,0:0:0:0:
419,288,46837,1,8,0:0:0:0:
504,32,46994,1,0,3:0:0:0:
375,161,47152,1,0,3:0:0:0:
87,65,47310,5,4,0:0:0:0:
19,25,47784,1,2,3:2:0:0:
87,65,47942,2,0,P|72:103|42:205,1,134.999995880127,8|2,0:0|3:2,0:0:0:0:
179,250,48415,2,0,P|193:211|224:110,1,134.999995880127,2|8,3:2|0:0,0:0:0:0:
221,121,48889,2,0,L|154:127,1,67.4999979400635,0|0,3:0|3:0,0:0:0:0:
98,245,49205,1,8,0:0:0:0:
132,318,49363,1,8,0:0:0:0:
261,242,49521,2,0,L|328:236,1,67.4999979400635,4|4,3:0|3:0,0:0:0:0:
425,319,49837,5,4,0:0:0:0:
493,359,50311,1,2,3:2:0:0:
425,319,50469,2,0,P|439:280|470:179,1,134.999995880127,8|0,0:0|0:0,0:0:0:0:
333,134,50942,2,0,P|318:172|288:274,1,134.999995880127,2|0,3:2|0:0,0:0:0:0:
291,263,51416,2,0,L|358:257,1,67.4999979400635,8|4,0:0|2:3,0:0:0:0:
414,139,51732,1,8,0:0:0:0:
287,50,51890,1,8,0:0:0:0:
199,179,52048,2,0,L|132:185,1,67.4999979400635,2|0,3:2|0:0,0:0:0:0:
131,185,52363,6,0,P|217:172|266:236,1,150,4|2,0:0|3:2,0:0:0:0:
85,323,52837,1,0,0:0:0:0:
85,323,52915,1,0,0:0:0:0:
85,323,52994,2,0,P|71:280|74:234,1,75,2|0,3:2|0:0,0:0:0:0:
89,35,53310,2,0,P|103:78|100:124,1,75,2|0,3:2|0:0,0:0:0:0:
54,171,53547,1,0,0:0:0:0:
54,171,53626,6,0,L|-12:158,2,37.5,2|0|0,3:2|0:0|0:0,0:0:0:0:
189,287,53942,1,2,3:2:0:0:
252,116,54100,1,0,0:0:0:0:
131,185,54258,5,2,3:2:0:0:
313,327,54415,1,0,0:0:0:0:
110,384,54573,1,2,3:2:0:0:
276,242,54731,1,0,0:0:0:0:
467,334,54889,1,4,1:0:0:0:
471,341,55205,5,4,1:0:0:0:
512,197,55363,1,2,3:2:0:0:
256,0,55521,5,4,1:0:0:0:
292,206,55679,1,2,3:2:0:0:
449,66,55837,1,4,1:0:0:0:
189,79,55994,6,0,P|127:68|52:116,1,150,8|0,0:0|0:0,0:0:0:0:
55,111,56784,6,0,P|69:59|71:-12,1,93.75,2|0,0:0|0:0,0:0:0:0:
0,213,57100,5,0,0:0:0:0:
42,300,57258,1,0,0:0:0:0:
106,183,57415,6,0,P|181:171|259:230,1,165.000005035401,4|8,1:0|0:0,0:0:0:0:
453,147,57889,1,0,0:0:0:0:
461,127,57968,1,0,0:0:0:0:
462,106,58047,2,0,L|450:13,1,82.5000025177003,2|0,0:0|3:0,0:0:0:0:
323,293,58363,1,8,0:0:0:0:
361,109,58521,6,0,P|354:146|346:205,1,82.5000025177003,0|2,0:0|3:2,0:0:0:0:
377,382,58837,1,0,0:0:0:0:
501,277,58994,6,0,P|467:260|399:260,1,82.5000025177003,8|0,1:2|3:0,0:0:0:0:
181,164,59310,2,0,P|215:147|283:147,1,82.5000025177003,8|0,1:0|3:0,0:0:0:0:
397,47,59626,1,8,0:0:0:0:
341,201,59784,1,0,0:0:0:0:
231,47,59942,6,0,P|189:16|72:26,1,165.000005035401,4|8,1:0|0:0,0:0:0:0:
49,229,60415,1,0,0:0:0:0:
129,179,60573,2,0,P|142:123|142:79,1,82.5000025177003,2|0,0:0|3:0,0:0:0:0:
0,44,60889,1,8,0:0:0:0:
49,229,61047,6,0,P|36:285|36:329,1,82.5000025177003,0|2,0:0|3:2,0:0:0:0:
121,384,61363,1,0,0:0:0:0:
221,256,61521,6,0,B|133:273,1,82.5000025177003,8|0,1:2|3:0,0:0:0:0:
358,363,61837,2,0,B|446:346,1,82.5000025177003,8|0,1:2|3:0,0:0:0:0:
276,330,62152,2,0,L|264:379,2,41.2500012588501,8|0|0,0:0|0:0|0:0,0:0:0:0:
332,123,62468,6,0,P|375:201|330:294,1,165.000005035401,4|8,3:0|0:0,0:0:0:0:
217,169,62942,1,2,0:0:0:0:
227,160,63021,1,2,0:0:0:0:
237,152,63100,2,0,P|246:105|249:46,1,82.5000025177003,2|0,0:0|3:0,0:0:0:0:
398,39,63415,1,8,0:0:0:0:
438,191,63573,1,0,0:0:0:0:
512,156,63731,6,0,P|469:117|394:120,1,123.75000377655,0|0,3:0|0:0,0:0:0:0:
359,178,64047,2,0,P|364:226|402:260,1,82.5000025177003,8|0,1:2|3:0,0:0:0:0:
474,322,64363,2,0,P|498:289|500:248,1,82.5000025177003,8|0,1:2|3:0,0:0:0:0:
331,106,64679,2,0,L|218:123,1,82.5000025177003,8|0,1:2|0:0,0:0:0:0:
125,326,64994,6,0,P|181:332|249:269,1,123.75000377655,4|0,1:0|0:0,0:0:0:0:
296,351,65310,2,0,P|338:357|386:364,1,82.5000025177003,8|0,0:0|0:0,0:0:0:0:
254,112,65626,6,0,P|198:118|130:55,1,123.75000377655,4|0,1:0|0:0,0:0:0:0:
83,137,65942,2,0,P|41:143|-7:150,1,82.5000025177003,8|0,0:0|0:0,0:0:0:0:
328,230,66258,6,0,L|409:217,1,82.5000025177003,4|0,1:0|3:0,0:0:0:0:
409,216,66574,1,8,0:0:0:0:
505,251,66731,1,0,3:0:0:0:
434,47,66889,2,0,L|412:140,1,82.5000025177003,4|0,3:0|3:0,0:0:0:0:
357,315,67205,1,4,3:0:0:0:
357,315,67521,6,0,P|303:331|203:249,1,165.000005035401,4|8,1:0|0:0,0:0:0:0:
150,58,67994,1,0,0:0:0:0:
0,186,68152,2,0,L|126:158,1,123.75000377655,2|0,0:0|0:0,0:0:0:0:
205,123,68468,2,0,P|196:172|184:241,1,82.5000025177003,8|0,0:0|0:0,0:0:0:0:
38,345,68784,6,0,P|29:296|17:227,1,82.5000025177003,4|4,1:0|3:0,0:0:0:0:
73,91,69100,1,8,0:0:0:0:
124,243,69258,1,4,3:0:0:0:
247,49,69415,6,0,L|143:27,1,82.5000025177003,2|0,0:0|3:0,0:0:0:0:
325,245,69731,1,8,0:0:0:0:
120,159,69889,1,0,0:0:0:0:
318,12,70047,6,0,B|374:-4|406:47|406:47|373:51,1,123.75000377655,4|0,3:0|0:0,0:0:0:0:
319,161,70363,2,0,P|304:124|335:81,1,82.5000025177003,8|0,0:0|0:0,0:0:0:0:
482,41,70679,1,2,0:0:0:0:
420,281,70837,1,0,3:0:0:0:
394,126,70994,2,0,L|475:140,1,82.5000025177003,8|0,0:0|0:0,0:0:0:0:
253,211,71310,6,0,P|221:174|96:190,1,165.000005035401,2|8,0:0|0:0,0:0:0:0:
76,338,71784,1,0,3:0:0:0:
171,253,71942,1,8,0:0:0:0:
171,253,72021,1,0,0:0:0:0:
171,253,72100,1,0,0:0:0:0:
11,100,72258,2,0,L|28:193,1,82.5000025177003,10|2,0:0|0:0,0:0:0:0:
1,257,72494,1,2,0:0:0:0:
1,257,72573,6,0,B|30:264|30:264|100:237,1,82.5000025177003,4|0,1:2|3:0,0:0:0:0:
342,156,72889,1,4,1:2:0:0:
197,93,73047,1,0,3:0:0:0:
262,298,73205,6,0,L|276:200,1,82.5000025177003,4|0,1:2|3:0,0:0:0:0:
362,76,73521,1,4,1:2:0:0:
419,275,73679,1,0,3:0:0:0:
121,179,73837,6,0,P|177:131|280:155,1,165.000005035401,4|4,1:2|1:2,0:0:0:0:
454,104,74310,1,0,3:0:0:0:
328,3,74468,2,0,L|339:99,1,82.5000025177003,4|0,1:2|3:0,0:0:0:0:
390,264,74784,1,4,1:2:0:0:
390,264,74863,1,0,0:0:0:0:
390,264,74942,1,0,3:0:0:0:
492,179,75100,5,4,1:2:0:0:
248,121,75258,1,4,3:2:0:0:
300,308,75415,1,0,3:0:0:0:
322,208,75573,5,0,3:0:0:0:
67,360,75731,1,8,0:0:0:0:
102,145,75889,1,0,3:0:0:0:
140,244,76047,5,8,0:0:0:0:
24,33,76205,2,0,L|171:57,1,123.75000377655,4|0,0:0|0:0,0:0:0:0:
250,92,76521,2,0,L|174:107,1,41.2500012588501,2|0,0:0|0:0,0:0:0:0:
82,142,76679,1,10,0:0:0:0:
92,143,76757,1,2,0:0:0:0:
102,145,76836,1,2,0:0:0:0:
266,210,76994,5,10,0:0:0:0:
256,211,77072,1,0,0:0:0:0:
246,213,77152,2,0,L|170:228,1,41.2500012588501,2|0,0:0|0:0,0:0:0:0:
92,288,77311,1,10,0:0:0:0:
102,289,77389,1,2,0:0:0:0:
112,291,77469,2,0,L|188:306,1,41.2500012588501,2|2,0:0|0:0,0:0:0:0:
198,375,77626,5,6,0:0:0:0:
198,375,86310,5,0,0:0:0:0:
256,192,86468,12,4,87731,3:0:0:0:
323,266,88047,5,2,0:0:0:0:
388,223,88363,2,0,P|411:161|364:73,1,168.750006437302,0|2,0:0|0:0,0:0:0:0:
217,32,88994,6,0,P|266:18|329:-2,2,112.500004291535,0|0|2,0:0|0:0|0:0,0:0:0:0:
151,96,89942,1,2,0:0:0:0:
129,12,90258,5,2,0:0:0:0:
52,48,90573,1,0,0:0:0:0:
13,122,90889,2,0,L|-8:251,1,112.500004291535,0|2,0:0|0:0,0:0:0:0:
99,332,91363,1,0,0:0:0:0:
175,300,91521,6,0,L|196:171,2,112.500004291535,0|0|2,0:0|0:0|0:0,0:0:0:0:
104,248,92310,1,0,0:0:0:0:
104,248,92468,1,2,0:0:0:0:
325,285,92784,5,4,3:0:0:0:
396,246,93100,1,0,0:0:0:0:
392,164,93415,2,0,P|427:157|510:195,1,112.500004291535,0|2,0:0|0:0,0:0:0:0:
308,142,93889,2,0,P|257:165|202:160,1,112.500004291535,0|0,0:0|0:0,0:0:0:0:
365,84,94363,1,2,0:0:0:0:
497,182,94679,1,2,0:0:0:0:
349,262,94994,1,2,0:0:0:0:
417,163,95310,6,0,P|429:238|439:340,2,168.750006437302,2|2|2,0:0|0:0|0:0,0:0:0:0:
417,163,96573,1,2,0:0:0:0:
439,80,96731,5,2,0:0:0:0:
331,189,96889,1,2,0:0:0:0:
506,233,97047,1,2,0:0:0:0:
272,355,97205,5,0,1:0:0:0:
291,105,97363,1,0,1:0:0:0:
396,247,97521,1,2,0:0:0:0:
193,306,97679,1,0,3:0:0:0:
244,178,97837,5,4,3:0:0:0:
268,262,98152,1,0,0:0:0:0:
193,306,98468,1,0,1:0:0:0:
193,306,98626,2,0,P|138:315|82:329,1,112.500004291535,0|0,0:0|0:0,0:0:0:0:
14,196,99100,5,0,0:0:0:0:
85,163,99415,1,0,0:0:0:0:
113,87,99731,1,0,1:0:0:0:
86,15,100047,1,2,0:0:0:0:
279,51,100363,5,0,3:0:0:0:
235,117,100679,1,0,0:0:0:0:
258,193,100994,1,0,1:0:0:0:
258,193,101152,2,0,P|291:218|361:209,1,112.500004291535,0|0,0:0|0:0,0:0:0:0:
483,78,101626,5,0,3:0:0:0:
426,23,101942,1,0,0:0:0:0:
347,11,102258,1,0,1:0:0:0:
279,51,102573,1,2,0:0:0:0:
254,229,102889,5,4,3:0:0:0:
180,36,103205,1,0,0:0:0:0:
365,164,103521,2,0,P|317:152|244:140,1,112.500004291535,0|2,1:0|0:0,0:0:0:0:
176,121,103994,2,0,P|126:178|150:279,1,168.750006437302,0|2,0:0|0:0,0:0:0:0:
215,301,104784,1,0,1:0:0:0:
271,237,105100,1,2,0:0:0:0:
378,318,105415,6,0,P|401:273|444:200,1,112.500004291535,2|0,0:0|0:0,0:0:0:0:
431,219,105889,1,0,0:0:0:0:
350,132,106047,2,0,B|304:166|304:166|375:171,1,112.500004291535,0|2,1:0|0:0,0:0:0:0:
480,152,106521,2,0,B|526:118|526:118|455:113,1,112.500004291535,0|2,1:0|0:0,0:0:0:0:
347,255,106994,5,2,0:0:0:0:
402,65,107152,1,2,0:0:0:0:
270,236,107310,5,2,2:3:0:0:
228,90,107468,1,2,2:3:0:0:
209,291,107626,5,2,2:3:0:0:
118,238,107784,1,2,2:3:0:0:
372,333,107942,6,0,P|418:290|409:203,1,134.999995880127,4|2,0:0|3:2,0:0:0:0:
324,43,108415,2,0,P|334:104|352:198,1,134.999995880127,2|0,0:0|0:0,0:0:0:0:
499,280,108889,1,2,3:2:0:0:
428,135,109047,5,2,0:0:0:0:
428,135,109126,1,0,0:0:0:0:
428,135,109205,1,2,3:2:0:0:
291,279,109363,1,0,0:0:0:0:
195,179,109521,2,0,L|285:201,1,67.4999979400635,2|0,3:2|0:0,0:0:0:0:
312,366,109837,1,2,3:2:0:0:
395,207,109994,1,0,0:0:0:0:
210,281,110152,2,0,L|120:303,1,67.4999979400635,2|0,3:2|1:0,0:0:0:0:
85,348,110389,1,0,1:0:0:0:
85,348,110468,6,0,P|95:303|116:194,1,134.999995880127,4|2,0:0|3:2,0:0:0:0:
105,27,110942,2,0,P|60:76|86:156,1,134.999995880127,2|0,0:0|0:0,0:0:0:0:
248,98,111415,1,2,3:2:0:0:
213,244,111573,6,0,L|198:158,1,67.4999979400635,2|2,0:0|3:2,0:0:0:0:
264,5,111889,1,0,0:0:0:0:
312,200,112047,1,2,3:2:0:0:
312,200,112126,1,0,0:0:0:0:
312,200,112205,1,2,0:0:0:0:
162,99,112363,5,4,3:0:0:0:
413,285,112521,1,0,3:0:0:0:
138,347,112679,1,0,3:0:0:0:
462,165,112837,1,0,3:0:0:0:
179,179,112994,5,4,0:0:0:0:
179,179,113468,1,2,3:2:0:0:
221,250,113626,2,0,P|256:212|243:124,1,134.999995880127,8|2,0:0|3:2,0:0:0:0:
101,200,114100,2,0,P|66:238|79:326,1,134.999995880127,2|8,3:2|0:0,0:0:0:0:
72,316,114573,2,0,P|113:308|155:301,1,67.4999979400635,0|0,3:0|3:0,0:0:0:0:
279,314,114889,1,8,0:0:0:0:
341,363,115047,1,8,0:0:0:0:
398,257,115205,2,0,P|431:250|464:243,1,67.4999979400635,4|4,3:0|3:0,0:0:0:0:
333,205,115521,5,4,0:0:0:0:
333,205,115995,1,2,3:2:0:0:
291,134,116153,2,0,P|256:172|269:260,1,134.999995880127,8|2,0:0|3:2,0:0:0:0:
411,184,116627,2,0,P|446:146|433:58,1,134.999995880127,2|0,3:2|0:0,0:0:0:0:
439,67,117100,2,0,P|399:76|357:83,1,67.4999979400635,8|0,0:0|3:0,0:0:0:0:
233,70,117416,1,8,0:0:0:0:
220,223,117574,1,8,0:0:0:0:
116,110,117732,2,0,P|82:116|49:123,1,67.4999979400635,4|0,3:0|0:0,0:0:0:0:
49,123,118047,6,0,P|11:90|37:-8,1,150,4|2,0:0|3:2,0:0:0:0:
194,102,118521,1,0,0:0:0:0:
194,102,118600,1,0,0:0:0:0:
194,102,118679,2,0,L|179:197,1,75,2|0,3:2|0:0,0:0:0:0:
66,352,118994,2,0,L|81:257,1,75,2|0,3:2|0:0,0:0:0:0:
52,205,119231,1,0,0:0:0:0:
52,205,119310,6,0,L|99:198,2,37.5,2|0|0,3:2|0:0|0:0,0:0:0:0:
162,338,119626,1,2,3:2:0:0:
276,153,119784,1,0,0:0:0:0:
306,370,119942,5,2,3:2:0:0:
115,185,120100,1,0,0:0:0:0:
381,107,120258,1,2,3:2:0:0:
218,254,120415,1,0,0:0:0:0:
163,13,120573,1,4,0:0:0:0:
170,4,120889,5,2,3:2:0:0:
327,38,121047,1,2,3:2:0:0:
116,219,121205,5,2,3:2:0:0:
304,141,121363,1,2,3:2:0:0:
171,380,121521,1,6,3:2:0:0:
34,86,121679,6,0,P|75:73|151:135,1,150,8|0,0:0|0:0,0:0:0:0:
116,219,122468,5,0,0:0:0:0:
109,223,122547,1,0,0:0:0:0:
102,226,122626,1,0,0:0:0:0:
94,228,122705,1,0,0:0:0:0:
86,228,122784,6,0,P|94:257|98:293,1,46.875,8|8,0:0|0:0,0:0:0:0:
265,348,122942,2,0,P|269:324|275:302,1,46.875,8|8,0:0|0:0,0:0:0:0:
408,133,123100,6,0,P|457:206|422:282,1,165.000005035401,4|8,1:0|0:0,0:0:0:0:
150,134,123573,1,0,0:0:0:0:
140,118,123652,1,0,0:0:0:0:
137,101,123731,2,0,P|145:54|149:17,1,82.5000025177003,2|0,0:0|3:0,0:0:0:0:
204,265,124047,1,8,0:0:0:0:
298,40,124205,6,0,P|257:62|215:98,1,82.5000025177003,0|2,0:0|3:2,0:0:0:0:
70,169,124521,1,0,0:0:0:0:
270,213,124679,6,0,P|297:217|363:238,1,82.5000025177003,8|0,1:2|3:0,0:0:0:0:
125,294,124994,2,0,P|98:298|32:319,1,82.5000025177003,8|0,1:0|3:0,0:0:0:0:
218,357,125310,1,8,0:0:0:0:
174,153,125468,1,0,0:0:0:0:
349,232,125626,6,0,P|395:243|494:167,1,165.000005035401,4|8,1:0|0:0,0:0:0:0:
286,89,126100,1,0,0:0:0:0:
385,0,126258,2,0,P|375:43|367:103,1,82.5000025177003,2|0,0:0|3:0,0:0:0:0:
353,323,126573,1,8,0:0:0:0:
472,263,126731,6,0,P|482:220|490:160,1,82.5000025177003,0|2,3:0|3:2,0:0:0:0:
338,153,127047,1,0,0:0:0:0:
145,293,127205,6,0,B|114:306|114:306|55:294,1,82.5000025177003,8|0,1:2|3:0,0:0:0:0:
314,246,127521,2,0,B|345:233|345:233|404:245,1,82.5000025177003,8|0,1:2|3:0,0:0:0:0:
235,279,127837,2,0,L|226:235,2,41.2500012588501,8|0|0,0:0|0:0|0:0,0:0:0:0:
450,380,128152,6,0,P|405:344|289:344,1,165.000005035401,4|8,3:0|0:0,0:0:0:0:
149,183,128626,1,2,0:0:0:0:
163,181,128705,1,2,0:0:0:0:
176,175,128784,2,0,P|190:130|202:67,1,82.5000025177003,2|0,0:0|3:0,0:0:0:0:
53,32,129100,1,8,0:0:0:0:
0,195,129258,1,0,0:0:0:0:
71,236,129415,6,0,L|36:86,1,123.75000377655,0|0,3:0|0:0,0:0:0:0:
117,83,129731,2,0,P|137:39|130:0,1,82.5000025177003,8|0,1:2|3:0,0:0:0:0:
176,175,130047,2,0,P|173:215|192:251,1,82.5000025177003,8|0,1:2|3:0,0:0:0:0:
269,126,130363,1,8,1:2:0:0:
344,156,130521,1,0,0:0:0:0:
426,78,130679,6,0,P|471:77|532:135,1,123.75000377655,4|0,1:0|0:0,0:0:0:0:
486,193,130994,2,0,P|503:229|497:280,1,82.5000025177003,8|0,0:0|0:0,0:0:0:0:
304,375,131310,6,0,P|301:334|318:297,1,82.5000025177003,4|0,1:0|3:0,0:0:0:0:
344,156,131625,1,8,0:0:0:0:
387,348,131783,1,0,0:0:0:0:
193,242,131942,6,0,L|283:217,1,82.5000025177003,4|0,1:0|3:0,0:0:0:0:
419,244,132257,1,8,0:0:0:0:
329,44,132415,1,0,3:0:0:0:
128,132,132573,5,4,3:0:0:0:
128,132,132731,1,0,3:0:0:0:
225,152,132889,1,4,3:0:0:0:
97,282,133047,5,0,0:0:0:0:
297,217,133205,2,0,P|354:210|462:265,1,165.000005035401,4|8,1:0|0:0,0:0:0:0:
378,28,133679,1,0,0:0:0:0:
508,134,133837,2,0,L|360:110,1,123.75000377655,2|0,0:0|0:0,0:0:0:0:
310,134,134152,2,0,L|295:34,1,82.5000025177003,8|0,0:0|0:0,0:0:0:0:
465,211,134468,6,0,L|480:311,1,82.5000025177003,4|4,1:0|3:0,0:0:0:0:
271,373,134784,1,8,0:0:0:0:
366,193,134942,1,4,3:0:0:0:
406,327,135100,6,0,L|307:300,1,82.5000025177003,2|0,0:0|3:0,0:0:0:0:
123,196,135415,1,8,0:0:0:0:
181,384,135573,1,0,0:0:0:0:
310,134,135731,6,0,B|292:101|260:87|223:96|223:96|245:129,1,123.75000377655,4|0,3:0|0:0,0:0:0:0:
243,262,136047,2,0,P|264:229|250:179,1,82.5000025177003,8|0,0:0|0:0,0:0:0:0:
40,95,136363,1,2,0:0:0:0:
143,309,136521,1,0,3:0:0:0:
42,213,136679,2,0,L|156:188,1,82.5000025177003,8|0,0:0|0:0,0:0:0:0:
382,314,136994,6,0,P|328:322|236:245,1,165.000005035401,4|8,3:0|0:0,0:0:0:0:
272,45,137468,1,0,3:0:0:0:
337,222,137626,1,8,0:0:0:0:
337,222,137705,1,0,0:0:0:0:
337,222,137784,1,0,0:0:0:0:
145,128,137942,2,0,L|259:103,1,82.5000025177003,10|2,0:0|0:0,0:0:0:0:
306,122,138179,1,2,0:0:0:0:
306,122,138258,6,0,P|332:130|404:140,1,82.5000025177003,4|0,1:2|3:0,0:0:0:0:
402,362,138573,1,4,1:2:0:0:
207,205,138731,1,0,3:0:0:0:
426,216,138889,6,0,L|515:190,1,82.5000025177003,4|0,1:2|3:0,0:0:0:0:
222,357,139205,1,4,1:2:0:0:
327,194,139363,1,0,3:0:0:0:
278,0,139521,6,0,P|238:38|260:157,1,165.000005035401,4|4,1:2|1:2,0:0:0:0:
358,291,139994,1,0,3:0:0:0:
134,177,140152,2,0,L|17:157,1,82.5000025177003,4|0,1:2|3:0,0:0:0:0:
319,89,140468,1,4,1:2:0:0:
319,89,140547,1,0,0:0:0:0:
319,89,140626,1,0,3:0:0:0:
270,235,140784,5,4,1:2:0:0:
204,6,140942,1,4,3:2:0:0:
440,134,141100,1,0,3:0:0:0:
480,47,141258,5,2,3:2:0:0:
209,161,141415,1,8,0:0:0:0:
394,281,141573,1,2,3:2:0:0:
362,192,141731,5,8,0:0:0:0:
228,358,141889,2,0,L|81:334,1,123.75000377655,4|0,0:0|0:0,0:0:0:0:
2,299,142205,2,0,L|78:284,1,41.2500012588501,2|0,0:0|0:0,0:0:0:0:
170,249,142363,1,10,0:0:0:0:
160,248,142441,1,2,0:0:0:0:
150,246,142520,1,2,0:0:0:0:
0,182,142678,5,10,0:0:0:0:
10,181,142758,1,2,0:0:0:0:
20,179,142836,2,0,L|96:164,1,41.2500012588501,2|2,0:0|0:0,0:0:0:0:
174,100,142995,1,10,0:0:0:0:
164,99,143073,1,2,0:0:0:0:
154,97,143153,2,0,L|78:82,1,41.2500012588501,2|2,0:0|0:0,0:0:0:0:
54,16,143310,5,6,0:0:0:0:
54,16,153415,6,0,P|94:58|203:40,1,168.750006437302,2|2,0:0|0:0,0:0:0:0:
271,144,154047,2,0,P|265:100|271:67,1,56.2500021457673,2|0,0:0|0:0,0:0:0:0:
348,0,154363,1,0,1:0:0:0:
414,60,154521,2,0,P|420:104|414:137,1,56.2500021457673,2|0,0:0|0:0,0:0:0:0:
335,260,154837,5,2,0:0:0:0:
341,110,154994,1,2,0:0:0:0:
455,185,155152,1,2,0:0:0:0:
376,186,155310,5,0,0:0:0:0:
419,116,155469,5,2,0:0:0:0:
416,264,155626,1,0,0:0:0:0:
299,188,155784,2,0,P|282:185|259:182,1,28.1250010728836,2|0,0:0|0:0,0:0:0:0:
207,222,155942,6,0,P|196:168|246:115,1,112.500004291535,2|2,0:0|0:0,0:0:0:0:
290,269,156415,2,0,P|301:323|251:376,2,112.500004291535,2|2|2,0:0|0:0|0:0,0:0:0:0:
163,313,157205,6,0,L|244:295,1,56.2500021457673,2|0,0:0|0:0,0:0:0:0:
81,290,157521,2,0,L|0:308,1,56.2500021457673,2|0,0:0|0:0,0:0:0:0:
143,231,157837,2,0,B|158:163|114:188|137:99,1,112.500004291535,0|2,1:0|0:0,0:0:0:0:
132,121,158468,6,0,P|161:138|272:67,1,168.750006437302,0|0,3:0|0:0,0:0:0:0:
65,6,159100,2,0,P|49:36|56:87,1,84.3750032186509,0|0,1:0|0:0,0:0:0:0:
60,93,159415,2,0,L|3:88,1,56.2500021457673,2|2,0:0|0:0,0:0:0:0:
24,254,159731,6,0,L|144:264,2,112.500004291535,0|2|0,0:0|0:0|1:0,0:0:0:0:
24,254,160521,1,2,0:0:0:0:
126,185,160679,1,2,0:0:0:0:
209,287,160837,2,0,P|213:304|216:321,1,28.1250010728836,2|0,0:0|0:0,0:0:0:0:
268,370,160994,6,0,B|199:274|220:37|493:233|352:342|177:303|270:197|156:226,1,435.937516629697,4|0,3:0|0:0,0:0:0:0:
151,219,163205,5,0,0:0:0:0:
176,147,163363,1,0,0:0:0:0:
100,160,163521,1,2,0:0:0:0:
188,325,164073,5,2,0:0:0:0:
188,325,164152,1,2,0:0:0:0:
320,249,165100,5,2,0:0:0:0:
395,228,165415,1,2,0:0:0:0:
420,299,165731,1,2,0:0:0:0:
348,320,166047,1,2,0:0:0:0:
239,116,167310,5,2,0:0:0:0:
298,64,167626,1,2,0:0:0:0:
365,155,167942,1,2,0:0:0:0:
420,98,168258,1,2,0:0:0:0:
491,190,168573,1,2,0:0:0:0:
294,237,169126,5,2,0:0:0:0:
294,237,169205,1,2,0:0:0:0:
166,144,170152,5,2,0:0:0:0:
91,120,170468,1,2,0:0:0:0:
42,178,170784,1,2,0:0:0:0:
118,204,171100,6,0,B|186:241|256:187|256:187|241:229|266:272,2,225.000008583069,2|2|2,0:0|0:0|0:0,0:0:0:0:
111,199,172837,6,0,L|117:245,1,28.1250010728836,4|4,3:0|3:0,0:0:0:0:
172,323,172994,6,0,L|184:254,1,46.875,4|0,2:3|0:0,0:0:0:0:
260,261,173152,6,0,P|302:251|361:291,1,112.500004291535,0|0,3:0|3:0,0:0:0:0:
358,285,173626,6,0,P|328:238|345:152,1,134.999995880127,4|2,0:0|3:2,0:0:0:0:
493,102,174100,1,0,0:0:0:0:
421,17,174258,2,0,L|404:139,1,101.249996910095,8|0,0:0|0:0,0:0:0:0:
411,200,174573,2,0,P|451:190|484:183,1,67.4999979400635,0|0,0:0|0:0,0:0:0:0:
335,36,174889,6,0,P|295:46|262:53,1,67.4999979400635,2|0,3:2|0:0,0:0:0:0:
147,18,175205,1,2,3:2:0:0:
228,155,175363,1,0,0:0:0:0:
5,164,175521,2,0,P|43:122|141:131,1,134.999995880127,8|0,0:0|0:0,0:0:0:0:
170,237,175994,1,0,0:0:0:0:
128,369,176152,6,0,P|111:332|116:293,1,67.4999979400635,2|0,3:2|0:0,0:0:0:0:
327,319,176468,2,0,B|248:291|272:348|173:313,2,134.999995880127,0|8|2,0:0|0:0|3:2,0:0:0:0:
327,319,177258,1,0,0:0:0:0:
460,286,177415,6,0,P|425:272|379:272,1,67.4999979400635,2|0,0:0|0:0,0:0:0:0:
254,185,177731,2,0,P|287:181|318:168,1,67.4999979400635,8|0,0:0|0:0,0:0:0:0:
447,75,178047,5,8,0:0:0:0:
452,67,178126,1,8,0:0:0:0:
453,57,178205,1,8,0:0:0:0:
452,47,178284,1,8,0:0:0:0:
444,39,178363,1,8,0:0:0:0:
435,33,178442,1,0,0:0:0:0:
425,33,178521,1,0,0:0:0:0:
416,35,178600,1,0,0:0:0:0:
410,42,178679,6,0,L|392:131,1,82.5000025177003,4|0,1:2|3:0,0:0:0:0:
287,282,178994,1,4,1:2:0:0:
228,79,179152,1,0,3:0:0:0:
135,239,179310,6,0,P|183:225|238:213,1,82.5000025177003,4|0,1:2|3:0,0:0:0:0:
379,333,179626,1,0,0:0:0:0:
282,155,179784,1,0,3:0:0:0:
179,327,179942,6,0,P|104:337|39:250,1,165.000005035401,4|4,1:2|1:2,0:0:0:0:
149,136,180415,1,0,3:0:0:0:
292,238,180573,2,0,L|396:254,1,82.5000025177003,4|0,1:0|3:0,0:0:0:0:
328,19,180889,1,4,1:2:0:0:
345,59,180968,1,0,0:0:0:0:
336,101,181047,1,0,3:0:0:0:
302,131,181126,1,0,0:0:0:0:
258,133,181205,5,4,1:0:0:0:
91,45,181363,1,4,1:0:0:0:
167,318,181521,1,0,0:0:0:0:
206,226,181679,5,4,3:0:0:0:
25,355,181837,1,0,0:0:0:0:
169,111,181994,1,4,3:0:0:0:
281,306,182152,5,0,0:0:0:0:
1,211,182310,2,0,L|158:178,1,123.75000377655,8|0,0:0|0:0,0:0:0:0:
209,117,182626,2,0,L|145:107,1,41.2500012588501,2|0,0:0|0:0,0:0:0:0:
169,255,182784,5,0,0:0:0:0:
214,279,182863,1,0,0:0:0:0:
261,286,182942,1,2,0:0:0:0:
309,270,183021,1,0,0:0:0:0:
347,234,183100,1,8,0:0:0:0:
390,211,183179,5,8,0:0:0:0:
442,211,183258,1,8,0:0:0:0:
485,233,183337,1,8,0:0:0:0:
512,276,183415,1,8,0:0:0:0:
511,328,183494,1,8,0:0:0:0:
476,369,183573,1,8,0:0:0:0:
422,369,183652,1,8,0:0:0:0:
385,333,183731,6,0,L|377:290,1,41.2500012588501,8|8,0:0|0:0,0:0:0:0:
475,172,183889,5,8,0:0:0:0:
476,165,183967,1,8,0:0:0:0:
477,158,184046,1,8,0:0:0:0:
478,151,184125,1,8,0:0:0:0:
480,144,184204,1,8,0:0:0:0:
481,138,184283,1,8,0:0:0:0:
482,131,184363,6,0,P|445:94|344:110,1,123.75000377655,4|0,0:0|0:0,0:0:0:0:
314,137,184678,2,0,L|304:236,1,82.5000025177003,8|2,0:0|0:0,0:0:0:0:
314,231,184915,1,0,0:0:0:0:
322,245,184994,2,0,P|362:237|405:230,1,82.5000025177003,0|0,0:0|0:0,0:0:0:0:
316,40,185310,2,0,P|276:48|233:55,1,82.5000025177003,8|0,0:0|0:0,0:0:0:0:
0,169,185626,6,0,P|52:153|157:231,1,165.000005035401,2|8,0:0|0:0,0:0:0:0:
168,316,186099,1,2,0:0:0:0:
269,159,186257,2,0,P|258:198|248:239,1,82.5000025177003,0|0,0:0|0:0,0:0:0:0:
387,384,186573,1,8,0:0:0:0:
454,198,186731,1,0,0:0:0:0:
460,330,186889,6,0,P|418:298|339:307,1,123.75000377655,2|0,0:0|0:0,0:0:0:0:
299,365,187205,2,0,L|189:380,1,82.5000025177003,8|2,0:0|0:0,0:0:0:0:
190,141,187520,1,0,0:0:0:0:
344,220,187678,1,0,0:0:0:0:
284,37,187836,2,0,B|270:71|270:71|293:139,1,82.5000025177003,8|0,0:0|0:0,0:0:0:0:
232,303,188152,6,0,B|246:269|246:269|223:201,1,82.5000025177003,2|0,0:0|0:0,0:0:0:0:
100,138,188468,1,8,0:0:0:0:
369,65,188626,2,0,L|454:46,1,82.5000025177003,2|0,0:0|0:0,0:0:0:0:
344,220,188941,1,0,0:0:0:0:
163,82,189099,2,0,P|137:62|61:65,1,82.5000025177003,8|0,0:0|0:0,0:0:0:0:
26,104,189336,1,0,0:0:0:0:
26,104,189415,6,0,P|16:153|66:214,1,123.75000377655,2|0,0:0|0:0,0:0:0:0:
135,217,189731,2,0,L|242:201,1,82.5000025177003,8|2,0:0|0:0,0:0:0:0:
231,194,189968,1,0,0:0:0:0:
244,183,190047,2,0,B|254:155|254:155|239:86,1,82.5000025177003,0|0,0:0|0:0,0:0:0:0:
302,294,190363,2,0,B|292:322|292:322|307:391,1,82.5000025177003,8|0,0:0|0:0,0:0:0:0:
503,233,190678,6,0,L|324:209,1,165.000005035401,2|8,0:0|0:0,0:0:0:0:
168,140,191152,1,0,0:0:0:0:
339,44,191310,2,0,L|319:133,1,82.5000025177003,2|0,0:0|0:0,0:0:0:0:
265,261,191626,1,8,0:0:0:0:
213,68,191784,1,0,0:0:0:0:
407,144,191941,5,4,0:0:0:0:
416,149,192257,2,0,L|341:162,3,41.2500012588501,2|0|2|0,0:0|0:0|0:0|0:0,0:0:0:0:
154,214,192573,5,12,0:0:0:0:
145,219,192889,2,0,L|220:232,3,41.2500012588501,8|0|8|0,0:0|0:0|0:0|0:0,0:0:0:0:
403,311,193205,5,4,0:0:0:0:
412,316,193520,1,8,0:0:0:0:
253,119,193678,1,2,0:0:0:0:
305,384,193836,5,4,3:0:0:0:
344,230,193994,1,4,3:0:0:0:
223,282,194152,2,0,L|138:294,1,82.5000025177003,4|0,3:0|0:0,0:0:0:0:
141,293,194468,6,0,B|210:275|184:334|271:317,1,123.75000377655,4|0,0:0|0:0,0:0:0:0:
333,311,194784,2,0,L|347:200,1,82.5000025177003,8|0,0:0|0:0,0:0:0:0:
217,77,195099,5,2,0:0:0:0:
266,201,195257,1,2,3:2:0:0:
85,166,195415,2,0,L|175:140,1,82.5000025177003,8|0,0:0|0:0,0:0:0:0:
404,72,195731,6,0,P|374:30|244:30,1,165.000005035401,4|8,0:0|0:0,0:0:0:0:
310,170,196205,1,2,0:0:0:0:
310,170,196284,1,0,0:0:0:0:
310,170,196363,2,0,P|353:159|416:149,1,82.5000025177003,0|0,0:0|0:0,0:0:0:0:
183,62,196678,2,0,L|162:151,1,82.5000025177003,8|0,0:0|0:0,0:0:0:0:
54,347,196994,6,0,P|22:304|53:226,1,123.75000377655,4|0,0:0|0:0,0:0:0:0:
39,158,197310,2,0,L|117:178,1,41.2500012588501,8|0,0:0|0:0,0:0:0:0:
306,247,197468,2,0,L|165:269,1,123.75000377655,2|0,0:0|0:0,0:0:0:0:
134,321,197784,2,0,L|113:230,1,82.5000025177003,2|8,3:2|0:0,0:0:0:0:
287,107,198099,1,2,0:0:0:0:
214,360,198257,1,2,3:2:0:0:
177,181,198415,5,2,0:0:0:0:
306,247,198573,1,8,0:0:0:0:
434,312,198731,1,2,3:2:0:0:
326,144,198889,5,8,0:0:0:0:
311,143,198968,1,8,0:0:0:0:
297,145,199047,2,0,P|275:151|247:163,1,41.2500012588501,8|8,0:0|0:0,0:0:0:0:
177,10,199205,1,8,0:0:0:0:
183,23,199284,1,0,0:0:0:0:
192,34,199363,2,0,P|208:50|232:68,1,41.2500012588501,8|0,0:0|0:0,0:0:0:0:
125,281,199520,6,0,P|173:232|154:138,1,157.499995193482,4|0,1:0|0:0,0:0:0:0:
105,93,199836,2,0,L|-26:118,1,104.999996795654,4|0,1:0|3:0,0:0:0:0:
323,292,200152,2,0,L|192:317,1,104.999996795654,4|0,1:0|0:0,0:0:0:0:
466,69,200468,2,0,L|335:94,1,104.999996795654,2|0,0:0|0:0,0:0:0:0:
187,268,200784,6,0,P|271:250|334:323,1,157.499995193482,4|0,1:0|0:0,0:0:0:0:
399,323,201099,2,0,L|530:348,1,104.999996795654,4|0,1:0|3:0,0:0:0:0:
259,68,201415,2,0,L|390:93,1,104.999996795654,4|0,1:0|3:0,0:0:0:0:
66,219,201731,1,8,0:0:0:0:
91,223,201809,1,8,0:0:0:0:
115,226,201888,1,8,0:0:0:0:
11,88,202047,5,4,0:0:0:0:
81,315,202205,1,2,0:0:0:0:
194,184,202363,1,8,0:0:0:0:
5,170,202520,2,0,B|-19:208|-19:208|6:294,1,104.999996795654,2|8,0:0|0:0,0:0:0:0:
233,108,202836,2,0,B|257:70|257:70|232:-16,1,104.999996795654,2|8,0:0|0:0,0:0:0:0:
77,137,203152,5,8,0:0:0:0:
91,139,203231,1,8,0:0:0:0:
105,141,203310,1,8,0:0:0:0:
277,210,203468,2,0,L|331:201,2,41.2500012588501,8|8|8,0:0|0:0|0:0,0:0:0:0:
133,322,203784,1,8,0:0:0:0:
130,315,203863,1,8,0:0:0:0:
128,308,203941,5,8,0:0:0:0:
167,273,204020,1,8,0:0:0:0:
219,271,204099,1,8,0:0:0:0:
267,294,204178,1,8,0:0:0:0:
290,340,204257,1,8,0:0:0:0:
329,378,204336,1,8,0:0:0:0:
382,383,204415,1,8,0:0:0:0:
428,359,204494,1,0,0:0:0:0:
428,359,204889,5,0,0:0:0:0:
352,345,204968,5,0,0:0:0:0:
278,332,205047,5,0,0:0:0:0:
202,320,205126,5,0,0:0:0:0:
126,307,205205,6,0,P|100:273|131:165,1,157.499995193482,4|0,1:0|0:0,0:0:0:0:
184,103,205520,2,0,L|317:123,1,91.4999962303163,8|0,0:0|0:0,0:0:0:0:
294,129,205757,1,0,0:0:0:0:
307,147,205836,2,0,P|332:96|341:40,1,91.4999962303163,2|0,0:0|3:0,0:0:0:0:
180,25,206152,1,8,0:0:0:0:
236,194,206310,6,0,P|261:245|270:301,1,91.4999962303163,0|2,0:0|3:2,0:0:0:0:
5,361,206626,1,0,0:0:0:0:
113,115,206783,6,0,L|92:228,1,91.4999962303163,8|0,1:2|3:0,0:0:0:0:
391,377,207099,2,0,L|412:264,1,91.4999962303163,8|0,1:0|3:0,0:0:0:0:
339,62,207415,1,8,0:0:0:0:
507,165,207573,1,0,0:0:0:0:
317,335,207731,6,0,P|285:297|158:310,1,157.499995193482,4|0,1:0|0:0,0:0:0:0:
125,339,208047,1,8,0:0:0:0:
34,132,208205,1,0,0:0:0:0:
250,186,208362,2,0,L|134:213,1,91.4999962303163,2|0,0:0|3:0,0:0:0:0:
5,361,208678,1,8,0:0:0:0:
10,44,208836,6,0,B|120:26|70:101|202:81,1,182.999992460633,0|0,3:0|0:0,0:0:0:0:
182,83,209310,2,0,P|192:28|195:-24,1,91.4999962303163,8|0,1:2|3:0,0:0:0:0:
23,223,209626,2,0,P|13:278|10:330,1,91.4999962303163,8|0,1:2|3:0,0:0:0:0:
280,384,209941,1,8,0:0:0:0:
198,160,210099,1,0,0:0:0:0:
101,343,210257,6,0,P|200:306|288:279,1,182.999992460633,4|8,3:0|0:0,0:0:0:0:
431,113,210731,1,2,0:0:0:0:
431,113,210810,1,2,0:0:0:0:
431,113,210889,2,0,P|390:101|322:78,1,91.4999962303163,2|0,0:0|3:0,0:0:0:0:
361,336,211205,1,8,0:0:0:0:
499,204,211362,1,0,0:0:0:0:
300,156,211520,6,0,P|259:98|286:26,1,137.249994345474,0|0,3:0|0:0,0:0:0:0:
351,2,211836,2,0,P|363:45|342:85,1,91.4999962303163,8|0,1:2|3:0,0:0:0:0:
219,189,212152,2,0,L|120:174,1,91.4999962303163,8|0,1:2|3:0,0:0:0:0:
342,298,212468,2,0,P|363:338|351:381,1,91.4999962303163,8|0,1:2|0:0,0:0:0:0:
409,191,212783,6,0,L|499:204,1,91.4999962303163,4|8,1:0|3:0,0:0:0:0:
342,84,213099,1,8,0:0:0:0:
416,320,213257,1,0,0:0:0:0:
512,97,213415,6,0,L|421:110,1,91.4999962303163,4|8,1:0|3:0,0:0:0:0:
128,175,213731,1,8,0:0:0:0:
243,9,213889,1,0,0:0:0:0:
370,255,214047,6,0,L|280:242,1,91.4999962303163,4|0,1:0|3:0,0:0:0:0:
494,343,214363,1,8,0:0:0:0:
405,179,214521,1,0,3:0:0:0:
512,97,214678,2,0,L|488:191,1,91.4999962303163,4|0,3:0|3:0,0:0:0:0:
335,333,214994,1,4,3:0:0:0:
309,162,215152,5,0,0:0:0:0:
174,291,215310,2,0,P|84:303|7:246,1,182.999992460633,4|8,1:0|0:0,0:0:0:0:
151,65,215783,1,0,0:0:0:0:
18,172,215941,2,0,L|156:145,1,137.249994345474,2|0,0:0|0:0,0:0:0:0:
221,107,216257,2,0,L|201:226,1,91.4999962303163,8|0,0:0|0:0,0:0:0:0:
37,92,216573,6,0,L|57:-27,1,91.4999962303163,4|8,1:0|3:0,0:0:0:0:
221,107,216889,1,8,0:0:0:0:
82,293,217047,1,4,3:0:0:0:
266,257,217205,6,0,L|156:227,1,91.4999962303163,2|0,0:0|3:0,0:0:0:0:
107,129,217520,1,8,0:0:0:0:
312,51,217678,1,0,0:0:0:0:
172,15,217836,6,0,L|193:169,1,137.249994345474,4|0,3:0|0:0,0:0:0:0:
291,135,218152,2,0,P|314:91|306:38,1,91.4999962303163,8|0,0:0|0:0,0:0:0:0:
172,15,218468,1,2,0:0:0:0:
250,210,218626,1,0,3:0:0:0:
379,136,218783,2,0,L|476:114,1,91.4999962303163,8|0,0:0|0:0,0:0:0:0:
190,150,219099,6,0,P|135:210|156:305,1,182.999992460633,4|8,3:0|0:0,0:0:0:0:
320,374,219573,1,0,3:0:0:0:
342,206,219731,1,0,0:0:0:0:
342,206,219810,1,8,0:0:0:0:
342,206,219889,1,8,0:0:0:0:
507,278,220047,1,8,0:0:0:0:
470,263,220126,1,8,0:0:0:0:
433,260,220205,1,8,0:0:0:0:
401,268,220283,1,8,0:0:0:0:
370,288,220362,6,0,L|265:310,1,91.4999962303163,4|0,1:2|3:0,0:0:0:0:
367,119,220678,1,4,1:2:0:0:
448,355,220836,1,0,3:0:0:0:
222,197,220994,6,0,L|327:219,1,91.4999962303163,4|0,1:2|3:0,0:0:0:0:
503,150,221310,1,4,1:2:0:0:
299,32,221468,1,0,3:0:0:0:
349,314,221626,6,0,P|415:249|385:148,1,182.999992460633,4|4,1:2|1:2,0:0:0:0:
152,253,222099,1,0,3:0:0:0:
207,40,222257,2,0,L|233:147,1,91.4999962303163,4|0,1:2|3:0,0:0:0:0:
71,310,222573,1,4,1:2:0:0:
71,310,222652,1,0,0:0:0:0:
71,310,222731,1,0,3:0:0:0:
124,103,222889,5,4,1:2:0:0:
216,379,223047,1,4,3:2:0:0:
401,166,223205,1,0,3:0:0:0:
368,257,223362,5,2,3:2:0:0:
178,82,223520,1,8,0:0:0:0:
486,6,223678,1,2,3:2:0:0:
402,65,223836,5,8,0:0:0:0:
129,0,223994,2,0,P|82:56|107:150,1,137.249994345474,4|0,0:0|0:0,0:0:0:0:
157,182,224310,2,0,L|166:119,1,45.7499981151582,2|0,0:0|0:0,0:0:0:0:
333,108,224469,1,10,0:0:0:0:
334,119,224547,1,2,0:0:0:0:
336,130,224626,1,2,0:0:0:0:
185,256,224783,5,10,0:0:0:0:
184,267,224861,1,0,0:0:0:0:
182,278,224941,2,0,L|175:323,1,45.7499981151582,2|2,0:0|0:0,0:0:0:0:
332,283,225099,1,10,0:0:0:0:
331,272,225177,1,2,0:0:0:0:
329,261,225257,2,0,L|322:215,1,45.7499981151582,2|2,0:0|0:0,0:0:0:0:
269,368,225415,5,6,0:0:0:0:
93,240,225731,1,2,0:0:0:0:
36,293,225889,2,0,L|210:258,1,168.750006437302,2|2,0:0|0:0,0:0:0:0:
277,287,226520,1,2,0:0:0:0:
343,240,226678,6,0,P|352:196|315:132,1,112.500004291535,2|2,0:0|0:0,0:0:0:0:
415,272,227310,2,0,P|386:319|394:374,1,112.500004291535,2|2,0:0|0:0,0:0:0:0:
493,258,227783,1,2,0:0:0:0:
442,198,227941,5,2,0:0:0:0:
447,7,228257,1,0,0:0:0:0:
498,65,228415,2,0,L|313:41,1,168.750006437302,2|2,0:0|0:0,0:0:0:0:
265,87,229047,1,0,0:0:0:0:
210,27,229205,6,0,P|168:5|102:20,1,112.500004291535,2|2,0:0|0:0,0:0:0:0:
54,77,229836,1,2,0:0:0:0:
79,233,230152,1,2,0:0:0:0:
186,122,230468,6,0,B|92:102|124:168|21:156,1,168.750006437302,2|2,0:0|0:0,0:0:0:0:
27,156,231415,5,2,0:0:0:0:
99,189,231573,2,0,P|125:240|107:309,1,112.500004291535,0|0,0:0|0:0,0:0:0:0:
77,358,232047,2,0,P|127:343|211:324,2,112.500004291535,2|2|2,0:0|0:0|0:0,0:0:0:0:
37,289,232994,5,2,0:0:0:0:
172,205,233626,1,2,0:0:0:0:
329,242,234257,1,2,0:0:0:0:
409,371,234889,1,2,0:0:0:0:
465,292,235520,5,2,0:0:0:0:
195,197,236783,1,2,0:0:0:0:
264,132,237099,2,0,L|246:15,2,112.500004291535,2|2|2,0:0|0:0|0:0,0:0:0:0:
281,227,238047,5,2,0:0:0:0:
176,58,239310,1,2,0:0:0:0:
378,30,240573,6,0,B|393:73|393:73|437:134|497:159|540:82|479:-1|424:43|390:130|390:130|405:183|405:183|427:197|427:197|442:251|442:251|431:269|433:299,1,525,2|0,0:0|0:0,0:0:0:0:
450,322,243099,6,0,L|446:346,1,18.75,2|0,0:0|0:0,0:0:0:0:
