osu file format v14

[General]
AudioFilename: owoozo.mp3
AudioLeadIn: 0
PreviewTime: 163126
Countdown: 0
SampleSet: Soft
StackLeniency: 0.5
Mode: 0
LetterboxInBreaks: 0
WidescreenStoryboard: 0

[Editor]
DistanceSpacing: 1.4
BeatDivisor: 4
GridSize: 16
TimelineZoom: 2

[Metadata]
Title:Re:TrymenT
TitleUnicode:Re:TrymenT
Artist:Hotaru Murasaki
ArtistUnicode:紫咲ほたる
Creator:Komore
Version:A Dream
Source:Re:LieF〜親愛なるあなたへ〜
Tags:retryment rask relief Shin'ainaru Anata e opening full eroge visual novel amari saya piano dailycare garden irohas joker- mugiwarasekai
BeatmapID:1319547
BeatmapSetID:625986

[Difficulty]
HPDrainRate:6.3
CircleSize:3.8
OverallDifficulty:9
ApproachRate:9.5
SliderMultiplier:1.5
SliderTickRate:1

[Events]
//Background and Video events
0,0,"aaa.jpg",0,0
//Break Periods
2,77826,85785
2,143510,152890
//Storyboard Layer 0 (Background)
//Storyboard Layer 1 (Fail)
//Storyboard Layer 2 (Pass)
//Storyboard Layer 3 (Foreground)
//Storyboard Sound Samples

[TimingPoints]
1837,315.789473684211,4,2,1,50,1,184362
1837,-125,4,2,1,50,0,184362
9415,-125,4,2,1,55,0,184362
10600,-133.333333333333,4,2,1,35,0,184362
10679,-117.647058823529,4,2,1,60,0,184362
11942,-100,4,2,1,67,0,184362
22047,-125,4,2,1,50,0,184362
39731,-100,4,2,1,50,0,184362
40047,-125,4,2,1,15,0,184362
40363,-125,4,2,1,50,0,184362
42258,-111.111111111111,4,2,1,60,0,184362
44705,-111.111111111111,4,2,1,35,0,184362
44784,-111.111111111111,4,2,1,60,0,184362
46679,-111.111111111111,4,2,1,65,0,184362
47626,-111.111111111111,4,2,1,61,0,184362
52284,-111.111111111111,4,2,1,35,0,184362
52363,-111.111111111111,4,2,1,65,0,184362
54889,-83.3333333333333,4,2,1,65,0,184362
55126,-83.3333333333333,4,2,1,35,0,184362
55205,-83.3333333333333,4,2,1,65,0,184362
55994,-142.857142857143,4,2,1,50,0,184362
56705,-142.857142857143,4,2,1,35,0,184362
56784,-142.857142857143,4,2,2,50,0,184362
57100,-66.6666666666667,4,2,1,50,0,184362
57415,-86.9565217391304,4,2,1,70,0,184362
57652,-86.9565217391304,4,2,1,35,0,184362
57731,-86.9565217391304,4,2,1,70,0,184362
60179,-86.9565217391304,4,2,1,35,0,184362
60258,-86.9565217391304,4,2,1,70,0,184362
63968,-86.9565217391304,4,2,1,35,0,184362
64047,-86.9565217391304,4,2,1,70,0,184362
64284,-86.9565217391304,4,2,1,35,0,184362
64363,-86.9565217391304,4,2,1,70,0,184362
64600,-86.9565217391304,4,2,1,35,0,184362
64679,-86.9565217391304,4,2,1,70,0,184362
64915,-86.9565217391304,4,2,1,35,0,184362
64994,-86.9565217391304,4,2,1,70,0,184362
65231,-86.9565217391304,4,2,1,35,0,184362
65310,-86.9565217391304,4,2,1,70,0,184362
65863,-86.9565217391304,4,2,1,35,0,184362
65942,-86.9565217391304,4,2,1,70,0,184362
69652,-86.9565217391304,4,2,1,35,0,184362
69731,-86.9565217391304,4,2,1,70,0,184362
72573,-86.9565217391304,4,2,1,75,0,184362
75258,-71.4285714285714,4,2,1,75,0,184362
75494,-86.9565217391304,4,2,1,75,0,184362
86310,-86.9565217391304,4,2,1,50,0,184362
88047,-125,4,2,1,50,0,184362
107942,-111.111111111111,4,2,1,60,0,184362
110389,-111.111111111111,4,2,1,35,0,184362
110468,-111.111111111111,4,2,1,60,0,184362
112363,-111.111111111111,4,2,1,65,0,184362
113310,-111.111111111111,4,2,1,61,0,184362
117968,-111.111111111111,4,2,1,35,0,184362
118047,-111.111111111111,4,2,1,65,0,184362
120573,-83.3333333333333,4,2,1,65,0,184362
120810,-83.3333333333333,4,2,1,35,0,184362
120889,-83.3333333333333,4,2,1,65,0,184362
121679,-142.857142857143,4,2,1,50,0,184362
122389,-142.857142857143,4,2,1,35,0,184362
122468,-76.9230769230769,4,2,2,65,0,184362
122705,-76.9230769230769,4,2,1,35,0,184362
122784,-66.6666666666667,4,2,1,68,0,184362
123100,-83.3333333333333,4,2,1,75,0,184362
123337,-83.3333333333333,4,2,1,35,0,184362
123415,-83.3333333333333,4,2,1,75,0,184362
125863,-83.3333333333333,4,2,1,35,0,184362
125942,-83.3333333333333,4,2,1,75,0,184362
128073,-83.3333333333333,4,2,1,35,0,184362
128152,-83.3333333333333,4,2,1,75,0,184362
129652,-83.3333333333333,4,2,1,35,0,184362
129731,-83.3333333333333,4,2,1,75,0,184362
129968,-83.3333333333333,4,2,1,35,0,184362
130047,-83.3333333333333,4,2,1,75,0,184362
130284,-83.3333333333333,4,2,1,35,0,184362
130363,-83.3333333333333,4,2,1,60,0,184362
130679,-83.3333333333333,4,2,1,75,0,184362
130915,-83.3333333333333,4,2,1,35,0,184362
130994,-83.3333333333333,4,2,1,75,0,184362
131547,-83.3333333333333,4,2,1,35,0,184362
131626,-83.3333333333333,4,2,1,75,0,184362
135652,-83.3333333333333,4,2,1,35,0,184362
135731,-83.3333333333333,4,2,1,75,0,184362
135968,-83.3333333333333,4,2,1,35,0,184362
136047,-83.3333333333333,4,2,1,75,0,184362
138258,-83.3333333333333,4,2,1,78,0,184362
153415,-125,4,2,1,50,0,184362
173626,-111.111111111111,4,2,1,60,0,184362
177652,-111.111111111111,4,2,1,35,0,184362
177731,-100,4,2,1,62,0,184362
177968,-100,4,2,1,35,0,184362
178047,-90.9090909090909,4,2,1,64,0,184362
178284,-90.9090909090909,4,2,1,35,0,184362
178363,-83.3333333333333,4,2,1,66,0,184362
178600,-83.3333333333333,4,2,1,35,0,184362
178679,-83.3333333333333,4,2,1,68,0,184362
182547,-83.3333333333333,4,2,1,35,0,184362
182626,-83.3333333333333,4,2,1,70,0,184362
183731,-83.3333333333333,4,2,1,50,0,184362
184363,315.789473684211,4,2,1,65,1,0
184363,-90.9090909090909,4,2,1,65,0,0
186810,-90.9090909090909,4,2,1,35,0,0
186889,-90.9090909090909,4,2,1,65,0,0
190915,-90.9090909090909,4,2,1,35,0,0
190994,-90.9090909090909,4,2,1,65,0,0
191863,-90.9090909090909,4,2,1,35,0,0
191941,-90.9090909090909,4,2,1,60,0,0
192178,-90.9090909090909,4,2,1,35,0,0
192257,-90.9090909090909,4,2,1,60,0,0
192810,-90.9090909090909,4,2,1,35,0,0
192889,-90.9090909090909,4,2,1,60,0,0
193441,-90.9090909090909,4,2,1,35,0,0
193520,-90.9090909090909,4,2,1,60,0,0
194152,-76.9230769230769,4,2,1,60,0,0
194389,-76.9230769230769,4,2,1,35,0,0
194468,-90.9090909090909,4,2,1,65,0,0
195652,-90.9090909090909,4,2,1,35,0,0
195731,-90.9090909090909,4,2,1,65,0,0
196915,-90.9090909090909,4,2,1,35,0,0
196994,-90.9090909090909,4,2,1,65,0,0
198889,-90.9090909090909,4,2,1,68,0,0
199520,-90.9090909090909,4,2,1,72,0,0
200468,-76.9230769230769,4,2,1,74,0,0
200705,-76.9230769230769,4,2,1,35,0,0
200784,-76.9230769230769,4,2,1,78,0,0
202047,-76.9230769230769,4,2,1,80,0,0
204889,-66.6666666666667,4,2,1,63,0,0
205205,315.789473684211,4,2,1,78,1,0
205205,-83.3333333333333,4,2,1,78,0,0
205441,-83.3333333333333,4,2,1,35,0,0
205520,-83.3333333333333,4,2,1,78,0,0
207968,-83.3333333333333,4,2,1,35,0,0
208047,-83.3333333333333,4,2,1,78,0,0
211757,-83.3333333333333,4,2,1,35,0,0
211836,-83.3333333333333,4,2,1,78,0,0
212073,-83.3333333333333,4,2,1,35,0,0
212152,-83.3333333333333,4,2,1,78,0,0
212389,-83.3333333333333,4,2,1,35,0,0
212468,-83.3333333333333,4,2,1,65,0,0
212783,-83.3333333333333,4,2,1,78,0,0
213020,-83.3333333333333,4,2,1,35,0,0
213099,-83.3333333333333,4,2,1,78,0,0
213652,-83.3333333333333,4,2,1,35,0,0
213731,-83.3333333333333,4,2,1,78,0,0
217441,-83.3333333333333,4,2,1,35,0,0
217520,-83.3333333333333,4,2,1,78,0,0
220362,-83.3333333333333,4,2,1,83,0,0
225415,-125,4,2,1,50,0,0
230389,-125,4,2,1,35,0,0
230468,-125,4,2,1,50,0,0
232994,-125,4,2,2,50,0,0
233073,-125,4,2,1,50,0,0
235520,-114.942528735632,4,2,1,50,0,0
238047,-125,4,2,1,50,0,0
239862,-125,4,2,1,35,0,0
239941,-125,4,2,1,50,0,0
243099,-125,4,2,1,30,0,0

[Colours]
Combo1 : 229,229,229
Combo2 : 221,221,238
Combo3 : 193,193,255
Combo4 : 191,239,255

[HitObjects]
93,116,1837,5,2,0:0:0:0:
169,150,1994,1,0,0:0:0:0:
250,130,2152,1,0,0:0:0:0:
299,62,2310,2,0,P|288:121|279:180,1,120,2|0,0:0|0:0,0:0:0:0:
346,262,2784,1,2,0:0:0:0:
353,272,3100,5,2,0:0:0:0:
423,227,3258,2,0,P|431:198|423:169,1,60,0|0,0:0|0:0,0:0:0:0:
345,124,3573,2,0,P|288:141|229:150,1,120,2|0,0:0|0:0,0:0:0:0:
151,105,4047,1,2,0:0:0:0:
38,354,4363,5,2,0:0:0:0:
97,294,4521,1,0,0:0:0:0:
39,232,4679,1,0,0:0:0:0:
107,297,4837,2,0,P|157:266|216:265,1,120,2|0,0:0|0:0,0:0:0:0:
286,317,5310,2,0,P|281:347|272:376,1,60,0|0,0:0|0:0,0:0:0:0:
380,316,5626,6,0,P|364:259|355:200,1,120,2|0,0:0|0:0,0:0:0:0:
466,102,6100,2,0,P|455:161|446:220,1,120,2|0,0:0|0:0,0:0:0:0:
512,313,6573,1,2,0:0:0:0:
506,323,6889,5,2,0:0:0:0:
424,302,7047,1,0,0:0:0:0:
359,355,7205,1,0,0:0:0:0:
275,335,7363,2,0,P|252:282|269:226,1,120,2|0,0:0|0:0,0:0:0:0:
362,172,7837,2,0,L|352:236,1,60,2|0,0:0|0:0,0:0:0:0:
399,304,8152,5,2,0:0:0:0:
186,334,8468,1,2,0:0:0:0:
155,121,8784,1,2,0:0:0:0:
369,90,9100,1,2,0:0:0:0:
192,373,9415,6,0,B|174:338|174:338|201:244,1,120,2|0,0:0|0:0,0:0:0:0:
72,136,9889,2,0,L|86:258,1,120,2|0,0:0|0:0,0:0:0:0:
265,206,10363,2,0,P|218:201|169:194,1,90,2|0,0:0|0:0,0:0:0:0:
162,187,10679,6,0,P|169:123|182:61,1,127.50000243187,2|0,0:0|0:0,0:0:0:0:
60,184,11152,2,0,P|67:247|75:310,1,127.50000243187,2|0,0:0|0:0,0:0:0:0:
301,211,11626,6,0,L|295:242,1,31.8750006079674,2|0,0:0|0:0,0:0:0:0:
217,284,11784,2,0,P|219:300|222:316,1,31.8750006079674,2|0,0:0|0:0,0:0:0:0:
311,355,11942,6,0,P|356:307|444:333,1,150,4|2,0:0|3:2,0:0:0:0:
510,183,12415,1,0,0:0:0:0:
510,183,12573,2,0,P|499:218|491:261,1,75,2|0,3:2|0:0,0:0:0:0:
390,116,12889,2,0,P|397:154|411:194,1,75,2|0,3:2|0:0,0:0:0:0:
503,45,13205,6,0,B|403:64|403:64|358:24,1,150,2|0,3:2|0:0,0:0:0:0:
248,117,13679,2,0,L|236:42,1,75,4|2,3:0|3:2,0:0:0:0:
349,175,13994,1,0,3:0:0:0:
191,257,14152,2,0,L|199:182,1,75,4|0,3:0|0:0,0:0:0:0:
301,321,14468,6,0,P|367:282|458:308,1,150,4|2,0:0|3:2,0:0:0:0:
245,168,14942,2,0,P|252:204|258:241,1,75,2|2,0:0|3:2,0:0:0:0:
349,154,15258,1,2,0:0:0:0:
136,246,15415,1,2,3:2:0:0:
315,350,15573,1,2,0:0:0:0:
87,89,15889,5,0,0:0:0:0:
87,89,15968,1,0,0:0:0:0:
87,89,16047,1,4,3:0:0:0:
280,201,16205,1,2,0:0:0:0:
65,260,16363,1,4,3:0:0:0:
179,169,16521,1,2,0:0:0:0:
115,354,16679,1,4,3:0:0:0:
58,223,16837,2,0,L|64:259,1,37.5,2|0,0:0|0:0,0:0:0:0:
190,315,16994,6,0,B|246:289|299:318|299:318|317:303|337:282,1,150,2|2,0:0|3:2,0:0:0:0:
486,189,17468,2,0,P|410:211|339:153,1,150,4|2,3:0|0:0,0:0:0:0:
412,300,17942,1,2,3:2:0:0:
254,199,18100,1,2,0:0:0:0:
254,199,18179,1,2,0:0:0:0:
254,198,18258,6,0,B|233:106|233:106|267:52,1,150,2|2,0:0|3:2,0:0:0:0:
363,203,18731,2,0,L|350:278,1,75,4|2,3:0|3:2,0:0:0:0:
249,316,19047,1,4,3:0:0:0:
450,242,19205,1,2,3:2:0:0:
274,129,19363,1,2,0:0:0:0:
350,276,19521,5,4,3:2:0:0:
253,208,19679,1,2,0:0:0:0:
357,172,19837,1,2,0:0:0:0:
249,316,19994,1,2,0:0:0:0:
350,276,20152,5,4,3:1:0:0:
161,195,20310,1,2,0:0:0:0:
200,111,20468,1,2,0:0:0:0:
389,192,20626,1,2,0:0:0:0:
145,305,20784,5,6,3:2:0:0:
283,337,22047,5,4,3:0:0:0:
292,345,22363,2,0,P|337:335|364:333,1,60,0|2,0:0|0:0,0:0:0:0:
236,272,22679,2,0,P|151:286|98:291,1,120,0|2,0:0|0:0,0:0:0:0:
46,244,23152,1,0,0:0:0:0:
108,171,23310,6,0,P|123:132|73:67,1,120,0|0,0:0|0:0,0:0:0:0:
236,151,23942,2,0,P|266:148|305:129,1,60,2|0,0:0|0:0,0:0:0:0:
350,74,24258,1,2,0:0:0:0:
470,213,24573,5,2,0:0:0:0:
460,205,24889,2,0,P|444:231|438:260,1,60,0|2,0:0|0:0,0:0:0:0:
480,345,25205,2,0,P|436:315|368:330,1,120,0|2,0:0|0:0,0:0:0:0:
301,371,25679,1,0,0:0:0:0:
227,319,25837,6,0,B|212:274|212:274|234:191,1,120
151,44,26468,2,0,P|161:79|163:112,1,60,2|0,0:0|0:0,0:0:0:0:
96,156,26784,1,2,0:0:0:0:
287,224,27100,5,4,3:0:0:0:
371,73,27258,1,0,3:0:0:0:
371,73,27415,2,0,P|437:87|497:96,1,120,0|0,0:0|0:0,0:0:0:0:
289,15,28047,1,2,0:0:0:0:
221,75,28205,6,0,P|157:92|106:65,1,120,0|0,0:0|0:0,0:0:0:0:
40,116,28679,2,0,P|35:84|26:51,1,60,2|0,0:0|0:0,0:0:0:0:
142,141,28994,2,0,P|134:190|121:266,1,120,2|0,0:0|0:0,0:0:0:0:
283,363,29626,6,0,P|342:325|402:356,1,120,2|0,0:0|0:0,0:0:0:0:
500,270,30100,2,0,P|441:258|384:240,1,120,2|0,0:0|0:0,0:0:0:0:
294,187,30573,2,0,L|302:247,1,60,0|0,0:0|0:0,0:0:0:0:
321,368,30889,5,0,0:0:0:0:
312,360,31205,1,0,0:0:0:0:
236,271,31363,1,0,0:0:0:0:
195,377,31521,1,0,1:0:0:0:
164,181,31679,1,0,1:0:0:0:
349,253,31837,1,0,0:0:0:0:
195,377,31994,1,0,3:0:0:0:
261,155,32152,5,4,3:0:0:0:
312,360,32310,1,0,3:0:0:0:
312,360,32468,2,0,P|368:366|390:372,1,60,0|2,0:0|0:0,0:0:0:0:
265,279,32784,2,0,P|180:296|139:299,1,120,0|2,0:0|0:0,0:0:0:0:
78,248,33258,1,0,0:0:0:0:
140,175,33415,5,0,0:0:0:0:
406,65,33731,1,0,0:0:0:0:
303,315,34047,1,0,1:0:0:0:
202,23,34363,2,0,L|193:91,1,60,2|0,0:0|0:0,0:0:0:0:
244,155,34679,5,2,0:0:0:0:
239,166,34994,2,0,P|205:180|170:176,1,60,0|2,0:0|0:0,0:0:0:0:
309,108,35310,1,0,1:0:0:0:
309,108,35468,2,0,L|377:119,1,60,0|2,0:0|0:0,0:0:0:0:
441,73,35784,1,0,0:0:0:0:
498,142,35942,6,0,P|476:247|468:284,1,120,0|0,3:0|0:0,0:0:0:0:
264,374,36573,1,0,1:0:0:0:
221,171,36889,1,0,0:0:0:0:
221,171,37205,5,4,3:0:0:0:
104,343,37363,1,0,3:0:0:0:
104,343,37521,2,0,P|80:296|112:239,1,120,0|0,0:0|1:0,0:0:0:0:
354,142,38152,1,0,0:0:0:0:
274,112,38310,6,0,P|280:162|291:243,1,120,0|0,0:0|1:0,0:0:0:0:
353,293,38784,1,2,0:0:0:0:
101,171,39100,1,0,1:0:0:0:
336,19,39415,2,0,P|331:51|325:86,1,60,2|0,0:0|0:0,0:0:0:0:
390,128,39731,6,0,B|462:88|536:160|510:254|420:233|420:233|448:225|465:192,1,300,2|0,0:0|1:0,0:0:0:0:
502,312,40679,1,2,0:0:0:0:
415,354,40837,2,0,P|363:345|276:333,1,120,0|2,1:0|0:0,0:0:0:0:
145,370,41310,5,2,0:0:0:0:
216,296,41468,1,2,0:0:0:0:
60,184,41626,1,2,2:3:0:0:
209,302,41784,1,2,2:3:0:0:
266,133,41942,1,2,2:3:0:0:
134,242,42100,1,2,2:3:0:0:
393,272,42258,6,0,P|402:205|427:136,1,134.999995880127,4|2,0:0|3:2,0:0:0:0:
491,37,42731,2,0,B|403:56|403:56|377:46|361:14,1,134.999995880127,2|0,0:0|0:0,0:0:0:0:
276,138,43205,2,0,P|315:133|356:129,1,67.4999979400635,2|4,3:2|3:0,0:0:0:0:
446,238,43521,5,0,3:0:0:0:
248,131,43679,1,4,3:0:0:0:
458,50,43837,1,0,3:0:0:0:
458,50,44152,2,0,L|446:124,1,67.4999979400635,2|0,3:2|0:0,0:0:0:0:
326,240,44468,2,0,P|372:212|420:223,1,101.249996910095,2|0,3:2|0:0,0:0:0:0:
448,243,44784,6,0,B|469:165|469:165|443:108,1,134.999995880127,4|2,3:2|3:2,0:0:0:0:
370,292,45258,2,0,P|423:333|489:327,1,134.999995880127,2|0,0:0|0:0,0:0:0:0:
371,207,45731,2,0,P|337:212|304:218,1,67.4999979400635,2|4,3:2|3:0,0:0:0:0:
166,155,46047,5,0,3:0:0:0:
213,245,46205,1,4,3:0:0:0:
262,99,46363,1,0,3:0:0:0:
88,191,46521,1,0,0:0:0:0:
366,236,46679,5,8,0:0:0:0:
123,120,46837,1,8,0:0:0:0:
363,141,46994,1,0,3:0:0:0:
351,383,47152,1,0,3:0:0:0:
111,362,47310,1,4,0:0:0:0:
111,362,47626,6,0,P|84:309|122:241,1,134.999995880127,2|8,0:0|0:0,0:0:0:0:
45,58,48258,1,2,3:2:0:0:
0,153,48415,2,0,P|68:142|139:125,1,134.999995880127,2|8,3:2|0:0,0:0:0:0:
256,37,48889,2,0,P|224:33|179:29,1,67.4999979400635,0|0,3:0|3:0,0:0:0:0:
335,170,49205,5,8,0:0:0:0:
132,126,49363,1,8,0:0:0:0:
355,176,49521,1,4,3:0:0:0:
209,316,49679,1,4,3:0:0:0:
468,256,49837,1,4,0:0:0:0:
468,256,50152,6,0,P|473:227|488:190,1,67.4999979400635,2|2,0:0|3:2,0:0:0:0:
512,336,50468,2,0,B|469:308|469:308|429:345|379:331,1,134.999995880127,8|2,0:0|3:2,0:0:0:0:
296,226,50942,2,0,P|231:244|164:255,1,134.999995880127,2|0,3:2|0:0,0:0:0:0:
57,201,51415,1,8,0:0:0:0:
111,351,51573,1,4,2:3:0:0:
39,177,51731,1,8,0:0:0:0:
204,349,51889,1,8,0:0:0:0:
23,154,52047,2,0,P|21:99|77:59,1,101.249996910095,2|0,3:2|0:0,0:0:0:0:
85,51,52363,1,4,0:0:0:0:
291,149,52521,5,0,0:0:0:0:
138,211,52679,1,2,3:2:0:0:
184,37,52837,1,0,0:0:0:0:
184,37,52915,1,0,0:0:0:0:
184,37,52994,2,0,P|188:70|192:107,1,67.4999979400635,2|0,3:2|0:0,0:0:0:0:
209,229,53310,1,2,3:2:0:0:
404,197,53468,1,0,0:0:0:0:
404,197,53547,1,0,0:0:0:0:
404,197,53626,6,0,P|352:149|269:159,1,134.999995880127,2|2,3:2|3:2,0:0:0:0:
247,14,54100,1,0,0:0:0:0:
151,118,54258,2,0,P|184:114|216:101,1,67.4999979400635,2|0,3:2|0:0,0:0:0:0:
128,19,54573,1,2,3:2:0:0:
60,202,54731,1,0,0:0:0:0:
60,202,54810,1,0,0:0:0:0:
60,202,54889,6,0,P|110:207|195:225,1,134.999995880127,4|0,1:0|0:0,0:0:0:0:
225,247,55205,1,4,1:0:0:0:
435,122,55363,1,2,3:2:0:0:
276,189,55521,1,4,1:0:0:0:
464,285,55679,1,2,3:2:0:0:
253,170,55837,1,4,1:0:0:0:
488,42,55994,6,0,B|315:18|315:18|355:32|371:73,1,236.249992790222,8|0,0:0|0:0,0:0:0:0:
286,102,56784,1,2,0:0:0:0:
286,102,57100,6,0,P|295:131|298:160,1,56.2500021457673,0|0,0:0|0:0,0:0:0:0:
386,207,57258,2,0,P|377:253|366:278,1,56.2500021457673,0|0,0:0|0:0,0:0:0:0:
274,324,57415,6,0,P|221:285|150:301,1,129.375002467632,4|0,1:0|0:0,0:0:0:0:
134,314,57731,1,8,0:0:0:0:
198,109,57889,1,0,0:0:0:0:
198,109,57968,1,0,0:0:0:0:
198,109,58047,2,0,P|214:139|213:209,1,86.2500016450882,2|0,0:0|3:0,0:0:0:0:
101,173,58363,1,8,0:0:0:0:
255,354,58521,6,0,B|304:313|352:323|352:323|369:361|410:371,1,172.500003290176,0|0,0:0|0:0,0:0:0:0:
237,186,58994,2,0,P|216:227|235:280,1,86.2500016450882,8|0,1:2|3:0,0:0:0:0:
381,142,59310,2,0,P|372:95|363:54,1,86.2500016450882,8|0,1:0|3:0,0:0:0:0:
318,237,59626,1,8,0:0:0:0:
502,177,59784,1,0,0:0:0:0:
364,351,59942,6,0,P|304:344|236:337,1,129.375002467632,4|0,1:0|0:0,0:0:0:0:
204,353,60258,1,8,0:0:0:0:
17,232,60415,2,0,B|56:215|100:231|100:231|136:194|174:191,1,172.500003290176,0|0,0:0|3:0,0:0:0:0:
341,261,60889,1,8,0:0:0:0:
289,63,61047,6,0,P|272:147|257:232,1,172.500003290176,0|0,0:0|0:0,0:0:0:0:
467,137,61521,2,0,P|429:146|364:177,1,86.2500016450882,8|0,1:2|3:0,0:0:0:0:
265,6,61837,2,0,P|270:48|275:91,1,86.2500016450882,8|0,1:2|3:0,0:0:0:0:
398,35,62152,1,8,0:0:0:0:
266,208,62310,1,0,0:0:0:0:
266,208,62389,1,0,0:0:0:0:
266,208,62468,6,0,B|210:181|210:181|163:227|97:208,1,172.500003290176,4|8,3:0|0:0,0:0:0:0:
95,15,62942,2,0,P|109:43|114:68,1,43.1250008225441,2|2,0:0|0:0,0:0:0:0:
75,137,63100,1,2,0:0:0:0:
65,0,63258,1,0,3:0:0:0:
234,100,63415,2,0,P|275:87|321:80,1,86.2500016450882,8|0,0:0|0:0,0:0:0:0:
241,292,63731,6,0,P|192:251|129:257,1,129.375002467632,0|0,3:0|0:0,0:0:0:0:
19,291,64047,2,0,P|67:250|130:256,1,129.375002467632,8|0,1:2|0:0,0:0:0:0:
54,46,64363,6,0,P|43:110|33:174,1,129.375002467632,8|0,1:2|0:0,0:0:0:0:
129,255,64679,2,0,L|139:191|149:127,1,129.375002467632,8|0,1:2|0:0,0:0:0:0:
73,332,64994,6,0,B|129:297|129:297|221:323,1,129.375002467632,4|0,1:0|0:0,0:0:0:0:
262,360,65310,2,0,P|304:347|346:342,1,86.2500016450882,8|0,0:0|0:0,0:0:0:0:
436,118,65626,2,0,P|421:180|409:244,1,129.375002467632,4|0,1:0|0:0,0:0:0:0:
453,325,65942,2,0,B|412:340|412:340|383:324|350:319,1,86.2500016450882,8|0,0:0|0:0,0:0:0:0:
175,122,66258,5,4,1:0:0:0:
326,213,66415,1,0,3:0:0:0:
141,255,66573,1,8,0:0:0:0:
289,117,66731,1,0,3:0:0:0:
228,350,66889,1,4,3:0:0:0:
245,38,67047,1,0,3:0:0:0:
387,374,67205,1,4,3:0:0:0:
387,374,67521,6,0,B|448:326|519:348|519:348|478:394,1,172.500003290176,4|8,1:0|0:0,0:0:0:0:
354,249,67994,1,0,0:0:0:0:
489,176,68152,2,0,P|477:219|469:272,1,86.2500016450882,2|0,0:0|3:0,0:0:0:0:
365,83,68468,2,0,P|374:132|392:177,1,86.2500016450882,8|0,0:0|0:0,0:0:0:0:
512,48,68784,6,0,P|429:68|357:25,1,172.500003290176,4|8,1:0|0:0,0:0:0:0:
229,185,69258,1,4,3:0:0:0:
271,0,69415,2,0,P|281:47|296:126,1,129.375002467632,2|0,0:0|0:0,0:0:0:0:
229,185,69731,2,0,P|186:168|127:169,1,86.2500016450882,8|0,0:0|0:0,0:0:0:0:
0,321,70047,6,0,P|42:325|73:354,1,86.2500016450882,4|0,3:0|3:0,0:0:0:0:
66,157,70363,2,0,P|75:200|83:241,1,86.2500016450882,8|0,0:0|0:0,0:0:0:0:
190,67,70679,2,0,P|181:101|172:151,1,86.2500016450882,2|0,0:0|3:0,0:0:0:0:
3,73,70994,2,0,B|42:51|42:51|82:57,1,86.2500016450882,8|0,0:0|0:0,0:0:0:0:
256,164,71310,6,0,P|300:163|341:154,1,86.2500016450882,2|0,0:0|3:0,0:0:0:0:
465,295,71626,2,0,L|379:282,1,86.2500016450882,8|0,0:0|3:0,0:0:0:0:
441,113,71942,2,0,B|455:155|455:155|443:207,1,86.2500016450882,8|0,0:0|0:0,0:0:0:0:
289,290,72258,1,10,0:0:0:0:
258,265,72337,1,2,0:0:0:0:
220,256,72415,1,2,0:0:0:0:
181,261,72494,1,2,0:0:0:0:
146,278,72573,5,4,1:2:0:0:
86,83,72731,1,0,3:0:0:0:
31,297,72889,5,4,1:2:0:0:
91,70,73047,1,0,3:0:0:0:
155,323,73205,5,4,1:2:0:0:
96,61,73363,1,0,3:0:0:0:
22,340,73521,5,4,1:2:0:0:
101,49,73679,1,0,3:0:0:0:
14,231,73837,5,4,1:2:0:0:
223,88,73994,1,0,3:0:0:0:
20,244,74152,5,4,1:2:0:0:
280,164,74310,1,0,3:0:0:0:
20,259,74468,5,4,1:2:0:0:
298,257,74626,1,0,3:0:0:0:
16,275,74784,5,4,1:2:0:0:
265,348,74942,1,0,3:0:0:0:
182,40,75100,5,4,1:2:0:0:
265,348,75258,1,4,3:2:0:0:
265,348,75573,6,0,P|262:303|255:262,1,86.2500016450882,0|8,3:0|0:0,0:0:0:0:
427,140,75889,2,0,P|419:184|417:225,1,86.2500016450882,0|8,3:0|0:0,0:0:0:0:
176,161,76205,2,0,B|219:139|261:159|261:159|291:121|344:124,1,172.500003290176,4|2,0:0|0:0,0:0:0:0:
189,336,76679,1,10,0:0:0:0:
166,304,76758,1,2,0:0:0:0:
129,292,76837,1,2,0:0:0:0:
91,298,76915,1,2,0:0:0:0:
58,316,76994,6,0,L|51:260,1,43.1250008225441,10|0,0:0|0:0,0:0:0:0:
140,163,77152,2,0,L|145:205,1,43.1250008225441,2|0,0:0|0:0,0:0:0:0:
20,124,77310,5,10,0:0:0:0:
31,82,77389,1,2,0:0:0:0:
62,52,77468,1,2,0:0:0:0:
104,45,77547,1,2,0:0:0:0:
143,62,77626,5,6,0:0:0:0:
32,96,86310,5,0,0:0:0:0:
256,192,86389,12,4,87731,3:0:0:0:
302,167,88047,5,2,0:0:0:0:
431,353,88363,2,0,P|449:294|403:250,1,120,0|2,0:0|0:0,0:0:0:0:
338,214,88837,1,2,0:0:0:0:
260,249,88994,6,0,B|180:266|180:266|141:247,1,120
9,108,89626,2,0,L|74:117,1,60,2|0,0:0|0:0,0:0:0:0:
142,73,89942,1,2,0:0:0:0:
260,224,90258,5,2,0:0:0:0:
264,235,90573,2,0,P|250:270|250:302,1,60,0|2,0:0|0:0,0:0:0:0:
337,179,90889,2,0,P|267:187|230:134,1,120,0|2,0:0|0:0,0:0:0:0:
194,85,91363,1,0,0:0:0:0:
130,156,91521,5,0,0:0:0:0:
393,80,91837,1,0,0:0:0:0:
314,318,92152,2,0,P|298:267|297:246,1,60,2|0,0:0|0:0,0:0:0:0:
359,198,92468,1,2,0:0:0:0:
392,374,92784,5,4,3:0:0:0:
198,272,92942,1,0,3:0:0:0:
198,272,93100,2,0,P|141:277|62:287,1,120,0|0,0:0|0:0,0:0:0:0:
278,195,93731,1,2,0:0:0:0:
350,242,93889,6,0,P|406:260|469:229,1,120,0|0,0:0|0:0,0:0:0:0:
512,331,94363,2,0,P|485:328|438:322,1,60,2|0,0:0|0:0,0:0:0:0:
339,384,94679,2,0,L|324:263,1,120,2|2,0:0|0:0,0:0:0:0:
198,103,95310,6,0,P|145:73|83:100,1,120,2|0,0:0|0:0,0:0:0:0:
0,198,95784,2,0,P|65:182|138:168,1,120,2|0,0:0|0:0,0:0:0:0:
196,218,96258,2,0,L|183:289,1,60,2|0,0:0|0:0,0:0:0:0:
102,339,96573,5,2,0:0:0:0:
106,350,96889,1,2,0:0:0:0:
215,384,97047,1,2,0:0:0:0:
324,316,97205,1,0,1:0:0:0:
305,169,97363,1,0,1:0:0:0:
249,245,97521,1,2,0:0:0:0:
336,333,97679,1,0,3:0:0:0:
389,145,97837,5,4,3:0:0:0:
171,277,97994,1,0,3:0:0:0:
171,277,98152,2,0,P|135:269|93:265,1,60,0|2,0:0|0:0,0:0:0:0:
243,340,98468,2,0,P|264:300|234:209,1,120,0|0,1:0|0:0,0:0:0:0:
190,172,98942,1,0,0:0:0:0:
259,119,99100,6,0,P|321:130|393:132,1,120,0|0,0:0|0:0,0:0:0:0:
169,27,99731,1,0,1:0:0:0:
235,279,100047,1,2,0:0:0:0:
10,167,100363,5,0,3:0:0:0:
17,177,100679,2,0,P|51:173|77:157,1,60,0|2,0:0|0:0,0:0:0:0:
111,31,100994,1,0,1:0:0:0:
111,31,101152,2,0,P|105:63|99:99,1,60,0|0,0:0|0:0,0:0:0:0:
157,156,101468,1,0,0:0:0:0:
239,100,101626,5,0,3:0:0:0:
319,364,101942,1,0,0:0:0:0:
82,276,102258,1,0,1:0:0:0:
376,173,102573,2,0,P|406:182|441:186,1,60,2|0,0:0|0:0,0:0:0:0:
499,134,102889,5,4,3:0:0:0:
392,299,103047,1,0,3:0:0:0:
392,299,103205,2,0,P|314:264|261:288,1,120,0|0,0:0|1:0,0:0:0:0:
72,359,103837,1,2,0:0:0:0:
156,384,103994,6,0,P|144:317|132:254,1,120,0|0,0:0|1:0,0:0:0:0:
183,192,104468,1,2,0:0:0:0:
0,319,104784,1,0,1:0:0:0:
251,379,105100,1,2,0:0:0:0:
135,104,105415,6,0,B|74:189|90:313|190:249|172:194|114:188,1,240,2|0,0:0|1:0,0:0:0:0:
14,344,106363,1,2,0:0:0:0:
14,344,106521,2,0,P|76:308|128:332,1,120,0|2,1:0|0:0,0:0:0:0:
226,379,106994,5,2,0:0:0:0:
209,272,107152,1,2,0:0:0:0:
192,166,107310,1,2,2:3:0:0:
117,322,107468,1,2,2:3:0:0:
307,199,107626,1,2,2:3:0:0:
92,117,107784,1,2,2:3:0:0:
285,296,107942,6,0,B|324:288|348:269|348:269|378:284|421:278,1,134.999995880127,4|2,0:0|3:2,0:0:0:0:
409,61,108415,2,0,P|399:127|392:194,1,134.999995880127,2|0,0:0|0:0,0:0:0:0:
489,152,108889,1,2,3:2:0:0:
310,80,109047,1,2,0:0:0:0:
310,80,109126,1,0,0:0:0:0:
310,80,109205,6,0,P|252:55|177:90,1,134.999995880127,2|2,3:2|3:2,0:0:0:0:
45,154,109679,1,0,0:0:0:0:
92,29,109837,2,0,P|98:62|107:114,1,67.4999979400635,2|0,3:2|0:0,0:0:0:0:
21,173,110152,1,2,3:2:0:0:
150,245,110310,1,2,0:0:0:0:
150,245,110389,1,0,1:0:0:0:
150,245,110468,6,0,P|222:236|284:230,1,134.999995880127,4|2,0:0|3:2,0:0:0:0:
447,369,110942,2,0,B|404:333|354:341|354:341|322:374,1,134.999995880127,2|0,0:0|0:0,0:0:0:0:
231,292,111415,1,2,3:2:0:0:
356,189,111573,6,0,B|373:107|373:107|341:53,1,134.999995880127,2|0,0:0|0:0,0:0:0:0:
108,172,112047,1,2,3:2:0:0:
280,232,112205,1,2,0:0:0:0:
83,162,112363,1,4,3:0:0:0:
266,52,112521,1,0,3:0:0:0:
183,239,112679,1,0,3:0:0:0:
0,121,112837,1,0,3:0:0:0:
232,296,112994,5,4,0:0:0:0:
232,296,113310,2,0,P|221:270|214:221,1,67.4999979400635,2|2,0:0|3:2,0:0:0:0:
301,369,113626,2,0,P|234:342|164:391,1,134.999995880127,8|2,0:0|3:2,0:0:0:0:
73,287,114100,2,0,P|107:297|161:287,1,67.4999979400635,2|0,3:2|0:0,0:0:0:0:
52,268,114415,1,8,0:0:0:0:
0,374,114573,2,0,P|34:362|70:363,1,67.4999979400635,0|0,3:0|3:0,0:0:0:0:
248,195,114889,5,8,0:0:0:0:
180,369,115047,1,8,0:0:0:0:
264,167,115205,1,4,3:0:0:0:
66,363,115363,1,4,3:0:0:0:
348,384,115521,1,4,0:0:0:0:
347,384,115837,6,0,P|343:350|336:317,1,67.4999979400635,2|2,0:0|3:2,0:0:0:0:
512,256,116152,2,0,B|473:255|447:270|447:270|413:245|369:239,1,134.999995880127,8|2,0:0|3:2,0:0:0:0:
444,37,116626,2,0,P|453:97|461:170,1,134.999995880127,2|0,3:2|0:0,0:0:0:0:
265,249,117100,1,8,0:0:0:0:
351,97,117258,1,0,3:0:0:0:
301,326,117415,1,8,0:0:0:0:
366,73,117573,1,8,0:0:0:0:
110,246,117731,2,0,P|206:228|241:223,1,101.249996910095,4|0,3:0|0:0,0:0:0:0:
240,239,118047,1,4,0:0:0:0:
454,66,118205,5,0,0:0:0:0:
267,122,118363,1,2,3:2:0:0:
439,232,118521,1,0,0:0:0:0:
439,232,118600,1,0,0:0:0:0:
439,232,118679,2,0,P|445:193|452:152,1,67.4999979400635,2|0,3:2|0:0,0:0:0:0:
320,227,118994,1,2,3:2:0:0:
484,354,119152,1,0,0:0:0:0:
484,354,119231,1,0,0:0:0:0:
484,354,119310,6,0,P|446:324|344:347,1,134.999995880127,2|2,3:2|3:2,0:0:0:0:
192,190,119784,1,0,0:0:0:0:
362,232,119942,1,2,3:2:0:0:
178,310,120100,1,0,0:0:0:0:
266,105,120258,2,0,P|271:140|276:172,1,67.4999979400635,2|0,3:2|0:0,0:0:0:0:
352,226,120494,1,0,0:0:0:0:
352,227,120573,6,0,B|399:190|457:203|457:203|446:227,1,134.999995880127,4|0,0:0|0:0,0:0:0:0:
397,311,120889,5,2,3:2:0:0:
266,105,121047,1,2,3:2:0:0:
512,137,121205,1,2,3:2:0:0:
246,279,121363,1,2,3:2:0:0:
492,311,121521,1,6,3:2:0:0:
268,370,121679,6,0,B|209:344|153:367|153:367|117:318|45:313,1,236.249992790222,8|0,0:0|0:0,0:0:0:0:
2,241,122468,6,0,P|15:207|117:216,1,146.249993305207,0|0,0:0|0:0,0:0:0:0:
184,252,122784,6,0,P|212:249|240:248,1,56.2500021457673,8|8,0:0|0:0,0:0:0:0:
356,239,122942,2,0,P|384:236|412:235,1,56.2500021457673,8|8,0:0|0:0,0:0:0:0:
511,121,123100,6,0,P|444:113|378:100,1,134.999995880127,4|0,1:0|0:0,0:0:0:0:
350,114,123415,1,8,0:0:0:0:
254,282,123573,1,0,0:0:0:0:
254,282,123652,1,0,0:0:0:0:
254,282,123731,2,0,P|298:263|345:275,1,89.9999972534181,2|0,0:0|3:0,0:0:0:0:
425,360,124047,1,8,0:0:0:0:
180,357,124205,6,0,B|130:324|130:324|65:372|2:345,1,179.999994506836,0|0,0:0|0:0,0:0:0:0:
63,117,124679,2,0,L|79:206,1,89.9999972534181,8|0,1:2|3:0,0:0:0:0:
303,75,124994,2,0,P|262:55|209:64,1,89.9999972534181,8|0,1:0|3:0,0:0:0:0:
92,3,125310,1,8,0:0:0:0:
186,157,125468,1,0,0:0:0:0:
0,287,125626,6,0,P|55:250|121:254,1,134.999995880127,4|0,1:0|0:0,0:0:0:0:
152,280,125942,1,8,0:0:0:0:
382,164,126100,2,0,B|341:151|295:171|295:171|258:136|210:141,1,179.999994506836,0|0,0:0|3:0,0:0:0:0:
294,270,126573,1,8,0:0:0:0:
101,233,126731,6,0,P|57:162|145:87,1,179.999994506836,0|0,3:0|0:0,0:0:0:0:
297,22,127205,2,0,P|291:66|286:111,1,89.9999972534181,8|0,1:2|3:0,0:0:0:0:
183,15,127521,1,8,1:2:0:0:
409,120,127679,1,0,3:0:0:0:
204,212,127837,2,0,B|164:201|139:184|139:184|113:198|66:202,1,134.999995880127,8|0,0:0|0:0,0:0:0:0:
3,140,128152,6,0,P|18:228|31:317,1,179.999994506836,4|8,3:0|0:0,0:0:0:0:
199,133,128626,2,0,P|196:154|193:177,1,44.999998626709,2|2,0:0|0:0,0:0:0:0:
177,275,128784,1,2,0:0:0:0:
106,100,128942,1,0,3:0:0:0:
353,198,129100,2,0,P|421:181|466:179,1,89.9999972534181,8|0,0:0|0:0,0:0:0:0:
264,352,129415,6,0,B|207:315|207:315|144:338,1,134.999995880127,0|0,3:0|0:0,0:0:0:0:
24,352,129731,2,0,B|81:315|81:315|143:338,1,134.999995880127,8|0,1:2|0:0,0:0:0:0:
130,109,130047,6,0,P|136:179|141:243,1,134.999995880127,8|0,1:2|0:0,0:0:0:0:
60,308,130363,6,0,P|53:272|42:243,1,44.999998626709,10|0,1:2|1:2,1:2:0:0:
209,352,130521,2,0,P|216:316|227:287,1,44.999998626709,0|0,1:2|0:0,0:0:0:0:
277,206,130679,6,0,B|319:181|319:181|356:201|419:209,1,134.999995880127,4|0,1:0|0:0,0:0:0:0:
473,149,130994,2,0,P|482:100|494:51,1,89.9999972534181,8|0,0:0|0:0,0:0:0:0:
512,320,131310,2,0,P|455:286|391:304,1,134.999995880127,4|0,1:0|0:0,0:0:0:0:
312,346,131626,2,0,P|270:341|223:335,1,89.9999972534181,8|0,0:0|0:0,0:0:0:0:
59,157,131942,5,4,1:0:0:0:
291,240,132100,1,0,3:0:0:0:
41,135,132258,1,8,0:0:0:0:
115,363,132415,1,0,3:0:0:0:
334,157,132573,5,4,3:0:0:0:
133,271,132731,1,0,3:0:0:0:
217,66,132889,2,0,P|222:108|228:155,1,89.9999972534181,4|0,3:0|0:0,0:0:0:0:
359,325,133205,6,0,B|456:299|456:299|502:312|502:371,1,179.999994506836,4|8,1:0|0:0,0:0:0:0:
340,214,133679,1,0,0:0:0:0:
467,117,133837,2,0,P|460:155|448:221,1,89.9999972534181,2|0,0:0|3:0,0:0:0:0:
248,135,134152,2,0,P|290:124|357:102,1,89.9999972534181,8|0,0:0|0:0,0:0:0:0:
222,320,134468,6,0,B|168:289|168:289|115:333|52:312,1,179.999994506836,4|8,1:0|0:0,0:0:0:0:
119,99,134942,1,4,3:0:0:0:
0,229,135100,2,0,P|42:213|126:206,1,89.9999972534181,2|0,0:0|3:0,0:0:0:0:
40,4,135415,2,0,P|32:48|16:146,1,134.999995880127,8|0,0:0|0:0,0:0:0:0:
86,205,135731,6,0,B|175:172|175:172|196:188|222:201,1,134.999995880127,4|0,3:0|0:0,0:0:0:0:
290,229,136047,2,0,P|339:218|393:214,1,89.9999972534181,8|0,0:0|0:0,0:0:0:0:
478,63,136363,2,0,P|469:105|461:161,1,89.9999972534181,2|0,0:0|3:0,0:0:0:0:
314,13,136679,2,0,P|328:71|344:110,1,89.9999972534181,8|0,0:0|0:0,0:0:0:0:
241,232,136994,6,0,B|196:218|196:218|140:235,1,89.9999972534181,4|0,3:0|3:0,0:0:0:0:
0,112,137310,2,0,P|44:107|89:100,1,89.9999972534181,8|0,0:0|3:0,0:0:0:0:
61,300,137626,2,0,P|55:255|50:210,1,89.9999972534181,8|0,0:0|0:0,0:0:0:0:
142,23,137942,1,10,0:0:0:0:
180,34,138021,1,2,0:0:0:0:
207,63,138100,1,2,0:0:0:0:
213,102,138179,1,2,0:0:0:0:
205,141,138258,5,4,1:2:0:0:
322,355,138415,1,0,3:0:0:0:
307,141,138573,5,4,1:2:0:0:
190,355,138731,1,0,3:0:0:0:
195,117,138889,5,4,1:2:0:0:
335,378,139047,1,0,3:0:0:0:
317,117,139205,5,4,1:2:0:0:
177,378,139363,1,0,3:0:0:0:
397,247,139521,5,4,1:2:0:0:
96,299,139679,1,0,3:0:0:0:
372,173,139837,5,4,1:2:0:0:
79,306,139994,1,0,3:0:0:0:
317,117,140152,5,4,1:2:0:0:
62,313,140310,1,0,3:0:0:0:
248,85,140468,5,4,1:2:0:0:
44,323,140626,1,0,3:0:0:0:
106,34,140784,5,4,1:2:0:0:
178,368,140942,1,4,3:2:0:0:
178,368,141258,6,0,P|266:353|296:356,1,89.9999972534181,2|8,3:2|0:0,0:0:0:0:
177,165,141573,2,0,P|158:204|161:249,1,89.9999972534181,2|8,3:2|0:0,0:0:0:0:
358,355,141889,2,0,B|414:331|476:361|476:361|508:339|496:298,1,179.999994506836,4|2,0:0|0:0,0:0:0:0:
382,229,142363,1,10,0:0:0:0:
367,191,142442,1,2,0:0:0:0:
368,150,142521,1,2,0:0:0:0:
378,110,142600,1,2,0:0:0:0:
391,71,142679,1,10,0:0:0:0:
377,32,142758,1,2,0:0:0:0:
339,16,142837,1,2,0:0:0:0:
298,16,142915,1,2,0:0:0:0:
271,46,142994,1,10,0:0:0:0:
265,86,143073,1,2,0:0:0:0:
282,122,143152,1,2,0:0:0:0:
318,139,143231,1,2,0:0:0:0:
358,136,143310,5,6,0:0:0:0:
318,120,153415,5,2,0:0:0:0:
318,120,153889,1,2,0:0:0:0:
322,109,154047,2,0,P|316:76|302:43,1,60,2|0,0:0|0:0,0:0:0:0:
226,22,154363,1,0,1:0:0:0:
291,191,154521,1,2,0:0:0:0:
188,356,154837,5,2,0:0:0:0:
108,295,154994,1,2,0:0:0:0:
9,313,155152,1,2,0:0:0:0:
291,257,155468,5,2,0:0:0:0:
344,191,155626,1,0,0:0:0:0:
324,109,155784,1,2,0:0:0:0:
262,51,155942,2,0,P|207:62|139:68,1,120,2|0,0:0|0:0,0:0:0:0:
49,17,156415,1,2,0:0:0:0:
0,193,156731,1,2,0:0:0:0:
49,367,157047,1,2,0:0:0:0:
125,317,157205,6,0,P|203:316|237:362,1,120,2|2,0:0|0:0,0:0:0:0:
386,199,157837,2,0,P|328:215|264:223,1,120,0|2,1:0|0:0,0:0:0:0:
123,108,158468,5,0,3:0:0:0:
128,119,158784,2,0,L|143:49,1,60,2|0,0:0|0:0,0:0:0:0:
210,13,159100,1,0,1:0:0:0:
14,121,159415,1,2,0:0:0:0:
75,184,159573,6,0,P|141:168|213:156,1,120,2|0,0:0|0:0,0:0:0:0:
320,227,160047,2,0,P|345:188|305:110,1,120,2|0,0:0|1:0,0:0:0:0:
246,283,160521,1,2,0:0:0:0:
356,324,160679,1,2,0:0:0:0:
227,184,160837,1,2,0:0:0:0:
224,184,160915,1,0,0:0:0:0:
221,184,160994,5,4,3:0:0:0:
256,192,161073,12,0,162218,0:0:0:0:
95,107,163205,5,0,0:0:0:0:
95,107,163363,1,0,0:0:0:0:
63,189,163521,6,0,P|109:152|180:166,1,120,2|0,0:0|0:0,0:0:0:0:
273,61,163994,1,2,0:0:0:0:
273,61,164073,1,2,0:0:0:0:
273,61,164152,2,0,P|265:88|258:130,1,60,2|0,0:0|0:0,0:0:0:0:
145,12,164468,2,0,P|160:55|177:78,1,60,0|0,0:0|0:0,0:0:0:0:
342,114,164784,6,0,P|372:108|425:100,1,60,0|0,0:0|0:0,0:0:0:0:
495,223,165100,2,0,P|427:229|390:186,2,120,2|2|2,0:0|0:0|0:0,0:0:0:0:
440,382,165889,1,0,0:0:0:0:
506,316,166047,6,0,B|463:335|463:335|365:309,1,120,2|0,0:0|0:0,0:0:0:0:
228,260,166521,2,0,P|275:227|339:239,1,120
392,316,166994,1,0,0:0:0:0:
250,378,167152,6,0,P|197:369|125:358,1,120
49,373,167626,1,2,0:0:0:0:
256,192,167942,1,2,0:0:0:0:
463,373,168258,1,2,0:0:0:0:
469,361,168573,6,0,P|423:321|346:339,1,120,2|0,0:0|0:0,0:0:0:0:
264,379,169047,1,2,0:0:0:0:
264,379,169126,1,2,0:0:0:0:
264,379,169205,2,0,P|271:339|282:303,1,60,2|0,0:0|0:0,0:0:0:0:
174,259,169521,2,0,P|181:288|186:317,1,60,0|0,0:0|0:0,0:0:0:0:
97,369,169837,6,0,L|28:363,1,60,0|0,0:0|0:0,0:0:0:0:
107,278,170152,2,0,P|113:221|54:168,2,120,2|2|2,0:0|0:0|0:0,0:0:0:0:
320,242,171100,6,0,B|395:254|395:254|435:222,1,120,2|0,0:0|0:0,0:0:0:0:
308,157,171573,1,0,0:0:0:0:
237,234,171731,2,0,P|246:293|255:352,1,120,2|0,0:0|0:0,0:0:0:0:
512,274,172363,6,0,P|449:292|399:245,1,120,2|0,0:0|0:0,0:0:0:0:
309,120,172837,1,4,3:0:0:0:
309,120,172915,1,4,3:0:0:0:
309,120,172994,1,4,2:3:0:0:
438,171,173152,1,0,3:0:0:0:
293,230,173310,1,0,0:0:0:0:
393,84,173468,1,0,3:0:0:0:
214,26,173626,6,0,P|195:151|194:159,1,134.999995880127,4|2,0:0|3:2,0:0:0:0:
256,289,174100,1,0,0:0:0:0:
67,258,174258,2,0,B|143:234|143:234|175:246|180:283,1,134.999995880127,8|0,0:0|0:0,0:0:0:0:
113,352,174731,1,0,0:0:0:0:
256,289,174889,6,0,P|324:259|383:318,1,134.999995880127,2|2,3:2|3:2,0:0:0:0:
432,109,175363,1,0,0:0:0:0:
491,187,175521,2,0,B|447:211|447:211|358:191,1,134.999995880127,8|0,0:0|0:0,0:0:0:0:
279,129,175994,1,0,0:0:0:0:
355,26,176152,6,0,P|361:59|369:100,1,67.4999979400635,2|0,3:2|0:0,0:0:0:0:
253,155,176468,2,0,P|217:144|178:142,1,67.4999979400635,0|0,0:0|0:0,0:0:0:0:
60,57,176784,2,0,P|93:51|126:46,1,67.4999979400635,8|0,0:0|0:0,0:0:0:0:
107,210,177100,2,0,P|101:174|98:131,1,67.4999979400635,2|0,3:2|0:0,0:0:0:0:
242,26,177415,6,0,P|236:68|230:126,1,101.249996910095,2|0,0:0|0:0,0:0:0:0:
193,208,177731,6,0,P|236:175|310:197,1,112.5,8|0,0:0|0:0,0:0:0:0:
372,226,178047,6,0,B|422:218|422:218|431:215|431:215|442:216|442:216|514:205,1,123.75000377655,8|0,0:0|0:0,0:0:0:0:
445,123,178363,6,0,B|412:105|393:80|393:80|364:98|328:97,1,134.999995880127,8|0,0:0|0:0,0:0:0:0:
246,49,178679,5,4,1:2:0:0:
296,284,178837,1,0,3:0:0:0:
241,38,178994,5,4,1:2:0:0:
221,294,179152,1,0,3:0:0:0:
235,25,179310,5,4,1:2:0:0:
148,299,179468,1,0,3:0:0:0:
230,14,179626,5,0,0:0:0:0:
74,299,179784,1,0,3:0:0:0:
334,187,179942,5,4,1:2:0:0:
63,112,180100,1,0,3:0:0:0:
345,186,180258,5,4,1:2:0:0:
39,268,180415,1,0,3:0:0:0:
357,186,180573,5,4,1:0:0:0:
36,102,180731,1,0,3:0:0:0:
368,185,180889,5,4,1:2:0:0:
10,274,181047,1,0,3:0:0:0:
238,22,181205,5,4,1:0:0:0:
201,358,181363,1,4,1:0:0:0:
453,194,181679,6,0,P|408:178|366:185,1,89.9999972534181,4|0,3:0|0:0,0:0:0:0:
238,21,181994,2,0,L|251:110,1,89.9999972534181,4|0,3:0|0:0,0:0:0:0:
147,234,182310,2,0,B|42:259|42:259|9:234,1,134.999995880127,8|0,0:0|0:0,0:0:0:0:
0,218,182626,1,2,0:0:0:0:
242,361,182784,6,0,P|238:339|235:317,1,44.999998626709,0|0,0:0|0:0,0:0:0:0:
334,206,182942,2,0,L|337:228|340:250,1,44.999998626709,2|0,0:0|0:0,0:0:0:0:
146,353,183100,1,8,0:0:0:0:
101,360,183179,1,8,0:0:0:0:
57,348,183258,1,8,0:0:0:0:
25,315,183337,1,8,0:0:0:0:
10,272,183415,1,8,0:0:0:0:
17,227,183494,1,8,0:0:0:0:
42,189,183573,1,8,0:0:0:0:
83,171,183652,1,8,0:0:0:0:
127,175,183731,6,0,P|123:197|120:219,1,44.999998626709,8|8,0:0|0:0,0:0:0:0:
265,326,183889,1,8,0:0:0:0:
291,308,183968,1,8,0:0:0:0:
321,299,184047,1,8,0:0:0:0:
352,301,184126,1,8,0:0:0:0:
383,304,184205,1,8,0:0:0:0:
411,320,184284,1,8,0:0:0:0:
431,337,184363,6,0,B|460:358|460:358|495:324|488:266|453:224,1,165.000005035401,4|8,0:0|0:0,0:0:0:0:
323,130,184836,2,0,P|329:171|335:213,1,82.5000025177003,2|0,0:0|0:0,0:0:0:0:
435,131,185152,1,0,0:0:0:0:
248,36,185310,2,0,P|229:72|232:121,1,82.5000025177003,8|0,0:0|0:0,0:0:0:0:
172,281,185626,6,0,B|125:281|91:258|91:258|57:293|8:301,1,165.000005035401,2|8,0:0|0:0,0:0:0:0:
47,37,186099,2,0,P|31:115|19:200,1,165.000005035401,2|0,0:0|0:0,0:0:0:0:
141,356,186573,2,0,P|190:323|260:355,1,123.75000377655,8|0,0:0|0:0,0:0:0:0:
279,357,186889,6,0,P|324:351|364:348,1,82.5000025177003,2|0,0:0|0:0,0:0:0:0:
287,171,187205,1,8,0:0:0:0:
512,234,187363,2,0,P|451:281|358:235,1,165.000005035401,2|0,0:0|0:0,0:0:0:0:
213,145,187836,2,0,P|217:185|221:227,1,82.5000025177003,8|0,0:0|0:0,0:0:0:0:
31,355,188152,6,0,B|95:329|95:329|126:370|192:364,1,165.000005035401,2|8,0:0|0:0,0:0:0:0:
386,239,188626,2,0,B|296:207|296:207|246:225|260:286,1,165.000005035401,2|0,0:0|0:0,0:0:0:0:
306,343,189099,1,8,0:0:0:0:
127,205,189257,1,0,0:0:0:0:
127,205,189336,1,0,0:0:0:0:
127,205,189415,6,0,P|107:123|166:59,1,165.000005035401,2|8,0:0|0:0,0:0:0:0:
353,131,189889,2,0,B|238:162|238:162|195:145,1,165.000005035401,2|0,0:0|0:0,0:0:0:0:
318,32,190363,2,0,P|362:37|399:42,1,82.5000025177003,8|0,0:0|0:0,0:0:0:0:
509,234,190678,6,0,P|457:262|380:234,1,123.75000377655,2|0,0:0|0:0,0:0:0:0:
308,224,190994,2,0,P|314:262|324:326,1,82.5000025177003,8|0,0:0|0:0,0:0:0:0:
459,94,191310,2,0,P|453:131|445:192,1,82.5000025177003,2|0,0:0|0:0,0:0:0:0:
288,57,191626,2,0,B|254:56|230:72|230:72|200:55|154:66,1,123.75000377655,8|0,0:0|0:0,0:0:0:0:
78,24,191941,6,0,L|86:85|94:146,1,123.75000377655,4|0,0:0|0:0,0:0:0:0:
74,183,192257,2,0,P|80:202|86:228,1,41.2500012588501,2|0,0:0|0:0,0:0:0:0:
171,249,192415,2,0,P|167:276|158:314,1,41.2500012588501,2|0,0:0|0:0,0:0:0:0:
0,378,192573,6,0,P|56:345|129:366,1,123.75000377655,12|0,0:0|0:0,0:0:0:0:
148,373,192889,2,0,P|174:368|202:365,1,41.2500012588501,8|0,0:0|0:0,0:0:0:0:
271,329,193047,2,0,P|294:333|323:339,1,41.2500012588501,8|0,0:0|0:0,0:0:0:0:
463,375,193205,6,0,B|448:327|448:327|456:296|468:247,1,123.75000377655,4|0,0:0|0:0,0:0:0:0:
480,222,193520,2,0,P|478:202|475:181,1,41.2500012588501,8|0,0:0|0:0,0:0:0:0:
410,118,193678,2,0,P|411:97|414:76,1,41.2500012588501,2|0,0:0|0:0,0:0:0:0:
495,13,193836,5,4,3:0:0:0:
327,86,193994,1,4,3:0:0:0:
475,181,194152,2,0,B|492:157|492:157|442:126|349:181,1,146.249993305207,4|0,3:0|0:0,0:0:0:0:
302,207,194468,6,0,B|253:200|226:178|226:178|189:195|138:187,1,165.000005035401,4|8,0:0|0:0,0:0:0:0:
57,17,194941,1,0,0:0:0:0:
223,90,195099,1,2,0:0:0:0:
38,221,195257,1,2,3:2:0:0:
152,17,195415,2,0,P|145:78|137:139,1,123.75000377655,8|0,0:0|0:0,0:0:0:0:
200,212,195731,6,0,P|244:177|354:195,1,165.000005035401,4|8,0:0|0:0,0:0:0:0:
470,22,196205,2,0,B|456:69|447:102|447:102|472:137|473:178,1,165.000005035401,2|0,0:0|0:0,0:0:0:0:
252,45,196678,2,0,P|313:37|374:25,1,123.75000377655,8|0,0:0|0:0,0:0:0:0:
398,58,196994,5,4,0:0:0:0:
247,288,197310,1,8,0:0:0:0:
109,164,197468,1,2,0:0:0:0:
317,236,197626,1,0,0:0:0:0:
154,370,197784,2,0,P|148:327|135:274,1,82.5000025177003,2|8,3:2|0:0,0:0:0:0:
250,143,198099,6,0,P|306:102|398:123,1,165.000005035401,2|2,0:0|0:0,0:0:0:0:
497,21,198573,1,8,0:0:0:0:
453,242,198731,1,2,3:2:0:0:
250,143,198889,1,8,0:0:0:0:
286,136,198968,1,8,0:0:0:0:
322,130,199047,1,8,0:0:0:0:
358,124,199126,1,8,0:0:0:0:
394,120,199205,6,0,L|387:164,1,41.2500012588501,8|0,0:0|0:0,0:0:0:0:
315,250,199363,2,0,P|318:270|323:292,1,41.2500012588501,8|0,0:0|0:0,0:0:0:0:
424,360,199520,5,4,1:0:0:0:
166,272,199678,1,0,3:0:0:0:
394,120,199836,5,4,1:0:0:0:
294,371,199994,1,0,3:0:0:0:
211,151,200152,5,4,1:0:0:0:
453,262,200310,1,0,0:0:0:0:
327,5,200468,6,0,P|313:76|304:149,1,146.249993305207,2|0,0:0|0:0,0:0:0:0:
339,242,200784,5,4,1:0:0:0:
109,26,200941,1,0,3:0:0:0:
411,169,201099,5,4,1:0:0:0:
82,101,201257,1,0,3:0:0:0:
396,66,201415,5,4,1:0:0:0:
53,174,201573,1,0,3:0:0:0:
314,3,201731,5,8,0:0:0:0:
38,255,201889,1,8,0:0:0:0:
38,255,201968,1,8,0:0:0:0:
38,255,202047,1,4,0:0:0:0:
426,384,202205,6,0,L|443:280,1,97.4999955368044,2|8,0:0|0:0,0:0:0:0:
265,113,202520,2,0,L|252:161|267:215,1,97.4999955368044,2|8,0:0|0:0,0:0:0:0:
488,92,202836,2,0,P|437:95|388:68,1,97.4999955368044,2|8,0:0|0:0,0:0:0:0:
227,290,203152,1,8,0:0:0:0:
227,290,203231,1,8,0:0:0:0:
227,290,203310,6,0,P|231:313|239:360,1,48.7499977684022,8|8,0:0|0:0,0:0:0:0:
335,196,203468,2,0,P|330:219|323:266,1,48.7499977684022,8|8,0:0|0:0,0:0:0:0:
216,130,203626,2,0,P|220:153|228:200,1,48.7499977684022,8|8,0:0|0:0,0:0:0:0:
324,36,203784,2,0,P|319:59|312:106,1,48.7499977684022,8|8,0:0|0:0,0:0:0:0:
151,229,203941,1,8,0:0:0:0:
119,198,204020,1,8,0:0:0:0:
75,198,204099,1,8,0:0:0:0:
34,214,204178,1,8,0:0:0:0:
2,245,204257,6,0,P|8:264|17:318,1,48.7499977684022,8|8,0:0|0:0,0:0:0:0:
131,150,204415,2,0,P|125:169|116:223,1,48.7499977684022,8|0,0:0|0:0,0:0:0:0:
331,365,204889,6,0,P|326:337|322:309,1,56.2500021457673,0|0,0:0|0:0,0:0:0:0:
411,194,205047,2,0,P|415:221|419:249,1,56.2500021457673,0|0,0:0|0:0,0:0:0:0:
236,344,205205,6,0,P|186:307|95:331,1,134.999995880127,4|0,1:0|0:0,0:0:0:0:
84,338,205520,1,8,0:0:0:0:
219,136,205678,1,0,0:0:0:0:
219,136,205757,1,0,0:0:0:0:
219,136,205836,2,0,P|232:176|232:224,1,89.9999972534181,2|0,0:0|3:0,0:0:0:0:
132,190,206152,1,8,0:0:0:0:
319,342,206310,6,0,B|355:326|408:342|408:342|439:305|495:303,1,179.999994506836,0|0,0:0|0:0,0:0:0:0:
403,128,206783,2,0,P|392:168|384:217,1,89.9999972534181,8|0,1:2|3:0,0:0:0:0:
249,30,207099,2,0,P|264:105|278:139,1,89.9999972534181,8|0,1:0|3:0,0:0:0:0:
360,32,207415,1,8,0:0:0:0:
147,170,207573,1,0,0:0:0:0:
323,273,207731,6,0,P|395:261|456:254,1,134.999995880127,4|0,1:0|0:0,0:0:0:0:
491,271,208047,1,8,0:0:0:0:
271,362,208205,2,0,B|153:323|153:323|132:348|107:355,1,179.999994506836,0|0,0:0|3:0,0:0:0:0:
243,242,208678,1,8,0:0:0:0:
124,112,208836,6,0,P|56:166|65:252,1,179.999994506836,0|0,3:0|0:0,0:0:0:0:
245,116,209310,2,0,P|239:71|232:27,1,89.9999972534181,8|0,1:2|3:0,0:0:0:0:
425,224,209626,2,0,P|379:207|317:198,1,89.9999972534181,8|0,1:2|3:0,0:0:0:0:
383,63,209941,1,8,0:0:0:0:
211,239,210099,1,0,0:0:0:0:
211,239,210178,1,0,0:0:0:0:
211,239,210257,6,0,B|157:206|157:206|103:248|31:224,1,179.999994506836,4|8,3:0|0:0,0:0:0:0:
208,10,210731,2,0,L|220:88,1,44.999998626709,2|2,0:0|0:0,0:0:0:0:
230,150,210889,1,2,0:0:0:0:
92,51,211047,1,0,3:0:0:0:
360,115,211205,1,8,0:0:0:0:
168,284,211362,1,0,0:0:0:0:
168,284,211441,1,0,0:0:0:0:
168,284,211520,6,0,L|159:217|150:150,1,134.999995880127,0|0,3:0|0:0,0:0:0:0:
256,53,211836,2,0,P|248:119|239:186,1,134.999995880127,8|0,1:2|0:0,0:0:0:0:
292,297,212152,6,0,B|231:265|231:265|167:284,1,134.999995880127,8|0,1:2|0:0,0:0:0:0:
84,366,212468,6,0,P|111:364|143:347,1,44.999998626709,10|0,1:2|0:0,0:0:0:0:
0,277,212626,2,0,P|27:279|59:296,1,44.999998626709,0|0,1:2|0:0,0:0:0:0:
136,210,212783,6,0,P|157:140|117:76,1,134.999995880127,4|0,1:0|0:0,0:0:0:0:
47,59,213099,2,0,L|62:156,1,89.9999972534181,8|0,0:0|0:0,0:0:0:0:
242,204,213415,2,0,B|310:214|299:166|378:182,1,134.999995880127,4|0,1:0|0:0,0:0:0:0:
432,251,213731,2,0,P|386:280|346:262,1,89.9999972534181,8|0,0:0|0:0,0:0:0:0:
46,364,214047,5,4,1:0:0:0:
264,264,214205,1,0,3:0:0:0:
128,129,214362,1,8,0:0:0:0:
264,362,214520,1,0,3:0:0:0:
270,128,214678,5,4,3:0:0:0:
56,261,214836,1,0,3:0:0:0:
264,362,214994,2,0,P|312:351|377:348,1,89.9999972534181,4|0,3:0|0:0,0:0:0:0:
502,246,215310,6,0,B|470:209|413:208|413:208|376:252|301:233,1,179.999994506836,4|8,1:0|0:0,0:0:0:0:
222,45,215783,1,0,0:0:0:0:
344,118,215941,2,0,P|394:109|460:97,1,89.9999972534181,2|0,0:0|3:0,0:0:0:0:
207,245,216257,2,0,P|194:198|223:152,1,89.9999972534181,8|0,0:0|0:0,0:0:0:0:
483,359,216573,6,0,P|460:310|341:341,1,179.999994506836,4|8,1:0|0:0,0:0:0:0:
207,245,217047,1,4,3:0:0:0:
310,84,217205,2,0,B|329:130|329:130|311:167|309:218,1,134.999995880127,2|0,0:0|0:0,0:0:0:0:
386,267,217520,2,0,P|446:247|496:254,1,89.9999972534181,8|0,0:0|0:0,0:0:0:0:
204,321,217836,6,0,P|212:276|214:231,1,89.9999972534181,4|8,3:0|3:0,0:0:0:0:
96,118,218152,2,0,P|96:127|111:221,1,89.9999972534181,8|0,0:0|0:0,0:0:0:0:
317,292,218468,2,0,B|361:280|361:280|418:294,1,89.9999972534181,2|0,0:0|3:0,0:0:0:0:
141,369,218783,2,0,B|97:357|97:357|40:371,1,89.9999972534181,8|0,0:0|0:0,0:0:0:0:
18,188,219099,6,0,P|62:196|106:206,1,89.9999972534181,4|0,3:0|3:0,0:0:0:0:
214,28,219415,2,0,P|203:69|188:136,1,89.9999972534181,8|0,0:0|3:0,0:0:0:0:
343,217,219731,2,0,P|384:197|436:197,1,89.9999972534181,0|8,0:0|0:0,0:0:0:0:
222,353,220047,1,8,0:0:0:0:
190,327,220126,1,8,0:0:0:0:
150,317,220205,1,8,0:0:0:0:
110,320,220283,1,8,0:0:0:0:
75,340,220362,5,4,1:2:0:0:
347,374,220520,1,0,3:0:0:0:
83,246,220678,5,4,1:2:0:0:
355,280,220836,1,0,3:0:0:0:
95,159,220994,5,4,1:2:0:0:
367,193,221152,1,0,3:0:0:0:
108,74,221310,5,4,1:2:0:0:
380,108,221468,1,0,3:0:0:0:
233,309,221626,5,4,1:2:0:0:
108,74,221783,1,0,3:0:0:0:
218,329,221941,5,4,1:2:0:0:
114,61,222099,1,0,3:0:0:0:
203,349,222257,5,4,1:2:0:0:
122,49,222415,1,0,3:0:0:0:
188,367,222573,5,4,1:2:0:0:
128,37,222731,1,0,3:0:0:0:
29,281,222889,5,4,1:2:0:0:
431,188,223047,1,4,3:2:0:0:
431,188,223362,6,0,P|390:160|323:180,1,89.9999972534181,2|8,3:2|0:0,0:0:0:0:
218,0,223678,2,0,L|226:44|234:88,1,89.9999972534181,2|8,3:2|0:0,0:0:0:0:
144,248,223994,2,0,B|91:220|26:254|26:254|-12:234|2:191,1,179.999994506836,4|2,0:0|0:0,0:0:0:0:
226,356,224468,1,10,0:0:0:0:
250,323,224547,1,2,0:0:0:0:
287,308,224626,1,2,0:0:0:0:
327,309,224705,1,2,0:0:0:0:
363,324,224783,1,10,0:0:0:0:
395,348,224862,1,0,0:0:0:0:
431,366,224941,1,2,0:0:0:0:
471,366,225020,1,2,0:0:0:0:
502,340,225099,6,0,P|505:312|512:277,1,44.999998626709,10|2,0:0|0:0,0:0:0:0:
409,214,225257,2,0,L|414:258,1,44.999998626709,2|2,0:0|0:0,0:0:0:0:
488,137,225415,5,6,0:0:0:0:
477,133,225731,1,2,0:0:0:0:
403,92,225889,2,0,P|343:102|284:109,1,120,2|0,0:0|0:0,0:0:0:0:
201,28,226362,2,0,P|236:35|267:39,1,60,2|2,0:0|0:0,0:0:0:0:
343,16,226678,5,2,0:0:0:0:
413,245,226994,1,2,0:0:0:0:
183,315,227310,1,2,0:0:0:0:
113,86,227626,1,2,0:0:0:0:
113,86,227783,1,2,0:0:0:0:
174,147,227941,6,0,P|227:154|281:113,1,120,2|0,0:0|0:0,0:0:0:0:
352,47,228415,2,0,P|329:186|328:193,1,120,2|0,0:0|0:0,0:0:0:0:
435,230,228889,2,0,P|431:183|415:157,1,60,2|0,0:0|0:0,0:0:0:0:
297,297,229205,5,2,0:0:0:0:
486,361,229520,1,2,0:0:0:0:
256,192,229836,1,2,0:0:0:0:
26,361,230152,2,0,P|111:350|134:347,1,90,2|0,0:0|0:0,0:0:0:0:
128,358,230468,5,2,0:0:0:0:
186,297,230626,1,2,0:0:0:0:
156,218,230783,1,2,0:0:0:0:
80,181,230941,2,0,P|147:174|212:159,1,120,2|0,0:0|0:0,0:0:0:0:
266,98,231415,2,0,P|265:66|244:32,1,60,2|0,0:0|0:0,0:0:0:0:
330,167,231731,6,0,P|404:180|445:138,1,120,2|2,0:0|0:0,0:0:0:0:
512,80,232205,1,0,0:0:0:0:
512,80,232362,2,0,P|457:71|380:59,1,120,2|2,0:0|0:0,0:0:0:0:
204,153,232994,6,0,P|223:189|222:230,1,60,2|0,0:0|0:0,0:0:0:0:
176,277,233310,1,0,0:0:0:0:
405,384,233626,2,0,P|418:298|434:248,1,120,2|0,0:0|0:0,0:0:0:0:
482,203,234099,1,0,0:0:0:0:
414,129,234257,6,0,P|361:108|294:158,1,120,2|0,0:0|0:0,0:0:0:0:
253,206,234731,1,0,0:0:0:0:
202,90,234889,1,2,0:0:0:0:
194,81,235205,2,0,P|184:127|180:162,1,60,2|0,0:0|0:0,0:0:0:0:
253,206,235520,6,0,B|300:208|326:172|326:172|381:198|381:198|361:123|397:93|446:83|482:105|480:145|480:145|456:123|431:127,1,391.500003285599,2|0,0:0|0:0,0:0:0:0:
442,126,236626,1,0,0:0:0:0:
512,229,236783,6,0,P|500:277|481:376,1,130.5000010952,2|2,0:0|0:0,0:0:0:0:
292,232,237415,2,0,P|322:223|356:217,1,65.2500005475998,2|0,0:0|0:0,0:0:0:0:
433,143,237731,2,0,P|403:134|368:127,1,65.2500005475998,2|0,0:0|0:0,0:0:0:0:
256,92,238047,6,0,B|232:121|228:161|248:199|248:199|199:207|176:264|203:309|253:324|289:296|289:296|313:317|342:313,1,360,2|0,0:0|0:0,0:0:0:0:
329,313,239310,6,0,B|342:279|329:253|329:253|357:211|366:167|337:143|294:163|295:190|316:202,1,210,2|0,0:0|0:0,0:0:0:0:
292,204,239941,5,2,0:0:0:0:
208,216,240099,1,2,0:0:0:0:
132,179,240257,1,2,0:0:0:0:
48,191,240415,1,2,0:0:0:0:
292,204,240573,5,2,0:0:0:0:
256,192,240652,12,2,243099,0:0:0:0:
