osu file format v14

[General]
AudioFilename: owoozo.mp3
AudioLeadIn: 0
PreviewTime: 163126
Countdown: 0
SampleSet: Soft
StackLeniency: 0.5
Mode: 0
LetterboxInBreaks: 0
WidescreenStoryboard: 0

[Editor]
DistanceSpacing: 1
BeatDivisor: 4
GridSize: 16
TimelineZoom: 2

[Metadata]
Title:Re:TrymenT
TitleUnicode:Re:TrymenT
Artist:Hotaru Murasaki
ArtistUnicode:紫咲ほたる
Creator:Komore
Version:Easy
Source:Re:LieF〜親愛なるあなたへ〜
Tags:retryment rask relief Shin'ainaru Anata e opening full eroge visual novel amari saya piano dailycare garden irohas joker- mugiwarasekai
BeatmapID:1397686
BeatmapSetID:625986

[Difficulty]
HPDrainRate:3
CircleSize:2.3
OverallDifficulty:2
ApproachRate:3
SliderMultiplier:1
SliderTickRate:1

[Events]
//Background and Video events
0,0,"aaa.jpg",0,0
//Break Periods
2,77826,86291
2,143510,151975
//Storyboard Layer 0 (Background)
//Storyboard Layer 1 (Fail)
//Storyboard Layer 2 (Pass)
//Storyboard Layer 3 (Foreground)
//Storyboard Sound Samples

[TimingPoints]
1837,315.789473684211,4,2,1,50,1,184362
9415,-100,4,2,1,55,0,184362
10600,-100,4,2,1,35,0,184362
10679,-100,4,2,1,60,0,184362
11942,-100,4,2,1,67,0,184362
22047,-100,4,2,1,50,0,184362
42258,-100,4,2,1,60,0,184362
44705,-100,4,2,1,35,0,184362
44784,-100,4,2,1,60,0,184362
46679,-100,4,2,1,65,0,184362
47626,-100,4,2,1,61,0,184362
52284,-100,4,2,1,35,0,184362
52363,-100,4,2,1,65,0,184362
55126,-100,4,2,1,35,0,184362
55205,-100,4,2,1,65,0,184362
55994,-100,4,2,1,50,0,184362
56705,-100,4,2,1,35,0,184362
56784,-100,4,2,2,50,0,184362
57415,-100,4,2,1,70,0,184362
57652,-100,4,2,1,35,0,184362
57731,-100,4,2,1,70,0,184362
60179,-100,4,2,1,35,0,184362
60258,-100,4,2,1,70,0,184362
63968,-100,4,2,1,35,0,184362
64047,-100,4,2,1,70,0,184362
64284,-100,4,2,1,35,0,184362
64363,-100,4,2,1,70,0,184362
64600,-100,4,2,1,35,0,184362
64679,-100,4,2,1,70,0,184362
64915,-100,4,2,1,35,0,184362
64994,-100,4,2,1,70,0,184362
65231,-100,4,2,1,35,0,184362
65310,-100,4,2,1,70,0,184362
65863,-100,4,2,1,35,0,184362
65942,-100,4,2,1,70,0,184362
69652,-100,4,2,1,35,0,184362
69731,-100,4,2,1,70,0,184362
72573,-100,4,2,1,75,0,184362
86310,-100,4,2,1,50,0,184362
107942,-100,4,2,1,60,0,184362
110389,-100,4,2,1,35,0,184362
110468,-100,4,2,1,60,0,184362
112363,-100,4,2,1,65,0,184362
113310,-100,4,2,1,61,0,184362
117968,-100,4,2,1,35,0,184362
118047,-100,4,2,1,65,0,184362
120810,-100,4,2,1,35,0,184362
120889,-100,4,2,1,65,0,184362
121679,-100,4,2,1,50,0,184362
122389,-100,4,2,1,35,0,184362
122468,-100,4,2,2,65,0,184362
122705,-100,4,2,1,35,0,184362
122784,-100,4,2,1,68,0,184362
123100,-100,4,2,1,75,0,184362
123337,-100,4,2,1,35,0,184362
123415,-100,4,2,1,75,0,184362
125863,-100,4,2,1,35,0,184362
125942,-100,4,2,1,75,0,184362
128073,-100,4,2,1,35,0,184362
128152,-100,4,2,1,75,0,184362
129652,-100,4,2,1,35,0,184362
129731,-100,4,2,1,75,0,184362
129968,-100,4,2,1,35,0,184362
130047,-100,4,2,1,75,0,184362
130284,-100,4,2,1,35,0,184362
130363,-100,4,2,1,60,0,184362
130679,-100,4,2,1,75,0,184362
130915,-100,4,2,1,35,0,184362
130994,-100,4,2,1,75,0,184362
131547,-100,4,2,1,35,0,184362
131626,-100,4,2,1,75,0,184362
135652,-100,4,2,1,35,0,184362
135731,-100,4,2,1,75,0,184362
135968,-100,4,2,1,35,0,184362
136047,-100,4,2,1,75,0,184362
138258,-100,4,2,1,78,0,184362
153415,-100,4,2,1,50,0,184362
173626,-100,4,2,1,60,0,184362
177652,-100,4,2,1,35,0,184362
177731,-100,4,2,1,62,0,184362
177968,-100,4,2,1,35,0,184362
178047,-100,4,2,1,64,0,184362
178284,-100,4,2,1,35,0,184362
178363,-100,4,2,1,66,0,184362
178600,-100,4,2,1,35,0,184362
178679,-100,4,2,1,68,0,184362
182547,-100,4,2,1,35,0,184362
182626,-100,4,2,1,70,0,184362
183731,-100,4,2,1,50,0,184362
184363,315.789473684211,4,2,1,65,1,0
184363,-100,4,2,1,65,0,0
186810,-100,4,2,1,35,0,0
186889,-100,4,2,1,65,0,0
190915,-100,4,2,1,35,0,0
190994,-100,4,2,1,65,0,0
191863,-100,4,2,1,35,0,0
191941,-100,4,2,1,60,0,0
192178,-100,4,2,1,35,0,0
192257,-100,4,2,1,60,0,0
192810,-100,4,2,1,35,0,0
192889,-100,4,2,1,60,0,0
193441,-100,4,2,1,35,0,0
193520,-100,4,2,1,60,0,0
194389,-100,4,2,1,35,0,0
194468,-100,4,2,1,65,0,0
195652,-100,4,2,1,35,0,0
195731,-100,4,2,1,65,0,0
196915,-100,4,2,1,35,0,0
196994,-100,4,2,1,65,0,0
198889,-100,4,2,1,68,0,0
199520,-100,4,2,1,72,0,0
200468,-100,4,2,1,74,0,0
200705,-100,4,2,1,35,0,0
200784,-100,4,2,1,78,0,0
202047,-100,4,2,1,80,0,0
204889,-100,4,2,1,63,0,0
205205,315.789473684211,4,2,1,78,1,0
205205,-100,4,2,1,78,0,0
205441,-100,4,2,1,35,0,0
205520,-100,4,2,1,78,0,0
207968,-100,4,2,1,35,0,0
208047,-100,4,2,1,78,0,0
211757,-100,4,2,1,35,0,0
211836,-100,4,2,1,78,0,0
212073,-100,4,2,1,35,0,0
212152,-100,4,2,1,78,0,0
212389,-100,4,2,1,35,0,0
212468,-100,4,2,1,65,0,0
212783,-100,4,2,1,78,0,0
213020,-100,4,2,1,35,0,0
213099,-100,4,2,1,78,0,0
213652,-100,4,2,1,35,0,0
213731,-100,4,2,1,78,0,0
217441,-100,4,2,1,35,0,0
217520,-100,4,2,1,78,0,0
220362,-100,4,2,1,83,0,0
225415,-100,4,2,1,50,0,0
230389,-100,4,2,1,35,0,0
230468,-100,4,2,1,50,0,0
232994,-100,4,2,2,50,0,0
233073,-100,4,2,1,50,0,0
239862,-100,4,2,1,35,0,0
239941,-100,4,2,1,50,0,0
243099,-100,4,2,1,30,0,0

[Colours]
Combo1 : 229,229,229
Combo2 : 221,221,238
Combo3 : 193,193,255
Combo4 : 191,239,255

[HitObjects]
266,144,1837,6,0,P|321:96|394:100,2,150,2|2|2,0:0|0:0|0:0,0:0:0:0:
191,210,3100,2,0,P|179:135|166:61,2,150,2|2|2,0:0|0:0|0:0,0:0:0:0:
148,300,4363,6,0,P|206:249|290:271,1,150,2|2,0:0|0:0,0:0:0:0:
344,328,5152,2,0,L|411:323,1,50,0|0,0:0|0:0,0:0:0:0:
473,263,5626,2,0,B|492:211|492:211|456:100,2,150,2|2|2,0:0|0:0|0:0,0:0:0:0:
393,324,6889,6,0,P|318:318|243:314,2,150,2|2|2,0:0|0:0|0:0,0:0:0:0:
473,263,8152,2,0,P|480:204|465:158,1,100,2|2,0:0|0:0,0:0:0:0:
392,100,8784,2,0,P|344:106|286:114,1,100,2|2,0:0|0:0,0:0:0:0:
209,167,9415,6,0,B|115:135|115:135|57:161,2,150,2|2|2,0:0|0:0|0:0,0:0:0:0:
283,234,10679,2,0,P|360:221|435:210,2,150,2|2|2,0:0|0:0|0:0,0:0:0:0:
199,288,11942,6,0,L|190:188,1,100,4|2,0:0|3:2,0:0:0:0:
253,111,12573,2,0,P|306:98|364:113,1,100,2|2,3:2|3:2,0:0:0:0:
436,158,13205,2,0,B|461:106|461:106|447:4,2,150,2|4|4,3:2|3:0|3:0,0:0:0:0:
359,223,14468,6,0,P|298:187|211:209,1,150,4|2,0:0|0:0,0:0:0:0:
138,254,15258,2,0,L|121:148,1,100,2|2,0:0|0:0,0:0:0:0:
183,76,15889,2,0,P|261:95|339:105,1,150,0|4,0:0|3:0,0:0:0:0:
419,58,16679,1,4,3:0:0:0:
489,128,16994,6,0,P|514:181|492:284,2,150,2|4|2,0:0|3:0|3:2,0:0:0:0:
419,58,18258,2,0,P|344:70|268:77,1,150,2|4,0:0|3:0,0:0:0:0:
183,127,19047,2,0,L|112:117,1,50,4|2,3:0|3:2,0:0:0:0:
55,183,19521,5,4,3:2:0:0:
15,274,19837,1,2,0:0:0:0:
66,359,20152,2,0,P|117:351|178:345,1,100,4|2,3:1|0:0,0:0:0:0:
262,372,20784,1,6,3:2:0:0:
262,372,22047,6,0,P|268:315|277:269,1,100,4|0,3:0|0:0,0:0:0:0:
353,209,22679,2,0,P|272:255|178:207,2,200,0|0|2,0:0|0:0|0:0,0:0:0:0:
420,135,24258,1,2,0:0:0:0:
366,50,24573,6,0,L|253:63,1,100,2|0,0:0|0:0,0:0:0:0:
188,124,25205,2,0,B|136:87|136:87|77:134|-4:123,2,200,0|0|2,0:0|0:0|0:0,0:0:0:0:
265,187,26784,1,2,0:0:0:0:
188,250,27100,6,0,P|144:237|91:250,1,100,4|0,3:0|0:0,0:0:0:0:
32,329,27731,2,0,P|23:243|16:180,2,150,0|0|2,0:0|0:0|0:0,0:0:0:0:
124,367,28994,2,0,L|227:359,1,100,2|0,0:0|0:0,0:0:0:0:
306,302,29626,6,0,P|327:235|278:158,2,150,2|2|0,0:0|0:0|0:0,0:0:0:0:
224,359,30889,2,0,B|167:354|144:303|144:303|40:330,1,200,0|0,0:0|1:0,0:0:0:0:
16,130,32152,6,0,P|65:135|115:139,1,100,4|0,3:0|0:0,0:0:0:0:
188,207,32784,2,0,P|237:199|286:191,1,100,0|0,0:0|0:0,0:0:0:0:
363,126,33415,2,0,P|440:102|502:187,2,200,0|0|2,0:0|1:0|0:0,0:0:0:0:
287,191,34994,5,0,0:0:0:0:
210,126,35310,2,0,P|165:125|108:144,1,100,0|0,1:0|0:0,0:0:0:0:
36,205,35942,2,0,B|11:93|11:93|57:21,2,200,0|0|4,3:0|1:0|3:0,0:0:0:0:
103,279,37521,5,0,0:0:0:0:
191,232,37837,2,0,P|264:222|338:266,2,150,0|0|2,1:0|0:0|0:0,0:0:0:0:
102,279,39100,2,0,P|97:226|90:167,1,100,0|2,1:0|0:0,0:0:0:0:
26,103,39731,6,0,B|82:82|82:82|136:152|216:120,2,200,2|0|0,0:0|1:0|0:0,0:0:0:0:
134,271,41626,2,0,P|184:262|233:255,1,100,2|2,2:3|2:3,0:0:0:0:
309,319,42258,6,0,P|367:276|449:307,2,150,4|2|2,0:0|0:0|3:2,0:0:0:0:
230,253,43521,2,0,B|129:219|129:219|33:272,1,200,0|2,3:0|3:2,0:0:0:0:
34,164,44468,1,2,3:2:0:0:
121,114,44784,6,0,L|326:131,1,200,4|0,3:2|0:0,0:0:0:0:
405,77,45731,2,0,P|422:124|403:189,1,100,2|0,3:2|3:0,0:0:0:0:
342,243,46363,2,0,L|241:232,1,100,0|8,3:0|0:0,0:0:0:0:
186,315,46994,1,0,3:0:0:0:
104,256,47310,6,0,P|95:199|110:154,1,100,4|2,0:0|0:0,0:0:0:0:
172,83,47942,2,0,B|127:55|127:55|76:84|20:71,2,150,8|2|0,0:0|3:2|3:0,0:0:0:0:
252,141,49205,2,0,P|306:135|359:129,1,100,8|4,0:0|3:0,0:0:0:0:
434,186,49837,6,0,P|447:239|432:281,1,100,4|2,0:0|0:0,0:0:0:0:
367,356,50468,2,0,B|312:316|258:331|258:331|218:371,2,150,8|2|8,0:0|3:2|0:0,0:0:0:0:
454,307,51731,1,8,0:0:0:0:
408,218,52047,1,2,3:2:0:0:
310,195,52363,6,0,P|215:208|104:218,1,200,4|2,0:0|3:2,0:0:0:0:
34,281,53310,1,2,3:2:0:0:
100,355,53626,2,0,B|219:375|176:303|291:324,1,200,2|2,3:2|3:2,0:0:0:0:
377,374,54573,1,2,3:2:0:0:
458,315,54889,6,0,P|463:265|471:215,1,100,4|4,1:0|1:0,0:0:0:0:
401,142,55521,2,0,P|396:92|388:42,1,100,4|4,1:0|1:0,0:0:0:0:
338,40,55994,2,0,B|193:26|193:26|137:66|152:114,1,250,8|0,0:0|0:0,0:0:0:0:
326,213,57415,6,0,P|396:203|451:309,1,200,4|2,1:0|0:0,0:0:0:0:
376,368,58363,2,0,P|327:353|263:358,1,100,8|0,0:0|0:0,0:0:0:0:
182,380,58994,2,0,P|175:324|169:271,2,100,8|8|8,1:2|1:0|0:0,0:0:0:0:
85,353,59942,6,0,B|47:299|47:299|75:165,1,200,4|0,1:0|0:0,0:0:0:0:
153,106,60889,2,0,P|206:92|256:105,1,100,8|0,0:0|0:0,0:0:0:0:
345,134,61521,2,0,L|355:35,2,100,8|8|8,1:2|1:2|0:0,0:0:0:0:
290,219,62468,6,0,B|368:196|368:196|394:262|461:268,1,200,4|2,3:0|0:0,0:0:0:0:
468,163,63415,1,8,0:0:0:0:
395,93,63731,2,0,P|344:86|279:81,1,100,0|8,3:0|1:2,0:0:0:0:
207,129,64363,2,0,P|151:133|107:118,1,100,8|8,1:2|1:2,0:0:0:0:
38,49,64994,6,0,B|5:181|5:181|36:254,1,200,4|4,1:0|1:0,0:0:0:0:
79,326,65942,1,8,0:0:0:0:
168,281,66258,2,0,B|230:255|303:280|303:280|339:269|366:230,1,200,4|4,1:0|3:0,0:0:0:0:
305,158,67205,1,4,3:0:0:0:
360,74,67521,6,0,P|443:91|515:106,2,150,4|0|8,1:0|0:0|0:0,0:0:0:0:
305,158,68784,2,0,P|222:175|166:136,2,150,4|4|8,1:0|3:0|0:0,0:0:0:0:
400,189,70047,6,0,P|419:234|404:295,1,100,4|8,3:0|0:0,0:0:0:0:
322,330,70679,2,0,P|274:321|224:315,1,100,2|8,0:0|0:0,0:0:0:0:
137,365,71310,2,0,P|129:308|124:260,1,100,2|8,0:0|0:0,0:0:0:0:
58,190,71942,2,0,L|71:85,1,100,8|10,0:0|0:0,0:0:0:0:
155,38,72573,6,0,P|206:23|264:37,1,100,4|4,1:2|1:2,0:0:0:0:
342,73,73205,1,4,1:2:0:0:
379,165,73521,1,4,1:2:0:0:
304,231,73837,2,0,P|258:225|188:220,2,100,4|4|4,1:2|1:2|1:2,0:0:0:0:
379,296,74784,1,4,1:2:0:0:
307,365,75100,6,0,P|235:372|193:351,1,100,4|0,1:2|0:0,0:0:0:0:
167,336,75573,2,0,P|117:342|61:352,1,100,0|0,3:0|3:0,0:0:0:0:
13,266,76205,2,0,B|77:207|162:236|162:236|203:205|255:223,1,250,4|10,0:0|0:0,0:0:0:0:
331,273,77310,1,10,0:0:0:0:
421,231,77626,5,6,0:0:0:0:
47,180,87731,6,0,P|96:173|146:166,1,100,4|2,3:0|0:0,0:0:0:0:
226,226,88363,2,0,B|285:197|285:197|344:239|413:226,2,200,0|0|2,0:0|0:0|0:0,0:0:0:0:
158,299,89942,1,2,0:0:0:0:
87,227,90258,6,0,P|93:174|101:115,1,100,2|0,0:0|0:0,0:0:0:0:
170,57,90889,2,0,B|225:58|259:98|259:98|307:66|353:76,2,200,0|0|2,0:0|0:0|0:0,0:0:0:0:
99,127,92468,1,2,0:0:0:0:
151,212,92784,6,0,P|198:199|255:203,1,100,4|0,3:0|0:0,0:0:0:0:
340,161,93415,2,0,B|349:110|349:110|335:67|335:67|345:7,2,150,0|0|2,0:0|0:0|0:0,0:0:0:0:
406,235,94679,2,0,P|423:274|411:333,1,100,2|2,0:0|0:0,0:0:0:0:
320,366,95310,6,0,B|232:337|232:337|168:359,2,150,2|2|2,0:0|0:0|0:0,0:0:0:0:
413,329,96573,2,0,B|394:279|429:227|429:227|400:128,1,200,2|0,0:0|1:0,0:0:0:0:
223,48,97837,6,0,P|173:44|123:40,1,100,4|0,3:0|0:0,0:0:0:0:
45,103,98468,2,0,P|28:154|45:206,1,100,0|0,1:0|0:0,0:0:0:0:
117,259,99100,2,0,B|179:233|252:258|252:258|285:251|314:217,2,200,0|0|0,0:0|1:0|3:0,0:0:0:0:
47,330,100679,5,0,0:0:0:0:
138,368,100994,2,0,P|190:363|245:359,1,100,0|0,1:0|0:0,0:0:0:0:
320,303,101626,2,0,P|429:285|479:368,2,200,0|0|4,3:0|1:0|3:0,0:0:0:0:
237,359,103205,5,0,0:0:0:0:
164,290,103521,2,0,B|137:243|137:243|159:142,2,150,0|0|2,1:0|0:0|0:0,0:0:0:0:
237,359,104784,2,0,P|289:346|344:357,1,100,0|2,1:0|0:0,0:0:0:0:
418,298,105415,6,0,P|431:184|455:89,2,200,2|0|0,0:0|1:0|0:0,0:0:0:0:
227,358,107310,2,0,P|170:338|128:348,1,100,2|2,2:3|2:3,0:0:0:0:
45,296,107942,6,0,L|56:137,2,150,4|2|2,0:0|0:0|3:2,0:0:0:0:
132,345,109205,2,0,B|252:368|212:301|333:321,1,200,2|2,3:2|3:2,0:0:0:0:
414,365,110152,1,2,3:2:0:0:
490,299,110468,6,0,P|504:218|401:155,1,200,4|0,0:0|0:0,0:0:0:0:
320,179,111415,2,0,P|271:172|221:167,1,100,2|0,3:2|0:0,0:0:0:0:
124,196,112047,2,0,P|117:148|107:92,2,100,2|4|0,3:2|3:0|3:0,0:0:0:0:
41,252,112994,6,0,P|25:301|35:356,1,100,4|2,0:0|0:0,0:0:0:0:
128,374,113626,2,0,B|191:339|191:339|278:366,2,150,8|2|0,0:0|3:2|3:0,0:0:0:0:
46,316,114889,2,0,L|54:215,1,100,8|4,0:0|3:0,0:0:0:0:
123,144,115521,6,0,P|173:131|224:149,1,100,4|2,0:0|0:0,0:0:0:0:
298,203,116152,2,0,L|281:50,2,150,8|2|8,0:0|3:2|0:0,0:0:0:0:
378,262,117415,1,8,0:0:0:0:
468,218,117731,1,4,3:0:0:0:
416,132,118047,6,0,B|290:164|290:164|224:128,1,200,4|2,0:0|3:2,0:0:0:0:
155,62,118994,1,2,3:2:0:0:
88,136,119310,2,0,P|48:204|90:321,1,200,2|2,3:2|3:2,0:0:0:0:
171,359,120258,1,2,3:2:0:0:
261,313,120573,6,0,P|315:301|377:317,1,100,4|2,0:0|3:2,0:0:0:0:
446,355,121205,2,0,P|452:306|458:252,1,100,2|6,3:2|3:2,0:0:0:0:
482,212,121679,2,0,B|411:209|374:154|374:154|331:197|257:179,1,250,8|0,0:0|0:0,0:0:0:0:
174,128,122784,1,8,0:0:0:0:
84,172,123100,6,0,P|37:227|72:342,1,200,4|2,1:0|0:0,0:0:0:0:
163,375,124047,2,0,P|214:364|266:370,1,100,8|0,0:0|0:0,0:0:0:0:
355,334,124679,2,0,P|411:342|474:353,2,100,8|8|8,1:2|1:0|0:0,0:0:0:0:
261,368,125626,6,0,B|247:296|247:296|271:253|271:253|256:174,1,200,4|0,1:0|0:0,0:0:0:0:
176,117,126573,2,0,P|112:109|68:125,1,100,8|0,0:0|0:0,0:0:0:0:
12,194,127205,2,0,L|25:299,2,100,8|8|8,1:2|1:2|0:0,0:0:0:0:
78,119,128152,6,0,B|201:102|149:177|268:159,1,200,4|2,3:0|0:0,0:0:0:0:
351,106,129100,1,8,0:0:0:0:
421,176,129415,2,0,P|436:237|426:276,1,100,0|8,3:0|1:2,0:0:0:0:
348,333,130047,2,0,P|297:325|229:320,1,100,8|8,1:2|1:2,0:0:0:0:
156,359,130679,6,0,B|132:298|132:298|171:148,1,200,4|4,1:0|1:0,0:0:0:0:
213,80,131626,1,8,0:0:0:0:
297,133,131942,2,0,B|371:172|435:113|435:113|407:55,1,200,4|4,1:0|3:0,0:0:0:0:
339,0,132889,1,4,3:0:0:0:
245,35,133205,6,0,L|73:24,2,150,4|0|8,1:0|0:0|0:0,0:0:0:0:
323,97,134468,2,0,B|350:146|350:146|334:244,2,150,4|4|8,1:0|3:0|0:0,0:0:0:0:
245,35,135731,6,0,L|129:47,1,100,4|8,3:0|0:0,0:0:0:0:
65,105,136363,2,0,L|58:209,1,100,2|8,0:0|0:0,0:0:0:0:
121,282,136994,2,0,P|170:267|238:276,1,100,4|8,3:0|0:0,0:0:0:0:
302,323,137626,2,0,P|367:339|409:329,1,100,8|10,0:0|0:0,0:0:0:0:
479,274,138258,6,0,L|469:174,1,100,4|4,1:2|1:2,0:0:0:0:
409,94,138889,1,4,1:2:0:0:
312,67,139205,1,4,1:2:0:0:
232,128,139521,2,0,P|186:122|120:115,1,100,4|4,1:2|1:2,0:0:0:0:
49,171,140152,1,4,1:2:0:0:
39,270,140468,1,4,1:2:0:0:
104,345,140784,6,0,P|160:325|212:342,1,100,4|0,1:2|0:0,0:0:0:0:
241,359,141258,2,0,P|292:353|348:348,1,100,2|2,3:2|3:2,0:0:0:0:
437,373,141889,2,0,B|470:307|470:307|428:132,1,250,4|10,0:0|0:0,0:0:0:0:
350,73,142994,1,10,0:0:0:0:
261,119,143310,5,6,0:0:0:0:
504,331,153415,6,0,P|461:352|368:306,1,150,2|2,0:0|0:0,0:0:0:0:
348,270,154047,2,0,L|378:112,1,150,2|2,0:0|0:0,0:0:0:0:
304,52,154837,2,0,B|234:27|234:27|155:50,1,150,2|0,0:0|0:0,0:0:0:0:
79,105,155626,1,0,0:0:0:0:
132,189,155942,6,0,P|184:183|298:174,1,150,2|2,0:0|0:0,0:0:0:0:
349,248,156731,2,0,B|383:210|383:210|373:97,1,150,2|2,0:0|0:0,0:0:0:0:
318,27,157521,1,2,0:0:0:0:
239,90,157837,2,0,P|190:92|138:73,1,100,0|2,1:0|0:0,0:0:0:0:
54,28,158468,5,0,3:0:0:0:
208,285,159415,2,0,P|289:266|387:347,1,200,2|2,0:0|0:0,0:0:0:0:
479,217,160521,2,0,P|467:137|456:64,1,150,2|4,0:0|3:0,0:0:0:0:
256,192,161152,12,0,162218,0:0:0:0:
335,333,163521,6,0,P|379:263|479:293,2,200,2|2|0,0:0|0:0|0:0,0:0:0:0:
241,368,165100,2,0,P|191:363|141:358,1,100,2|2,0:0|0:0,0:0:0:0:
43,377,165731,1,2,0:0:0:0:
21,279,166047,6,0,P|31:169|43:73,2,200,2|2|0,0:0|0:0|0:0,0:0:0:0:
74,363,167626,1,2,0:0:0:0:
169,329,167942,2,0,P|222:320|269:335,1,100,2|2,0:0|0:0,0:0:0:0:
359,366,168573,6,0,P|373:267|391:168,1,200,2|2,0:0|0:0,0:0:0:0:
447,86,169521,1,0,0:0:0:0:
359,36,169837,2,0,P|309:40|259:45,1,100,0|2,0:0|0:0,0:0:0:0:
178,103,170468,2,0,P|114:94|86:70,1,100,2|2,0:0|0:0,0:0:0:0:
30,154,171100,6,0,B|-1:229|-1:229|25:280|15:359,2,200,2|2|2,0:0|0:0|0:0,0:0:0:0:
204,56,172994,2,0,P|257:58|325:62,1,100,4|0,2:3|0:0,0:0:0:0:
397,96,173626,6,0,P|443:141|423:286,1,200,4|8,0:0|0:0,0:0:0:0:
364,337,174573,1,0,0:0:0:0:
274,292,174889,2,0,B|155:272|198:344|83:323,1,200,2|8,3:2|0:0,0:0:0:0:
2,263,175837,1,0,0:0:0:0:
61,182,176152,6,0,P|52:125|44:73,1,100,2|0,3:2|0:0,0:0:0:0:
122,19,176784,2,0,P|175:24|237:31,1,100,8|2,0:0|3:2,0:0:0:0:
309,77,177415,2,0,P|362:72|424:65,1,100,2|8,0:0|0:0,0:0:0:0:
487,128,178047,2,0,P|501:165|491:235,1,100,8|8,0:0|0:0,0:0:0:0:
425,296,178679,5,4,1:2:0:0:
337,248,178994,1,4,1:2:0:0:
248,294,179310,2,0,P|198:290|148:287,1,100,4|0,1:2|0:0,0:0:0:0:
68,348,179942,1,4,1:2:0:0:
18,260,180258,1,4,1:2:0:0:
82,184,180573,2,0,P|75:134|67:85,1,100,4|4,1:0|1:2,0:0:0:0:
147,24,181205,6,0,P|186:26|236:69,1,100,4|0,1:0|0:0,0:0:0:0:
260,104,181679,2,0,P|311:99|359:95,1,100,4|4,3:0|3:0,0:0:0:0:
441,37,182310,2,0,B|388:118|438:196|438:196|414:243|438:293,1,250,8|8,0:0|0:0,0:0:0:0:
485,358,183415,1,8,0:0:0:0:
386,374,183731,2,0,P|340:368|282:362,1,100,8|8,0:0|0:0,0:0:0:0:
207,300,184363,6,0,P|144:334|51:315,2,150,4|2|8,0:0|0:0|0:0,0:0:0:0:
273,224,185626,2,0,P|258:144|242:53,2,150,2|2|8,0:0|0:0|0:0,0:0:0:0:
357,277,186889,6,0,B|432:308|489:267|489:267|465:194,1,200,2|0,0:0|0:0,0:0:0:0:
419,122,187836,1,8,0:0:0:0:
323,151,188152,2,0,L|157:137,2,150,2|2|8,0:0|0:0|0:0,0:0:0:0:
408,203,189415,6,0,P|434:250|416:348,1,150,2|2,0:0|0:0,0:0:0:0:
323,370,190205,2,0,L|267:362,1,50,0|8,0:0|0:0,0:0:0:0:
188,308,190678,2,0,P|139:316|90:325,1,100,2|8,0:0|0:0,0:0:0:0:
9,265,191310,1,2,0:0:0:0:
54,176,191626,1,8,0:0:0:0:
7,87,191941,6,0,P|81:79|110:76,1,100,4|2,0:0|0:0,0:0:0:0:
193,126,192573,2,0,P|246:132|301:117,1,100,12|8,0:0|0:0,0:0:0:0:
385,86,193205,2,0,P|378:136|371:186,1,100,4|8,0:0|0:0,0:0:0:0:
445,254,193836,2,0,P|460:304|451:356,1,100,4|4,3:0|3:0,0:0:0:0:
354,370,194468,6,0,B|213:333|213:333|161:363,1,200,4|2,0:0|0:0,0:0:0:0:
82,304,195415,1,8,0:0:0:0:
147,228,195731,2,0,P|136:141|127:64,2,150,4|2|8,0:0|0:0|0:0,0:0:0:0:
228,286,196994,6,0,P|272:309|376:278,1,150,4|2,0:0|0:0,0:0:0:0:
430,210,197784,2,0,L|416:103,1,100,2|2,3:2|0:0,0:0:0:0:
334,54,198415,2,0,P|312:52|279:48,1,50,2|8,0:0|0:0,0:0:0:0:
191,87,198889,2,0,P|148:97|90:103,1,100,8|8,0:0|0:0,0:0:0:0:
21,173,199520,5,4,1:0:0:0:
2,271,199836,1,4,1:0:0:0:
59,352,200152,2,0,P|115:344|165:341,1,100,4|2,1:0|0:0,0:0:0:0:
256,362,200784,1,4,1:0:0:0:
313,280,201099,1,4,1:0:0:0:
283,184,201415,1,4,1:0:0:0:
196,134,201731,1,8,0:0:0:0:
99,160,202047,6,0,P|90:110|82:61,1,100,4|8,0:0|0:0,0:0:0:0:
125,35,202520,2,0,P|178:17|230:21,1,100,2|2,0:0|0:0,0:0:0:0:
306,72,203152,2,0,B|385:113|460:60|460:60|469:147|400:179|400:179|446:248|416:319,1,450,8|0,0:0|0:0,0:0:0:0:
227,377,205205,6,0,P|178:318|60:339,1,200,4|2,1:0|0:0,0:0:0:0:
7,252,206152,2,0,L|16:147,1,100,8|0,0:0|0:0,0:0:0:0:
78,74,206783,2,0,P|134:56|177:67,1,100,8|8,1:2|1:0,0:0:0:0:
252,126,207415,1,8,0:0:0:0:
340,79,207731,6,0,B|461:52|461:52|525:99,1,200,4|0,1:0|0:0,0:0:0:0:
477,186,208678,2,0,L|464:291,1,100,8|0,0:0|0:0,0:0:0:0:
385,347,209310,2,0,L|265:338,2,100,8|8|8,1:2|1:2|0:0,0:0:0:0:
464,285,210257,6,0,P|487:209|419:108,1,200,4|2,3:0|0:0,0:0:0:0:
335,70,211205,1,8,0:0:0:0:
249,122,211520,2,0,P|199:118|149:114,1,100,0|8,3:0|1:2,0:0:0:0:
70,176,212152,2,0,P|56:232|72:287,1,100,8|8,1:2|1:2,0:0:0:0:
132,345,212783,6,0,B|194:319|267:344|267:344|306:335|325:300,1,200,4|4,1:0|1:0,0:0:0:0:
336,212,213731,1,8,0:0:0:0:
269,136,214047,2,0,P|169:144|69:152,1,200,4|4,1:0|3:0,0:0:0:0:
13,235,214994,1,4,3:0:0:0:
81,307,215310,6,0,P|144:270|231:284,2,150,4|0|8,1:0|0:0|0:0,0:0:0:0:
13,235,216573,2,0,P|26:152|38:80,2,150,4|4|8,1:0|3:0|0:0,0:0:0:0:
81,308,217836,6,0,P|168:292|200:301,1,100,4|8,3:0|0:0,0:0:0:0:
264,343,218468,2,0,P|313:342|363:339,1,100,2|8,0:0|0:0,0:0:0:0:
443,278,219099,2,0,P|451:210|438:175,1,100,4|8,3:0|0:0,0:0:0:0:
360,121,219731,2,0,P|312:127|244:135,1,100,0|8,0:0|0:0,0:0:0:0:
169,174,220362,6,0,L|157:73,2,100,4|4|4,1:2|1:2|1:2,0:0:0:0:
100,247,221310,1,4,1:2:0:0:
177,310,221626,2,0,P|253:292|288:305,1,100,4|4,1:2|1:2,0:0:0:0:
354,353,222257,1,4,1:2:0:0:
423,281,222573,1,4,1:2:0:0:
367,197,222889,6,0,P|373:142|380:86,1,100,4|0,1:2|0:0,0:0:0:0:
400,52,223362,2,0,P|344:63|295:44,1,100,2|2,3:2|3:2,0:0:0:0:
208,18,223994,2,0,B|181:112|181:112|209:160|209:160|189:255,1,250,4|10,0:0|0:0,0:0:0:0:
119,326,225099,1,10,0:0:0:0:
212,362,225415,6,0,P|281:327|358:348,2,150,6|2|2,0:0|0:0|0:0,0:0:0:0:
119,326,226678,2,0,P|111:273|120:220,1,100,2|2,0:0|0:0,0:0:0:0:
166,139,227310,2,0,P|162:89|159:27,1,100,2|2,0:0|0:0,0:0:0:0:
254,71,227941,6,0,B|343:87|343:87|409:57,2,150,2|2|2,0:0|0:0|0:0,0:0:0:0:
159,39,229205,2,0,P|111:44|57:51,2,100,2|2|2,0:0|0:0|0:0,0:0:0:0:
254,71,230152,1,2,0:0:0:0:
184,142,230468,6,0,P|145:220|183:320,1,200,2|0,0:0|0:0,0:0:0:0:
269,369,231415,1,2,0:0:0:0:
350,311,231731,2,0,P|342:258|329:203,1,100,2|2,0:0|0:0,0:0:0:0:
410,150,232362,2,0,P|413:95|422:44,1,100,2|2,0:0|0:0,0:0:0:0:
323,25,232994,6,0,B|204:5|247:77|132:56,1,200,2|2,0:0|0:0,0:0:0:0:
39,19,233941,1,0,0:0:0:0:
59,117,234257,2,0,P|71:194|92:329,1,200,2|2,0:0|0:0,0:0:0:0:
172,371,235205,1,2,0:0:0:0:
251,310,235520,6,0,B|338:274|444:312|444:312|486:259|430:209,1,300,2|0,0:0|0:0,0:0:0:0:
357,163,236784,2,0,L|235:176,1,100,2|2,0:0|0:0,0:0:0:0:
174,228,237415,2,0,P|158:182|172:121,1,100,2|2,0:0|0:0,0:0:0:0:
234,59,238047,6,0,B|426:75|314:151|502:171,1,300,2|0,0:0|0:0,0:0:0:0:
502,271,239310,2,0,P|450:311|342:249,2,200,2|2|2,0:0|0:0|0:0,0:0:0:0:
256,192,240652,12,2,243099,0:0:0:0:
