osu file format v14

[General]
AudioFilename: audio.mp3
AudioLeadIn: 0
PreviewTime: 21495
Countdown: 0
SampleSet: None
StackLeniency: 0.7
Mode: 3
LetterboxInBreaks: 0
SpecialStyle: 0
WidescreenStoryboard: 0

[Editor]
DistanceSpacing: 0.9
BeatDivisor: 4
GridSize: 32
TimelineZoom: 2

[Metadata]
Title:Re:TrymenT
TitleUnicode:Re:TrymenT
Artist:Hotaru Murasaki
ArtistUnicode:紫咲ほたる
Creator:ExNeko
Version:HD
Source:Re:LieF〜親愛なるあなたへ〜
Tags:
BeatmapID:1606030
BeatmapSetID:763814

[Difficulty]
HPDrainRate:7
CircleSize:4
OverallDifficulty:7
ApproachRate:5
SliderMultiplier:1.4
SliderTickRate:1

[Events]
//Background and Video events
0,0,"9c8005dde7244b1827a40ca674207393.png",0,0
//Break Periods
//Storyboard Layer 0 (Background)
//Storyboard Layer 1 (Fail)
//Storyboard Layer 2 (Pass)
//Storyboard Layer 3 (Foreground)
//Storyboard Sound Samples

[TimingPoints]
1285,315.789473684211,4,1,1,50,1,0
56863,-100,4,1,1,50,0,1
77074,-100,4,1,1,50,0,0

[HitObjects]
64,192,1285,1,0,0:0:0:0:
448,192,1285,1,0,0:0:0:0:
192,192,1442,1,0,0:0:0:0:
64,192,1600,1,0,0:0:0:0:
320,192,1600,1,0,0:0:0:0:
192,192,1758,1,0,0:0:0:0:
448,192,1758,1,0,0:0:0:0:
64,192,2074,1,0,0:0:0:0:
320,192,2074,1,0,0:0:0:0:
192,192,2232,1,0,0:0:0:0:
448,192,2232,1,0,0:0:0:0:
64,192,2548,1,0,0:0:0:0:
192,192,2706,1,0,0:0:0:0:
320,192,3021,1,0,0:0:0:0:
448,192,3495,1,0,0:0:0:0:
64,192,3811,1,0,0:0:0:0:
320,192,3811,1,0,0:0:0:0:
448,192,3969,1,0,0:0:0:0:
192,192,4127,1,0,0:0:0:0:
320,192,4127,1,0,0:0:0:0:
64,192,4285,1,0,0:0:0:0:
448,192,4285,1,0,0:0:0:0:
192,192,4600,1,0,0:0:0:0:
320,192,4600,1,0,0:0:0:0:
64,192,4758,1,0,0:0:0:0:
448,192,4758,1,0,0:0:0:0:
192,192,5074,1,0,0:0:0:0:
320,192,5074,1,0,0:0:0:0:
192,192,5548,1,0,0:0:0:0:
64,192,5706,1,0,0:0:0:0:
320,192,5706,1,0,0:0:0:0:
448,192,6021,1,0,0:0:0:0:
64,192,6337,1,0,0:0:0:0:
192,192,6337,1,0,0:0:0:0:
448,192,6495,1,0,0:0:0:0:
64,192,6653,1,0,0:0:0:0:
320,192,6653,1,0,0:0:0:0:
192,192,6811,1,0,0:0:0:0:
448,192,6811,1,0,0:0:0:0:
64,192,7127,1,0,0:0:0:0:
320,192,7127,1,0,0:0:0:0:
192,192,7285,1,0,0:0:0:0:
448,192,7285,1,0,0:0:0:0:
64,192,7600,1,0,0:0:0:0:
320,192,7916,1,0,0:0:0:0:
192,192,8232,1,0,0:0:0:0:
448,192,8548,1,0,0:0:0:0:
64,192,8863,1,0,0:0:0:0:
192,192,8863,1,0,0:0:0:0:
64,192,9179,1,0,0:0:0:0:
192,192,9179,1,0,0:0:0:0:
320,192,9337,1,0,0:0:0:0:
448,192,9337,1,0,0:0:0:0:
64,192,9811,1,0,0:0:0:0:
320,192,9811,1,0,0:0:0:0:
64,192,10127,1,0,0:0:0:0:
192,192,10127,1,0,0:0:0:0:
320,192,10600,1,0,0:0:0:0:
448,192,10600,1,0,0:0:0:0:
192,192,11074,1,0,0:0:0:0:
448,192,11074,1,0,0:0:0:0:
64,192,11390,1,2,0:0:0:0:
320,192,11390,1,4,0:0:0:0:
448,192,11390,128,0,12653:0:0:0:0:
192,192,11548,1,0,0:0:0:0:
64,192,11706,1,2,0:0:0:0:
320,192,11706,1,0,0:0:0:0:
192,192,11863,1,0,0:0:0:0:
320,192,12021,1,2,0:0:0:0:
64,192,12179,1,0,0:0:0:0:
192,192,12337,1,2,0:0:0:0:
320,192,12337,1,0,0:0:0:0:
64,192,12495,1,0,0:0:0:0:
192,192,12653,1,2,0:0:0:0:
320,192,12653,128,0,13127:0:0:0:0:
64,192,12811,1,0,0:0:0:0:
64,192,12969,1,2,0:0:0:0:
448,192,12969,1,0,0:0:0:0:
192,192,13127,128,2,13600:0:0:0:0:
64,192,13285,1,2,0:0:0:0:
448,192,13285,1,0,0:0:0:0:
320,192,13442,1,2,0:0:0:0:
64,192,13600,128,2,13916:0:0:0:0:
448,192,13600,1,0,0:0:0:0:
320,192,13758,1,2,0:0:0:0:
192,192,13916,1,2,0:0:0:0:
448,192,13916,1,4,0:0:0:0:
320,192,14074,1,0,0:0:0:0:
64,192,14232,1,2,0:0:0:0:
192,192,14232,1,0,0:0:0:0:
320,192,14390,1,0,0:0:0:0:
448,192,14390,1,0,0:0:0:0:
192,192,14548,1,2,0:0:0:0:
64,192,14706,1,0,0:0:0:0:
448,192,14706,1,0,0:0:0:0:
320,192,14863,1,2,0:0:0:0:
64,192,15021,1,0,0:0:0:0:
192,192,15021,1,0,0:0:0:0:
320,192,15179,1,2,0:0:0:0:
64,192,15337,1,8,0:0:0:0:
192,192,15337,1,0,0:0:0:0:
320,192,15416,1,0,0:0:0:0:
64,192,15495,1,2,0:0:0:0:
448,192,15495,1,0,0:0:0:0:
192,192,15653,1,0,0:0:0:0:
320,192,15811,1,2,0:0:0:0:
448,192,15811,1,0,0:0:0:0:
192,192,15969,1,2,0:0:0:0:
64,192,16127,1,2,0:0:0:0:
448,192,16127,1,0,0:0:0:0:
320,192,16285,1,2,0:0:0:0:
64,192,16442,1,2,0:0:0:0:
448,192,16442,128,0,17706:0:0:0:0:
192,192,16600,1,0,0:0:0:0:
64,192,16758,1,2,0:0:0:0:
320,192,16758,1,0,0:0:0:0:
192,192,16916,1,0,0:0:0:0:
320,192,17074,1,2,0:0:0:0:
192,192,17232,1,0,0:0:0:0:
64,192,17390,1,2,0:0:0:0:
320,192,17390,1,0,0:0:0:0:
192,192,17548,1,0,0:0:0:0:
64,192,17706,1,2,0:0:0:0:
320,192,17706,128,0,18179:0:0:0:0:
192,192,17863,1,0,0:0:0:0:
64,192,18021,1,2,0:0:0:0:
448,192,18021,1,0,0:0:0:0:
192,192,18179,128,0,18653:0:0:0:0:
64,192,18337,1,2,0:0:0:0:
320,192,18337,1,0,0:0:0:0:
448,192,18495,1,2,0:0:0:0:
64,192,18653,1,2,0:0:0:0:
320,192,18653,128,0,18969:0:0:0:0:
192,192,18811,1,2,0:0:0:0:
64,192,18969,128,2,20863:0:0:0:0:
448,192,18969,1,0,0:0:0:0:
320,192,19127,1,0,0:0:0:0:
192,192,19285,1,0,0:0:0:0:
320,192,19442,1,0,0:0:0:0:
448,192,19600,1,6,0:0:0:0:
320,192,19758,1,0,0:0:0:0:
192,192,19916,1,0,0:0:0:0:
320,192,20074,1,0,0:0:0:0:
448,192,20232,1,2,0:0:0:0:
192,192,20706,1,0,0:0:0:0:
320,192,20785,1,0,0:0:0:0:
448,192,20863,1,0,0:0:0:0:
320,192,21495,1,2,0:0:0:0:
448,192,21495,1,0,0:0:0:0:
64,192,21653,1,2,0:0:0:0:
192,192,21653,1,0,0:0:0:0:
448,192,21811,1,0,0:0:0:0:
192,192,21969,1,0,0:0:0:0:
64,192,22127,1,0,0:0:0:0:
448,192,22285,1,0,0:0:0:0:
320,192,22442,1,0,0:0:0:0:
192,192,22600,1,0,0:0:0:0:
64,192,22758,1,0,0:0:0:0:
320,192,22916,1,0,0:0:0:0:
448,192,23074,1,0,0:0:0:0:
64,192,23232,1,0,0:0:0:0:
192,192,23390,1,0,0:0:0:0:
320,192,23548,1,0,0:0:0:0:
448,192,23706,1,0,0:0:0:0:
64,192,23863,1,0,0:0:0:0:
192,192,24021,1,0,0:0:0:0:
320,192,24021,1,0,0:0:0:0:
448,192,24337,1,0,0:0:0:0:
64,192,24495,1,0,0:0:0:0:
192,192,24653,1,0,0:0:0:0:
448,192,24811,1,0,0:0:0:0:
320,192,24969,1,0,0:0:0:0:
64,192,25127,1,0,0:0:0:0:
192,192,25285,1,0,0:0:0:0:
320,192,25442,1,0,0:0:0:0:
448,192,25600,1,0,0:0:0:0:
64,192,25758,1,0,0:0:0:0:
320,192,25916,1,0,0:0:0:0:
192,192,26074,1,0,0:0:0:0:
64,192,26232,1,0,0:0:0:0:
320,192,26390,1,0,0:0:0:0:
192,192,26548,1,2,0:0:0:0:
448,192,26548,1,0,0:0:0:0:
64,192,26706,1,2,0:0:0:0:
320,192,26706,1,0,0:0:0:0:
448,192,26863,1,0,0:0:0:0:
192,192,27021,1,0,0:0:0:0:
320,192,27179,1,0,0:0:0:0:
448,192,27337,1,0,0:0:0:0:
64,192,27495,1,0,0:0:0:0:
192,192,27653,1,0,0:0:0:0:
448,192,27811,1,0,0:0:0:0:
320,192,27969,1,0,0:0:0:0:
192,192,28127,1,0,0:0:0:0:
64,192,28285,1,0,0:0:0:0:
448,192,28442,1,0,0:0:0:0:
192,192,28600,1,0,0:0:0:0:
320,192,28758,1,0,0:0:0:0:
448,192,28916,1,0,0:0:0:0:
64,192,29074,1,0,0:0:0:0:
192,192,29074,1,0,0:0:0:0:
320,192,29390,1,0,0:0:0:0:
448,192,29548,1,0,0:0:0:0:
64,192,29706,1,0,0:0:0:0:
192,192,29863,1,0,0:0:0:0:
448,192,30021,1,0,0:0:0:0:
64,192,30179,1,0,0:0:0:0:
320,192,30337,1,0,0:0:0:0:
448,192,30495,1,0,0:0:0:0:
64,192,30653,1,0,0:0:0:0:
192,192,30653,1,0,0:0:0:0:
320,192,30811,1,0,0:0:0:0:
64,192,30969,1,0,0:0:0:0:
448,192,30969,1,0,0:0:0:0:
192,192,31127,1,0,0:0:0:0:
320,192,31285,1,0,0:0:0:0:
448,192,31285,1,0,0:0:0:0:
192,192,31442,1,0,0:0:0:0:
64,192,31600,1,2,0:0:0:0:
448,192,31600,1,0,0:0:0:0:
192,192,31758,1,2,0:0:0:0:
320,192,31758,1,0,0:0:0:0:
448,192,31916,1,0,0:0:0:0:
192,192,32074,1,0,0:0:0:0:
64,192,32232,1,8,0:0:0:0:
448,192,32232,1,0,0:0:0:0:
320,192,32390,1,0,0:0:0:0:
192,192,32548,1,0,0:0:0:0:
64,192,32706,1,0,0:0:0:0:
448,192,32863,1,0,0:0:0:0:
320,192,33021,1,0,0:0:0:0:
192,192,33179,1,0,0:0:0:0:
320,192,33337,1,0,0:0:0:0:
64,192,33495,1,8,0:0:0:0:
448,192,33495,1,0,0:0:0:0:
192,192,33653,1,0,0:0:0:0:
320,192,33811,1,0,0:0:0:0:
448,192,33969,1,0,0:0:0:0:
64,192,34127,1,0,0:0:0:0:
192,192,34127,1,0,0:0:0:0:
320,192,34442,1,0,0:0:0:0:
192,192,34600,1,0,0:0:0:0:
320,192,34758,1,8,0:0:0:0:
448,192,34758,1,0,0:0:0:0:
64,192,34916,1,0,0:0:0:0:
192,192,35074,1,0,0:0:0:0:
320,192,35232,1,0,0:0:0:0:
192,192,35390,1,0,0:0:0:0:
448,192,35548,1,0,0:0:0:0:
64,192,35706,1,0,0:0:0:0:
192,192,35863,1,0,0:0:0:0:
320,192,36021,1,8,0:0:0:0:
448,192,36021,1,0,0:0:0:0:
64,192,36179,1,0,0:0:0:0:
192,192,36337,1,0,0:0:0:0:
320,192,36495,1,0,0:0:0:0:
192,192,36653,1,2,0:0:0:0:
448,192,36653,1,0,0:0:0:0:
64,192,36811,1,2,0:0:0:0:
320,192,36811,1,0,0:0:0:0:
192,192,36969,1,0,0:0:0:0:
448,192,37127,1,0,0:0:0:0:
64,192,37285,1,8,0:0:0:0:
192,192,37285,1,0,0:0:0:0:
320,192,37442,1,0,0:0:0:0:
192,192,37600,1,0,0:0:0:0:
64,192,37758,1,0,0:0:0:0:
448,192,37916,1,0,0:0:0:0:
320,192,38074,1,0,0:0:0:0:
192,192,38232,1,0,0:0:0:0:
64,192,38390,1,0,0:0:0:0:
320,192,38548,1,8,0:0:0:0:
448,192,38548,1,0,0:0:0:0:
192,192,38706,1,0,0:0:0:0:
320,192,38863,1,0,0:0:0:0:
64,192,39021,1,0,0:0:0:0:
192,192,39179,1,0,0:0:0:0:
448,192,39179,1,0,0:0:0:0:
320,192,39495,1,0,0:0:0:0:
448,192,39653,1,0,0:0:0:0:
64,192,39811,1,8,0:0:0:0:
192,192,39811,1,0,0:0:0:0:
320,192,39969,1,0,0:0:0:0:
192,192,40127,1,0,0:0:0:0:
64,192,40285,1,0,0:0:0:0:
320,192,40442,1,0,0:0:0:0:
448,192,40600,1,0,0:0:0:0:
64,192,40758,1,0,0:0:0:0:
192,192,40758,1,0,0:0:0:0:
320,192,40916,1,0,0:0:0:0:
64,192,41074,1,8,0:0:0:0:
448,192,41074,1,0,0:0:0:0:
192,192,41232,1,0,0:0:0:0:
320,192,41390,1,0,0:0:0:0:
448,192,41390,1,0,0:0:0:0:
192,192,41548,1,0,0:0:0:0:
64,192,41706,1,4,0:0:0:0:
320,192,41706,1,2,0:0:0:0:
448,192,41706,1,0,0:0:0:0:
192,192,41863,1,0,0:0:0:0:
64,192,42021,1,2,0:0:0:0:
448,192,42021,1,0,0:0:0:0:
320,192,42179,1,0,0:0:0:0:
64,192,42337,1,2,0:0:0:0:
192,192,42337,1,0,0:0:0:0:
320,192,42495,1,0,0:0:0:0:
64,192,42653,1,2,0:0:0:0:
448,192,42653,1,0,0:0:0:0:
192,192,42811,1,2,0:0:0:0:
320,192,42811,1,0,0:0:0:0:
64,192,42969,1,2,0:0:0:0:
448,192,42969,1,0,0:0:0:0:
192,192,43127,1,2,0:0:0:0:
320,192,43127,1,0,0:0:0:0:
64,192,43285,1,2,0:0:0:0:
448,192,43285,1,0,0:0:0:0:
192,192,43442,1,0,0:0:0:0:
320,192,43600,1,2,0:0:0:0:
448,192,43600,1,0,0:0:0:0:
192,192,43758,1,0,0:0:0:0:
64,192,43916,1,2,0:0:0:0:
448,192,43916,1,0,0:0:0:0:
192,192,44074,1,0,0:0:0:0:
64,192,44232,1,2,0:0:0:0:
320,192,44232,1,4,0:0:0:0:
448,192,44232,1,0,0:0:0:0:
192,192,44390,1,0,0:0:0:0:
64,192,44548,1,2,0:0:0:0:
320,192,44548,1,0,0:0:0:0:
448,192,44706,1,0,0:0:0:0:
192,192,44863,1,2,0:0:0:0:
320,192,44863,1,0,0:0:0:0:
64,192,45021,1,0,0:0:0:0:
320,192,45179,1,2,0:0:0:0:
448,192,45179,1,0,0:0:0:0:
64,192,45337,1,2,0:0:0:0:
192,192,45337,1,0,0:0:0:0:
320,192,45495,1,2,0:0:0:0:
448,192,45495,1,0,0:0:0:0:
64,192,45653,1,2,0:0:0:0:
192,192,45653,1,0,0:0:0:0:
448,192,45811,1,2,0:0:0:0:
320,192,45890,1,0,0:0:0:0:
192,192,45969,1,0,0:0:0:0:
64,192,46048,1,0,0:0:0:0:
320,192,46127,1,8,0:0:0:0:
448,192,46127,1,0,0:0:0:0:
192,192,46206,1,0,0:0:0:0:
64,192,46285,1,8,0:0:0:0:
320,192,46363,1,0,0:0:0:0:
192,192,46442,1,2,0:0:0:0:
448,192,46442,1,0,0:0:0:0:
64,192,46521,1,0,0:0:0:0:
320,192,46600,1,2,0:0:0:0:
192,192,46679,1,0,0:0:0:0:
64,192,46758,1,4,0:0:0:0:
320,192,46758,1,2,0:0:0:0:
448,192,46758,1,0,0:0:0:0:
192,192,47074,1,0,0:0:0:0:
320,192,47232,1,2,0:0:0:0:
448,192,47232,1,0,0:0:0:0:
64,192,47390,1,8,0:0:0:0:
192,192,47390,1,0,0:0:0:0:
320,192,47548,1,0,0:0:0:0:
64,192,47706,1,2,0:0:0:0:
448,192,47706,1,0,0:0:0:0:
192,192,47863,1,2,0:0:0:0:
320,192,47863,1,0,0:0:0:0:
64,192,48021,1,0,0:0:0:0:
320,192,48179,1,8,0:0:0:0:
448,192,48179,1,0,0:0:0:0:
192,192,48337,1,0,0:0:0:0:
64,192,48495,1,2,0:0:0:0:
448,192,48495,1,0,0:0:0:0:
192,192,48653,1,8,0:0:0:0:
320,192,48653,1,0,0:0:0:0:
64,192,48811,1,8,0:0:0:0:
448,192,48811,1,0,0:0:0:0:
192,192,48969,1,2,0:0:0:0:
320,192,48969,1,0,0:0:0:0:
64,192,49127,1,2,0:0:0:0:
448,192,49127,1,0,0:0:0:0:
64,192,49285,1,2,0:0:0:0:
192,192,49285,1,0,0:0:0:0:
320,192,49285,1,0,0:0:0:0:
448,192,49600,1,0,0:0:0:0:
64,192,49758,1,2,0:0:0:0:
192,192,49758,1,0,0:0:0:0:
320,192,49916,1,8,0:0:0:0:
448,192,49916,1,0,0:0:0:0:
64,192,50074,1,0,0:0:0:0:
192,192,50232,1,2,0:0:0:0:
320,192,50232,1,0,0:0:0:0:
64,192,50390,1,2,0:0:0:0:
448,192,50390,1,0,0:0:0:0:
320,192,50548,1,0,0:0:0:0:
192,192,50706,1,0,0:0:0:0:
320,192,50863,1,8,0:0:0:0:
448,192,50863,1,0,0:0:0:0:
64,192,51021,1,2,0:0:0:0:
192,192,51021,1,0,0:0:0:0:
320,192,51179,1,8,0:0:0:0:
448,192,51179,1,0,0:0:0:0:
64,192,51337,1,8,0:0:0:0:
192,192,51337,1,0,0:0:0:0:
320,192,51495,1,2,0:0:0:0:
448,192,51495,1,0,0:0:0:0:
64,192,51653,1,0,0:0:0:0:
64,192,51811,1,2,0:0:0:0:
192,192,51811,1,4,0:0:0:0:
448,192,51811,1,0,0:0:0:0:
320,192,52127,1,2,0:0:0:0:
448,192,52127,1,0,0:0:0:0:
192,192,52285,1,0,0:0:0:0:
64,192,52442,1,2,0:0:0:0:
448,192,52442,1,0,0:0:0:0:
320,192,52600,1,0,0:0:0:0:
64,192,52758,1,2,0:0:0:0:
192,192,52758,1,0,0:0:0:0:
448,192,52916,1,0,0:0:0:0:
320,192,52995,1,0,0:0:0:0:
64,192,53074,1,2,0:0:0:0:
192,192,53074,1,0,0:0:0:0:
448,192,53232,1,0,0:0:0:0:
192,192,53390,1,2,0:0:0:0:
320,192,53390,1,0,0:0:0:0:
64,192,53548,1,0,0:0:0:0:
320,192,53706,1,2,0:0:0:0:
448,192,53706,1,0,0:0:0:0:
192,192,53863,1,0,0:0:0:0:
64,192,54021,1,2,0:0:0:0:
448,192,54021,1,0,0:0:0:0:
320,192,54179,1,0,0:0:0:0:
192,192,54258,1,0,0:0:0:0:
64,192,54337,1,2,0:0:0:0:
448,192,54337,1,4,0:0:0:0:
192,192,54495,1,0,0:0:0:0:
320,192,54495,1,0,0:0:0:0:
64,192,54653,1,2,0:0:0:0:
320,192,54653,1,0,0:0:0:0:
192,192,54811,1,2,0:0:0:0:
448,192,54811,1,0,0:0:0:0:
64,192,54969,1,2,0:0:0:0:
192,192,54969,1,0,0:0:0:0:
320,192,55127,1,8,0:0:0:0:
448,192,55127,1,0,0:0:0:0:
64,192,55285,1,2,0:0:0:0:
320,192,55285,1,8,0:0:0:0:
192,192,55442,128,8,56153:0:0:0:0:
448,192,55442,128,2,56153:0:0:0:0:
64,192,56232,1,0,0:0:0:0:
192,192,56232,1,0,0:0:0:0:
448,192,56232,1,0,0:0:0:0:
64,192,56863,1,2,0:0:0:0:
320,192,56863,1,4,0:0:0:0:
448,192,56863,1,0,0:0:0:0:
192,192,57021,1,2,0:0:0:0:
64,192,57179,1,0,0:0:0:0:
320,192,57179,1,0,0:0:0:0:
448,192,57179,1,0,0:0:0:0:
64,192,57337,1,0,0:0:0:0:
192,192,57337,1,0,0:0:0:0:
320,192,57416,1,0,0:0:0:0:
192,192,57495,1,0,0:0:0:0:
448,192,57495,1,0,0:0:0:0:
64,192,57653,1,2,0:0:0:0:
192,192,57811,1,8,0:0:0:0:
320,192,57811,1,0,0:0:0:0:
448,192,57811,1,0,0:0:0:0:
64,192,57969,1,0,0:0:0:0:
320,192,58127,1,2,0:0:0:0:
448,192,58127,1,0,0:0:0:0:
192,192,58285,1,0,0:0:0:0:
64,192,58442,1,8,0:0:0:0:
320,192,58442,1,0,0:0:0:0:
448,192,58442,128,0,58758:0:0:0:0:
192,192,58600,1,2,0:0:0:0:
64,192,58758,128,0,59074:0:0:0:0:
320,192,58758,1,0,0:0:0:0:
448,192,58916,1,2,0:0:0:0:
192,192,59074,128,8,59390:0:0:0:0:
320,192,59074,1,0,0:0:0:0:
448,192,59232,1,0,0:0:0:0:
64,192,59390,1,2,0:0:0:0:
320,192,59390,1,0,0:0:0:0:
192,192,59548,1,2,0:0:0:0:
64,192,59706,1,8,0:0:0:0:
320,192,59706,1,0,0:0:0:0:
448,192,59706,1,0,0:0:0:0:
192,192,59863,1,0,0:0:0:0:
320,192,60021,1,0,0:0:0:0:
192,192,60179,1,2,0:0:0:0:
448,192,60179,1,0,0:0:0:0:
64,192,60337,1,8,0:0:0:0:
192,192,60337,1,0,0:0:0:0:
320,192,60337,1,0,0:0:0:0:
448,192,60495,1,0,0:0:0:0:
64,192,60653,1,2,0:0:0:0:
192,192,60653,1,0,0:0:0:0:
320,192,60811,1,0,0:0:0:0:
64,192,60969,128,8,61285:0:0:0:0:
192,192,60969,1,0,0:0:0:0:
448,192,60969,1,0,0:0:0:0:
320,192,61127,1,2,0:0:0:0:
192,192,61285,128,0,61600:0:0:0:0:
448,192,61285,1,0,0:0:0:0:
64,192,61442,1,2,0:0:0:0:
320,192,61600,128,8,61916:0:0:0:0:
448,192,61600,1,0,0:0:0:0:
192,192,61758,1,0,0:0:0:0:
64,192,61916,1,2,0:0:0:0:
448,192,61916,1,0,0:0:0:0:
192,192,62074,1,2,0:0:0:0:
64,192,62232,1,8,0:0:0:0:
320,192,62232,1,0,0:0:0:0:
448,192,62232,1,0,0:0:0:0:
192,192,62390,1,0,0:0:0:0:
320,192,62390,1,0,0:0:0:0:
448,192,62469,1,0,0:0:0:0:
64,192,62548,1,0,0:0:0:0:
192,192,62548,1,0,0:0:0:0:
320,192,62706,1,2,0:0:0:0:
64,192,62863,1,8,0:0:0:0:
192,192,62863,1,0,0:0:0:0:
448,192,62863,1,0,0:0:0:0:
320,192,63021,1,0,0:0:0:0:
64,192,63179,1,2,0:0:0:0:
448,192,63179,1,0,0:0:0:0:
192,192,63337,1,0,0:0:0:0:
64,192,63495,1,8,0:0:0:0:
320,192,63495,128,0,63811:0:0:0:0:
448,192,63495,1,0,0:0:0:0:
192,192,63653,1,2,0:0:0:0:
64,192,63811,1,0,0:0:0:0:
192,192,63811,128,0,64127:0:0:0:0:
320,192,63969,1,2,0:0:0:0:
64,192,64127,128,8,64442:0:0:0:0:
448,192,64127,1,0,0:0:0:0:
320,192,64285,1,0,0:0:0:0:
192,192,64442,1,2,0:0:0:0:
320,192,64442,1,4,0:0:0:0:
448,192,64442,1,0,0:0:0:0:
64,192,64600,1,2,0:0:0:0:
192,192,64600,1,0,0:0:0:0:
320,192,64758,1,8,0:0:0:0:
448,192,64758,1,0,0:0:0:0:
64,192,64916,1,8,0:0:0:0:
64,192,65074,1,4,0:0:0:0:
192,192,65074,1,2,0:0:0:0:
448,192,65074,1,0,0:0:0:0:
192,192,65232,1,2,0:0:0:0:
320,192,65232,1,0,0:0:0:0:
64,192,65390,1,8,0:0:0:0:
448,192,65390,1,0,0:0:0:0:
320,192,65548,1,8,0:0:0:0:
64,192,65706,1,2,0:0:0:0:
320,192,65706,1,4,0:0:0:0:
448,192,65706,1,0,0:0:0:0:
192,192,65863,1,2,0:0:0:0:
448,192,65863,1,0,0:0:0:0:
64,192,66021,1,8,0:0:0:0:
320,192,66021,1,0,0:0:0:0:
192,192,66179,1,2,0:0:0:0:
64,192,66337,1,2,0:0:0:0:
192,192,66337,1,0,0:0:0:0:
320,192,66337,1,0,0:0:0:0:
320,192,66495,1,2,0:0:0:0:
448,192,66495,1,0,0:0:0:0:
64,192,66653,1,8,0:0:0:0:
192,192,66653,1,0,0:0:0:0:
64,192,66969,1,2,0:0:0:0:
320,192,66969,1,4,0:0:0:0:
448,192,66969,1,0,0:0:0:0:
64,192,67127,1,2,0:0:0:0:
192,192,67127,1,0,0:0:0:0:
320,192,67285,1,8,0:0:0:0:
448,192,67285,1,0,0:0:0:0:
192,192,67442,1,0,0:0:0:0:
64,192,67600,1,0,0:0:0:0:
320,192,67758,1,2,0:0:0:0:
448,192,67758,1,0,0:0:0:0:
64,192,67916,1,8,0:0:0:0:
192,192,67916,1,0,0:0:0:0:
448,192,67916,1,0,0:0:0:0:
320,192,68074,1,0,0:0:0:0:
64,192,68232,1,2,0:0:0:0:
192,192,68232,1,4,0:0:0:0:
448,192,68232,1,0,0:0:0:0:
192,192,68390,1,2,0:0:0:0:
320,192,68390,1,0,0:0:0:0:
64,192,68548,1,8,0:0:0:0:
448,192,68548,1,0,0:0:0:0:
192,192,68706,1,2,0:0:0:0:
320,192,68863,1,0,0:0:0:0:
64,192,69021,1,2,0:0:0:0:
448,192,69021,1,0,0:0:0:0:
64,192,69179,1,8,0:0:0:0:
192,192,69179,1,0,0:0:0:0:
320,192,69179,1,0,0:0:0:0:
448,192,69337,1,0,0:0:0:0:
64,192,69495,1,2,0:0:0:0:
192,192,69495,1,0,0:0:0:0:
320,192,69495,1,0,0:0:0:0:
192,192,69653,1,2,0:0:0:0:
64,192,69811,1,8,0:0:0:0:
320,192,69811,1,0,0:0:0:0:
448,192,69811,1,0,0:0:0:0:
192,192,69969,1,0,0:0:0:0:
448,192,70127,1,0,0:0:0:0:
64,192,70285,1,2,0:0:0:0:
320,192,70285,1,0,0:0:0:0:
192,192,70442,1,8,0:0:0:0:
320,192,70442,1,0,0:0:0:0:
448,192,70442,1,0,0:0:0:0:
64,192,70600,1,0,0:0:0:0:
192,192,70758,1,2,0:0:0:0:
448,192,70758,1,0,0:0:0:0:
320,192,70916,1,2,0:0:0:0:
64,192,71074,1,8,0:0:0:0:
192,192,71074,1,0,0:0:0:0:
448,192,71074,1,0,0:0:0:0:
192,192,71232,1,2,0:0:0:0:
64,192,71390,1,8,0:0:0:0:
320,192,71390,1,0,0:0:0:0:
448,192,71390,1,0,0:0:0:0:
320,192,71548,1,2,0:0:0:0:
64,192,71706,1,8,0:0:0:0:
448,192,71706,1,0,0:0:0:0:
320,192,71785,1,8,0:0:0:0:
64,192,71863,1,8,0:0:0:0:
192,192,71863,1,0,0:0:0:0:
192,192,72021,1,2,0:0:0:0:
320,192,72021,1,4,0:0:0:0:
448,192,72021,1,0,0:0:0:0:
320,192,72179,1,2,0:0:0:0:
64,192,72337,1,8,0:0:0:0:
192,192,72337,1,0,0:0:0:0:
448,192,72337,1,0,0:0:0:0:
192,192,72495,1,2,0:0:0:0:
64,192,72653,1,8,0:0:0:0:
320,192,72653,1,0,0:0:0:0:
448,192,72653,1,0,0:0:0:0:
448,192,72811,1,2,0:0:0:0:
64,192,72969,1,8,0:0:0:0:
192,192,72969,1,0,0:0:0:0:
320,192,72969,1,0,0:0:0:0:
64,192,73127,1,2,0:0:0:0:
192,192,73285,1,8,0:0:0:0:
320,192,73285,1,0,0:0:0:0:
448,192,73285,1,0,0:0:0:0:
192,192,73442,1,2,0:0:0:0:
64,192,73600,1,8,0:0:0:0:
320,192,73600,1,0,0:0:0:0:
448,192,73600,1,0,0:0:0:0:
320,192,73758,1,2,0:0:0:0:
64,192,73916,1,8,0:0:0:0:
192,192,73916,1,0,0:0:0:0:
448,192,73916,1,0,0:0:0:0:
64,192,74074,1,2,0:0:0:0:
192,192,74232,1,8,0:0:0:0:
320,192,74232,1,0,0:0:0:0:
448,192,74232,1,0,0:0:0:0:
448,192,74390,1,2,0:0:0:0:
320,192,74469,1,2,0:0:0:0:
64,192,74548,1,2,0:0:0:0:
192,192,74548,1,0,0:0:0:0:
448,192,74548,1,0,0:0:0:0:
64,192,74706,1,2,0:0:0:0:
192,192,74706,1,0,0:0:0:0:
320,192,74863,1,8,0:0:0:0:
64,192,75021,1,2,0:0:0:0:
448,192,75021,1,0,0:0:0:0:
192,192,75179,1,8,0:0:0:0:
320,192,75337,1,2,0:0:0:0:
448,192,75337,1,0,0:0:0:0:
192,192,75495,1,0,0:0:0:0:
64,192,75653,128,2,75969:0:0:0:0:
320,192,75653,1,4,0:0:0:0:
448,192,75653,1,0,0:0:0:0:
320,192,75969,1,2,0:0:0:0:
448,192,75969,1,0,0:0:0:0:
64,192,76127,1,8,0:0:0:0:
448,192,76127,1,0,0:0:0:0:
192,192,76206,1,2,0:0:0:0:
320,192,76285,1,2,0:0:0:0:
448,192,76363,1,2,0:0:0:0:
64,192,76442,1,8,0:0:0:0:
192,192,76442,1,0,0:0:0:0:
320,192,76521,1,2,0:0:0:0:
448,192,76600,1,2,0:0:0:0:
192,192,76679,1,2,0:0:0:0:
64,192,76758,1,8,0:0:0:0:
320,192,76758,1,0,0:0:0:0:
448,192,76837,1,2,0:0:0:0:
192,192,76916,1,2,0:0:0:0:
320,192,76995,1,2,0:0:0:0:
64,192,77074,1,2,0:0:0:0:
448,192,77074,1,4,0:0:0:0:
192,192,77232,1,0,0:0:0:0:
320,192,77232,1,0,0:0:0:0:
64,192,77390,1,0,0:0:0:0:
320,192,77548,1,0,0:0:0:0:
448,192,77548,1,0,0:0:0:0:
192,192,77863,1,0,0:0:0:0:
320,192,78021,1,0,0:0:0:0:
448,192,78021,1,0,0:0:0:0:
64,192,78179,1,0,0:0:0:0:
192,192,78337,1,0,0:0:0:0:
448,192,78337,1,0,0:0:0:0:
64,192,78653,1,0,0:0:0:0:
320,192,78653,1,0,0:0:0:0:
320,192,78969,1,0,0:0:0:0:
448,192,78969,1,0,0:0:0:0:
64,192,79285,1,0,0:0:0:0:
192,192,79285,1,0,0:0:0:0:
64,192,79600,1,0,0:0:0:0:
320,192,79600,1,0,0:0:0:0:
192,192,79758,1,0,0:0:0:0:
448,192,79758,1,0,0:0:0:0:
64,192,79916,1,0,0:0:0:0:
192,192,80074,1,0,0:0:0:0:
320,192,80074,1,0,0:0:0:0:
320,192,80390,1,0,0:0:0:0:
64,192,80548,1,0,0:0:0:0:
192,192,80548,1,0,0:0:0:0:
448,192,80706,1,0,0:0:0:0:
64,192,80863,1,0,0:0:0:0:
320,192,80863,1,0,0:0:0:0:
192,192,81179,1,0,0:0:0:0:
320,192,81337,1,0,0:0:0:0:
64,192,81495,1,0,0:0:0:0:
448,192,81495,1,0,0:0:0:0:
192,192,81811,1,0,0:0:0:0:
320,192,81811,1,0,0:0:0:0:
64,192,82127,1,0,0:0:0:0:
448,192,82127,1,0,0:0:0:0:
320,192,82285,1,0,0:0:0:0:
192,192,82442,1,0,0:0:0:0:
448,192,82442,1,0,0:0:0:0:
64,192,82600,1,0,0:0:0:0:
320,192,82600,1,0,0:0:0:0:
192,192,82916,1,0,0:0:0:0:
64,192,83074,1,0,0:0:0:0:
448,192,83074,1,0,0:0:0:0:
320,192,83232,1,0,0:0:0:0:
192,192,83390,1,0,0:0:0:0:
448,192,83390,1,0,0:0:0:0:
320,192,83706,1,0,0:0:0:0:
192,192,83863,1,0,0:0:0:0:
64,192,84021,1,0,0:0:0:0:
320,192,84179,1,0,0:0:0:0:
448,192,84337,1,0,0:0:0:0:
192,192,84495,1,0,0:0:0:0:
64,192,84653,1,0,0:0:0:0:
320,192,84653,1,0,0:0:0:0:
192,192,84969,1,0,0:0:0:0:
64,192,85127,1,0,0:0:0:0:
320,192,85285,1,0,0:0:0:0:
448,192,85285,1,0,0:0:0:0:
192,192,85442,1,0,0:0:0:0:
320,192,85600,1,0,0:0:0:0:
448,192,85758,1,0,0:0:0:0:
64,192,85916,1,0,0:0:0:0:
192,192,85916,1,0,0:0:0:0:
320,192,86074,1,0,0:0:0:0:
192,192,86232,1,0,0:0:0:0:
64,192,86390,1,0,0:0:0:0:
320,192,86548,1,0,0:0:0:0:
448,192,86548,1,0,0:0:0:0:
192,192,86863,1,0,0:0:0:0:
64,192,87179,128,0,88442:0:0:0:0:
320,192,87179,1,0,0:0:0:0:
192,192,88442,1,0,0:0:0:0:
448,192,88442,1,0,0:0:0:0:
320,192,88758,1,0,0:0:0:0:
64,192,89074,1,0,0:0:0:0:
192,192,89074,1,0,0:0:0:0:
192,192,89390,1,0,0:0:0:0:
320,192,89390,1,0,0:0:0:0:
320,192,89706,1,0,0:0:0:0:
448,192,89706,128,0,90969:0:0:0:0:
64,192,90021,1,0,0:0:0:0:
320,192,90337,1,0,0:0:0:0:
192,192,90653,1,0,0:0:0:0:
64,192,90969,128,0,92232:0:0:0:0:
320,192,91285,1,0,0:0:0:0:
192,192,91600,1,0,0:0:0:0:
320,192,91758,1,0,0:0:0:0:
448,192,91916,1,0,0:0:0:0:
192,192,92074,1,0,0:0:0:0:
320,192,92232,1,0,0:0:0:0:
448,192,92232,1,0,0:0:0:0:
192,192,92548,1,0,0:0:0:0:
64,192,92706,1,0,0:0:0:0:
448,192,92706,1,0,0:0:0:0:
320,192,93021,1,0,0:0:0:0:
192,192,93179,1,0,0:0:0:0:
448,192,93179,1,0,0:0:0:0:
64,192,93495,1,0,0:0:0:0:
320,192,93495,1,0,0:0:0:0:
448,192,93811,1,0,0:0:0:0:
64,192,93969,1,0,0:0:0:0:
192,192,93969,1,0,0:0:0:0:
320,192,94285,1,0,0:0:0:0:
192,192,94442,1,0,0:0:0:0:
448,192,94442,1,0,0:0:0:0:
64,192,94758,1,0,0:0:0:0:
448,192,94758,1,0,0:0:0:0:
320,192,94798,1,0,0:0:0:0:
192,192,94837,1,0,0:0:0:0:
