osu file format v14

[General]
AudioFilename: audio.mp3
AudioLeadIn: 0
PreviewTime: 69482
Countdown: 0
SampleSet: None
StackLeniency: 0.7
Mode: 0
LetterboxInBreaks: 0
WidescreenStoryboard: 1

[Editor]
Bookmarks: 14377,15640,24482,25745,34587,44692,54798,59850,62377,64903,69640,75561,75640,77535,80061,90166,92692,95219,97745,101535,102798,104061,105324,107850
DistanceSpacing: 1.3
BeatDivisor: 1
GridSize: 4
TimelineZoom: 1

[Metadata]
Title:Re:TrymenT
TitleUnicode:Re:TrymenT
Artist:Hotaru Murasaki
ArtistUnicode:紫咲ほたる
Creator:Daoski
Version:Sinn:EasY
Source:Re:LieF ~親愛なるあなたへ~
Tags:short レリーフ dear you shin'ainaru anata e re lief tryment relief retryment eroge visual novel rask opening arika kibbleru garden bandi sinn
BeatmapID:1307677
BeatmapSetID:517219

[Difficulty]
HPDrainRate:2
CircleSize:2.5
OverallDifficulty:3
ApproachRate:3.5
SliderMultiplier:0.600000005960464
SliderTickRate:1

[Events]
//Background and Video events
0,0,"sinn bg.jpg",0,0
Video,0,"tryment.avi"
//Break Periods
//Storyboard Layer 0 (Background)
//Storyboard Layer 1 (Fail)
//Storyboard Layer 2 (Pass)
//Storyboard Layer 3 (Foreground)
//Storyboard Sound Samples

[TimingPoints]
13114,315.789473684211,4,2,1,30,1,0
24482,-111.111111111111,4,2,1,50,0,0
34587,-111.111111111111,4,2,1,40,0,0
54798,-111.111111111111,4,2,1,50,0,0
59850,-99.9999999999999,4,2,1,50,0,0
68692,-99.9999999999999,4,2,1,60,0,0
69956,-99.9999999999999,4,2,1,70,0,1
90166,-111.111111111111,4,2,1,30,0,0
100271,-125,4,2,1,30,0,0
102798,-142.857142857143,4,2,1,30,0,0

[Colours]
Combo1 : 255,208,55
Combo2 : 182,218,62
Combo3 : 250,119,158
Combo4 : 154,132,215

[HitObjects]
256,40,14377,6,0,B|136:40|136:40|48:128,1,240.000002384186
340,244,16903,6,0,B|340:124|340:124|252:36,1,240.000002384186
136,328,19429,6,0,B|256:328|256:328|344:240,1,240.000002384186
52,124,21955,6,0,B|52:244|52:244|140:332,1,240.000002384186
328,124,24482,6,0,P|236:184|228:284,2,215.99999555397
136,328,28114,1,0,0:0:0:0:
136,328,29535,6,0,B|212:252|212:252|320:252|320:252|400:172,1,323.999993330955
320,60,32061,1,0,0:0:0:0:
180,60,32692,1,0,0:0:0:0:
104,176,33324,1,0,0:0:0:0:
396,176,34587,6,0,P|424:276|348:356,1,215.99999555397
200,292,36482,1,0,0:0:0:0:
200,292,37114,6,0,B|360:292|360:292|320:252,1,215.99999555397
320,112,39008,1,0,0:0:0:0:
446,50,39640,6,0,B|446:210|446:210|406:170,1,215.99999555397
256,176,41535,1,0,0:0:0:0:
48,176,42166,6,0,B|124:140|156:176|184:204|256:176,1,215.99999555397
208,80,44061,1,0,0:0:0:0:
48,176,44692,6,0,B|4:236|20:304|64:308|64:308|104:268,1,215.99999555397
244,268,46587,1,0,0:0:0:0:
384,268,47219,6,0,P|312:336|244:268,1,215.99999555397
308,144,49114,1,0,0:0:0:0:
196,104,49745,6,0,B|268:92|308:144|308:144|336:104|384:96,1,215.99999555397
400,200,51640,1,0,0:0:0:0:
280,300,52271,6,0,B|324:240|308:172|264:168|264:168|224:208,1,215.99999555397
408,0,54798,6,0,B|332:76|332:76|224:76|224:76|144:156,1,323.999993330955
56,260,57324,6,0,B|80:236|80:236|152:284|220:232|220:232|248:260|248:260|296:216|356:232,1,323.999993330955
448,380,59850,6,0,B|472:320|436:272|436:272|472:176|380:96|304:128,1,360.000003576278
140,156,62377,6,0,P|216:308|339:227,1,360.000003576278
224,92,64903,6,0,B|260:140|236:204|236:204|260:132|328:120,1,240.000002384186
453,35,67429,6,0,B|435:105|487:188|487:188|397:138,1,240.000002384186
369,263,69956,6,0,P|294:229|210:273,1,180.000001788139
146,325,71219,2,0,P|94:325|82:321,1,60.0000005960464
22,269,71850,2,0,P|14:241|14:193,1,60.0000005960464
58,133,72482,6,0,P|94:117|214:177,1,180.000001788139
298,209,73745,2,0,L|298:149,1,60.0000005960464
382,125,74377,2,0,L|382:65,1,60.0000005960464
298,41,75008,6,0,B|242:45|214:81|214:81|182:37|122:37,1,180.000001788139
50,53,76271,2,0,L|50:113,1,60.0000005960464
130,145,76903,2,0,P|154:169|178:181,1,60.0000005960464
298,149,77535,6,0,L|418:149,2,120.000001192093
210,293,79429,2,0,P|186:269|162:257,1,60.0000005960464
70,257,80061,6,0,B|26:217|26:217|82:173|70:113,1,180.000001788139
18,37,81324,6,0,P|98:25|159:94,1,180.000001788139
158,185,82587,6,0,B|206:185|234:145|234:145|254:197|318:209,1,180.000001788139
322,113,83850,6,0,P|370:145|390:217,1,120.000001192093
274,293,85114,6,0,P|235:271|222:257,1,60.0000005960464
138,285,85745,2,0,P|137:240|143:221,1,60.0000005960464
74,161,86377,2,0,P|112:138|134:133,1,60.0000005960464
150,45,87008,2,0,P|189:66|202:81,1,60.0000005960464
290,57,87640,6,0,P|282:121|234:165,1,120.000001192093
79,159,88745,2,0,B|127:167|163:139|163:139|163:159|163:175|163:175|199:151|247:159,1,210.000002086162
313,219,90166,6,0,P|299:281|99:251,1,323.999993330955
66,149,92692,6,0,B|134:129|186:169|206:229|206:229|202:161|254:113|302:113,1,323.999993330955
418,233,95219,6,0,B|406:321|314:341|270:317|270:317|206:353|150:321,1,323.999993330955
2,233,97745,6,0,B|42:213|94:229|94:229|150:197|206:229|206:229|270:197|313:219,1,323.999993330955
454,133,100271,6,0,P|346:153|313:219,1,192.000001907348
150,321,102166,2,0,L|150:269,1,48.0000004768371
46,261,102798,6,0,P|94:182|174:169,1,167.999996541977
256,192,105324,12,0,107850,0:0:0:0:
