osu file format v14

[General]
AudioFilename: audio.mp3
AudioLeadIn: 0
PreviewTime: 69482
Countdown: 0
SampleSet: None
StackLeniency: 0.7
Mode: 0
LetterboxInBreaks: 0
WidescreenStoryboard: 1

[Editor]
Bookmarks: 69956
DistanceSpacing: 1.5
BeatDivisor: 4
GridSize: 4
TimelineZoom: 1.7

[Metadata]
Title:Re:TrymenT
TitleUnicode:Re:TrymenT
Artist:Hotaru Murasaki
ArtistUnicode:紫咲ほたる
Creator:Daoski
Version:Kibbleru:ExtrA
Source:Re:LieF ~親愛なるあなたへ~
Tags:short レリーフ dear you shin'ainaru anata e re lief tryment relief retryment eroge visual novel rask opening arika kibbleru garden bandi sinn
BeatmapID:1307674
BeatmapSetID:517219

[Difficulty]
HPDrainRate:5.5
CircleSize:4
OverallDifficulty:8
ApproachRate:9.1
SliderMultiplier:1.7
SliderTickRate:2

[Events]
//Background and Video events
0,0,"kibbleru bg.jpg",0,0
Video,0,"tryment.avi"
//Break Periods
//Storyboard Layer 0 (Background)
//Storyboard Layer 1 (Fail)
//Storyboard Layer 2 (Pass)
//Storyboard Layer 3 (Foreground)
//Storyboard Sound Samples

[TimingPoints]
13114,315.789473684211,4,2,0,100,1,0
14377,-133.333333333333,4,2,10,40,0,0
14850,-133.333333333333,4,2,11,40,0,0
15324,-133.333333333333,4,2,12,40,0,0
15640,-133.333333333333,4,2,13,40,0,0
16113,-133.333333333333,4,2,14,40,0,0
16587,-133.333333333333,4,2,15,40,0,0
16903,-133.333333333333,4,2,16,40,0,0
17061,-133.333333333333,4,2,17,40,0,0
17219,-133.333333333333,4,2,18,40,0,0
17377,-133.333333333333,4,2,13,40,0,0
17692,-133.333333333333,4,2,17,40,0,0
17850,-133.333333333333,4,2,19,40,0,0
18166,-133.333333333333,4,2,14,40,0,0
18640,-133.333333333333,4,2,12,40,0,0
18798,-133.333333333333,4,2,20,40,0,0
19114,-133.333333333333,4,2,11,40,0,0
19429,-133.333333333333,4,2,10,40,0,0
19903,-133.333333333333,4,2,11,40,0,0
20377,-133.333333333333,4,2,14,40,0,0
20692,-133.333333333333,4,2,19,40,0,0
21008,-133.333333333333,4,2,21,40,0,0
21324,-133.333333333333,4,2,22,40,0,0
21640,-133.333333333333,4,2,23,40,0,0
21956,-133.333333333333,4,2,24,40,0,0
22429,-133.333333333333,4,2,23,40,0,0
22903,-133.333333333333,4,2,12,40,0,0
23219,-133.333333333333,4,2,11,50,0,0
23692,-133.333333333333,4,2,10,70,0,0
24166,-80,4,2,25,90,0,0
24245,-80,4,2,1,40,0,0
24482,-100,4,2,10,50,0,0
24798,-100,4,2,1,50,0,0
28271,-100,4,2,2,50,0,0
28429,-100,4,2,16,50,0,0
28587,-100,4,2,28,50,0,0
28745,-100,4,2,24,50,0,0
28903,-100,4,2,16,50,0,0
29061,-100,4,2,19,50,0,0
29219,-100,4,2,14,50,0,0
29377,-100,4,2,18,50,0,0
29535,-100,4,2,11,50,0,0
29850,-100,4,2,1,50,0,0
31429,-100,4,2,2,50,0,0
31587,-100,4,2,1,50,0,0
32061,-133.333333333333,4,2,1,50,0,0
33324,-133.333333333333,4,2,1,40,0,0
33798,-133.333333333333,4,2,1,20,0,0
33956,-133.333333333333,4,2,1,20,0,0
34587,-142.857142857143,4,2,2,30,0,0
34903,-142.857142857143,4,2,1,30,0,0
37114,-142.857142857143,4,2,1,30,0,0
37429,-142.857142857143,4,2,1,30,0,0
39640,-142.857142857143,4,2,1,30,0,0
39956,-142.857142857143,4,2,1,30,0,0
42482,-142.857142857143,4,2,1,30,0,0
43666,-142.857142857143,4,2,1,5,0,0
43745,-142.857142857143,4,2,12,30,0,0
43903,-142.857142857143,4,2,16,30,0,0
44061,-142.857142857143,4,2,19,30,0,0
44219,-142.857142857143,4,2,14,30,0,0
44377,-142.857142857143,4,2,18,30,0,0
44535,-142.857142857143,4,2,17,30,0,0
44692,-142.857142857143,4,2,1,40,0,0
44850,-142.857142857143,4,2,2,40,0,0
45008,-125,4,2,1,40,0,0
49745,-125,4,2,1,40,0,0
50061,-125,4,2,1,40,0,0
53219,-125,4,2,1,40,0,0
53692,-125,4,2,18,40,0,0
53850,-125,4,2,12,40,0,0
54008,-125,4,2,16,40,0,0
54166,-125,4,2,19,40,0,0
54324,-125,4,2,14,40,0,0
54482,-125,4,2,18,40,0,0
54640,-125,4,2,17,40,0,0
54798,-125,4,2,1,50,0,0
55114,-125,4,2,1,50,0,0
57245,-125,4,2,1,5,0,0
57324,-125,4,2,1,50,0,0
59061,-125,4,2,1,50,0,0
59850,-125,4,2,26,50,0,0
60166,-125,4,2,1,50,0,0
60640,-125,4,2,26,50,0,0
60798,-125,4,2,1,50,0,0
60956,-125,4,2,27,50,0,0
61114,-125,4,2,1,50,0,0
61271,-125,4,2,1,50,0,0
62377,-125,4,2,27,50,0,0
62535,-125,4,2,1,50,0,0
63166,-125,4,2,27,50,0,0
63324,-125,4,2,1,50,0,0
63482,-125,4,2,18,50,0,0
63640,-125,4,2,1,50,0,0
64271,-125,4,2,1,50,0,0
64587,-125,4,2,1,50,0,0
64903,-111.111111111111,4,2,1,50,0,0
67429,-111.111111111111,4,2,1,60,0,0
67745,-111.111111111111,4,2,1,60,0,0
68061,-111.111111111111,4,2,1,80,0,0
68377,-111.111111111111,4,2,1,100,0,0
68535,-111.111111111111,4,2,1,100,0,0
68692,-133.333333333333,4,2,1,40,0,0
69324,-133.333333333333,4,2,1,80,0,0
69640,-133.333333333333,4,2,1,60,0,0
69956,-100,4,2,1,80,0,1
70114,-100,4,2,2,80,0,1
70271,-100,4,2,1,80,0,1
70745,-100,4,2,1,80,0,1
71535,-100,4,2,28,80,0,1
71692,-100,4,2,1,80,0,1
71850,-100,4,2,24,80,0,1
72008,-100,4,2,1,80,0,1
72166,-100,4,2,19,80,0,1
72324,-100,4,2,18,80,0,1
72640,-100,4,2,2,80,0,1
72798,-100,4,2,1,80,0,1
74061,-100,4,2,18,80,0,1
74219,-100,4,2,1,80,0,1
74377,-100,4,2,19,80,0,1
74535,-100,4,2,1,80,0,1
74692,-100,4,2,29,80,0,1
74929,-100,4,2,1,5,0,1
75008,-100,4,2,1,80,0,1
75166,-100,4,2,2,80,0,1
75324,-100,4,2,1,80,0,1
75482,-100,4,2,1,80,0,1
75640,-100,4,2,12,80,0,1
75798,-100,4,2,1,80,0,1
76271,-100,4,2,2,80,0,1
76429,-100,4,2,1,80,0,1
76587,-100,4,2,28,80,0,1
76745,-100,4,2,1,80,0,1
76903,-100,4,2,24,80,0,1
77061,-100,4,2,1,80,0,1
77219,-100,4,2,23,80,0,1
77535,-100,4,2,1,80,0,1
79982,-100,4,2,1,5,0,1
80061,-100,4,2,1,90,0,1
80219,-100,4,2,2,90,0,1
80377,-100,4,2,1,90,0,1
82745,-100,4,2,2,90,0,1
82903,-100,4,2,1,90,0,1
85114,-100,4,2,1,100,0,1
87640,-100,4,2,1,90,0,1
87956,-100,4,2,1,90,0,1
88429,-80,4,2,1,90,0,1
88745,-100,4,2,1,90,0,1
89061,-100,4,2,1,90,0,1
90166,-133.333333333333,4,2,27,40,0,0
90324,-133.333333333333,4,2,18,40,0,0
90482,-133.333333333333,4,2,19,40,0,0
90640,-133.333333333333,4,2,24,40,0,0
91114,-133.333333333333,4,2,12,40,0,0
91745,-133.333333333333,4,2,28,40,0,0
92061,-133.333333333333,4,2,24,40,0,0
92377,-133.333333333333,4,2,19,40,0,0
92692,-133.333333333333,4,2,24,40,0,0
93166,-133.333333333333,4,2,23,40,0,0
93956,-133.333333333333,4,2,19,50,0,0
94271,-133.333333333333,4,2,23,60,0,0
94587,-133.333333333333,4,2,24,70,0,0
94903,-133.333333333333,4,2,28,80,0,0
95219,-133.333333333333,4,2,24,80,0,0
95377,-133.333333333333,4,2,18,40,0,0
95535,-133.333333333333,4,2,13,40,0,0
95692,-133.333333333333,4,2,14,40,0,0
96482,-133.333333333333,4,2,12,40,0,0
97114,-133.333333333333,4,2,18,40,0,0
97429,-133.333333333333,4,2,14,40,0,0
97745,-133.333333333333,4,2,16,40,0,0
98377,-133.333333333333,4,2,19,40,0,0
99008,-133.333333333333,4,2,14,40,0,0
99640,-133.333333333333,4,2,13,40,0,0
100271,-200,4,2,18,40,0,0
101219,-200,4,2,1,40,0,0
101535,-166.666666666667,4,2,25,40,0,0
102166,-166.666666666667,4,2,30,40,0,0
102482,-166.666666666667,4,2,31,40,0,0
102798,-166.666666666667,4,2,12,40,0,0
104061,-142.857142857143,4,2,23,40,0,0
105008,-142.857142857143,4,2,19,40,0,0
105324,-100,4,2,10,40,0,0
107850,-100,4,2,1,20,0,0

[Colours]
Combo1 : 255,208,55
Combo2 : 182,218,62
Combo3 : 250,119,158
Combo4 : 154,132,215

[HitObjects]
81,171,14377,6,0,P|113:164|143:156,1,63.7500024318696,2|0,0:0|0:0,0:0:0:0:
213,86,14692,1,0,0:0:0:0:
295,195,14850,2,0,P|245:196|194:259,1,127.500004863739,2|0,0:0|0:0,0:0:0:0:
258,365,15324,2,0,P|264:340|269:302,1,63.7500024318696,2|0,0:0|0:0,0:0:0:0:
370,258,15640,5,2,0:0:0:0:
276,100,15798,2,0,P|301:100|347:102,1,63.7500024318696,0|0,0:0|0:0,0:0:0:0:
295,195,16114,2,0,L|167:185,1,127.500004863739,2|0,0:0|0:0,0:0:0:0:
49,102,16587,2,0,P|54:133|59:164,1,63.7500024318696,2|0,0:0|0:0,0:0:0:0:
33,282,16903,5,2,0:0:0:0:
157,336,17061,2,0,P|162:304|167:273,1,63.7500024318696,2|2,0:0|0:0,0:0:0:0:
290,135,17377,2,0,P|238:170|176:159,1,127.500004863739,2|2,0:0|0:0,0:0:0:0:
70,42,17850,2,0,P|101:41|130:53,1,63.7500024318696,2|0,0:0|0:0,0:0:0:0:
92,279,18166,6,0,P|85:215|78:152,1,127.500004863739,2|0,0:0|0:0,0:0:0:0:
299,164,18640,1,2,0:0:0:0:
184,232,18798,2,0,P|216:237|247:243,1,63.7500024318696,2|0,0:0|0:0,0:0:0:0:
250,80,19114,2,0,P|281:74|312:68,1,63.7500024318696,2|0,0:0|0:0,0:0:0:0:
459,162,19429,5,2,0:0:0:0:
372,231,19587,2,0,P|364:262|357:293,1,63.7500024318696,0|0,0:0|0:0,0:0:0:0:
330,114,19903,2,0,P|268:104|215:138,1,127.500004863739,2|0,0:0|0:0,0:0:0:0:
119,243,20377,2,0,P|170:249|195:238,1,63.7500024318696,2|0,0:0|0:0,0:0:0:0:
86,112,20692,6,0,P|54:106|23:100,2,63.7500024318696,2|0|2,0:0|0:0|0:0,0:0:0:0:
257,62,21166,1,0,0:0:0:0:
181,14,21324,2,0,P|168:74|199:128,1,127.500004863739,2|2,0:0|0:0,0:0:0:0:
407,244,21956,6,0,P|344:230|281:219,1,127.500004863739,2|0,0:0|0:0,0:0:0:0:
190,295,22429,2,0,P|252:306|315:319,1,127.500004863739,2|0,0:0|0:0,0:0:0:0:
421,354,22903,1,2,0:0:0:0:
340,140,23219,5,2,0:0:0:0:
177,306,23692,1,2,0:0:0:0:
421,354,24166,2,0,L|411:301,1,53.125,2|0,0:0|0:0,0:0:0:0:
325,246,24324,2,0,L|315:193,1,53.125
366,99,24482,6,0,B|294:127|270:70|199:96,2,170,6|0|0,1:0|1:0|1:0,0:0:0:0:
323,9,25271,1,0,0:0:0:0:
238,187,25429,2,0,P|230:228|222:270,1,85,0|0,1:0|0:0,0:0:0:0:
93,353,25745,6,0,P|40:310|55:204,1,170,0|0,1:0|1:0,0:0:0:0:
204,108,26219,2,0,P|162:115|120:121,1,85,8|0,0:3|1:0,0:0:0:0:
294,29,26535,1,8,0:3:0:0:
233,218,26692,2,0,P|274:210|316:204,1,85,0|0,1:0|0:0,0:0:0:0:
501,241,27008,6,0,P|427:206|402:127,1,170,4|0,1:2|1:0,0:0:0:0:
501,0,27482,2,0,P|499:42|492:84,1,85,0|0,0:0|1:0,0:0:0:0:
289,259,27798,2,0,P|290:216|297:174,1,85,0|0,0:0|1:0,0:0:0:0:
365,69,28114,6,0,B|289:45|274:102|198:75,1,170,0|2,0:0|0:0,0:0:0:0:
102,22,28587,1,2,1:2:0:0:
240,176,28745,1,10,0:3:0:0:
44,195,28903,1,2,1:2:0:0:
200,48,29061,1,10,0:3:0:0:
124,144,29219,1,2,1:2:0:0:
326,101,29377,1,2,0:0:0:0:
326,101,29456,1,0,0:0:0:0:
326,100,29535,6,0,B|296:207|296:207|336:257,1,170,2|0,1:2|1:0,0:0:0:0:
491,195,30008,2,0,P|448:188|406:182,1,85,8|0,0:3|1:0,0:0:0:0:
293,362,30324,2,0,P|334:354|376:349,1,85,0|0,0:0|1:0,0:0:0:0:
259,232,30640,1,0,0:0:0:0:
259,232,30719,1,0,0:0:0:0:
259,232,30798,6,0,P|194:180|113:196,1,170,0|0,1:0|1:0,0:0:0:0:
217,67,31271,2,0,B|286:44|312:96|384:69,1,170,8|8,0:3|0:3,0:0:0:0:
454,163,31745,1,0,1:0:0:0:
512,18,31903,1,0,0:0:0:0:
335,169,32061,6,0,P|329:201|324:232,1,63.7500024318696,4|0,1:2|0:0,0:0:0:0:
440,314,32377,2,0,P|445:282|450:251,1,63.7500024318696,0|0,0:0|0:0,0:0:0:0:
445,131,32692,2,0,P|396:171|333:169,1,127.500004863739,4|0,1:0|0:0,0:0:0:0:
253,94,33166,1,0,0:0:0:0:
81,207,33324,6,0,P|143:195|206:186,1,127.500004863739,4|0,1:2|0:0,0:0:0:0:
122,100,33798,2,0,L|78:92,2,31.8750012159348,0|0|0,0:0|0:0|0:0,0:0:0:0:
271,159,34587,6,0,P|248:224|244:276,1,118.999996368408,0|0,1:2|0:0,0:0:0:0:
367,170,35061,1,0,0:0:0:0:
367,169,35219,2,0,P|364:139|357:110,1,59.4999981842042,0|0,0:0|0:0,0:0:0:0:
148,85,35535,2,0,P|150:114|157:143,1,59.4999981842042,0|0,0:0|0:0,0:0:0:0:
268,273,35850,6,0,P|213:243|140:260,2,118.999996368408,0|0|0,0:0|0:0|0:0,0:0:0:0:
195,344,36640,1,0,0:0:0:0:
299,189,36798,2,0,P|328:183|357:178,1,59.4999981842042,0|0,0:0|0:0,0:0:0:0:
473,116,37114,6,0,B|459:165|491:177|468:236,1,118.999996368408,0|0,0:0|0:0,0:0:0:0:
331,325,37587,1,0,0:0:0:0:
331,325,37745,2,0,B|352:268|320:256|334:207,1,118.999996368408,0|0,0:0|0:0,0:0:0:0:
323,71,38219,1,0,0:0:0:0:
378,122,38377,6,0,P|318:115|259:113,2,118.999996368408,0|0|0,0:0|0:0|0:0,0:0:0:0:
467,52,39166,1,0,0:0:0:0:
503,199,39324,2,0,P|495:170|488:141,1,59.4999981842042,0|0,0:0|0:0,0:0:0:0:
367,32,39640,5,0,1:0:0:0:
295,209,39798,1,0,1:0:0:0:
244,121,39956,2,0,P|214:117|184:113,1,59.4999981842042,0|0,0:0|0:0,0:0:0:0:
117,301,40271,2,0,P|146:304|176:308,1,59.4999981842042,0|0,0:0|0:0,0:0:0:0:
295,209,40587,2,0,P|235:211|176:214,1,118.999996368408,0|0,0:0|0:0,0:0:0:0:
100,125,41061,5,0,0:0:0:0:
42,269,41219,2,0,P|44:239|47:209,1,59.4999981842042,0|0,0:0|0:0,0:0:0:0:
194,49,41535,2,0,P|191:78|188:108,1,59.4999981842042,0|0,0:0|0:0,0:0:0:0:
233,230,41850,2,0,P|204:221|175:214,1,59.4999981842042,0|0,0:0|0:0,0:0:0:0:
302,139,42166,6,0,P|361:139|408:105,1,118.999996368408,0|0,0:0|0:0,0:0:0:0:
373,240,42640,2,0,P|345:293|341:352,1,118.999996368408,0|0,0:0|0:0,0:0:0:0:
478,253,43114,2,0,P|478:223|472:194,1,59.4999981842042,0|0,0:0|0:0,0:0:0:0:
380,140,43429,6,0,L|275:133,1,89.2499972763062,0|0,0:0|0:0,0:0:0:0:
210,127,43745,5,2,0:0:0:0:
227,233,43903,1,2,0:0:0:0:
116,93,44061,5,10,0:0:0:0:
133,199,44219,1,10,0:0:0:0:
20,55,44377,5,2,0:0:0:0:
37,161,44535,1,2,1:2:0:0:
116,93,44692,6,0,P|175:95|225:64,1,118.999996368408,0|0,1:0|0:0,0:0:0:0:
326,221,45166,1,0,1:0:0:0:
245,172,45324,2,0,P|236:204|229:238,1,68,8|0,0:0|0:0,0:0:0:0:
424,241,45640,2,0,P|416:207|408:174,1,68,0|0,0:0|0:0,0:0:0:0:
333,44,45956,6,0,P|328:77|324:111,1,68,0|8,1:0|0:0,0:0:0:0:
128,176,46271,2,0,P|121:142|115:109,1,68,0|0,1:0|1:0,0:0:0:0:
207,8,46587,2,0,P|207:41|207:75,1,68,8|0,0:0|0:0,0:0:0:0:
30,147,46903,2,0,P|15:116|-1:86,1,68,0|0,1:0|0:0,0:0:0:0:
22,261,47219,6,0,P|81:232|146:246,1,136,0|0,1:0|0:0,0:0:0:0:
339,178,47692,1,0,1:0:0:0:
364,280,47850,2,0,L|281:266,1,68,8|0,0:0|0:0,0:0:0:0:
218,159,48166,2,0,L|135:145,1,68,0|0,0:0|0:0,0:0:0:0:
311,15,48482,6,0,P|344:72|325:135,1,136,0|0,1:0|1:0,0:0:0:0:
210,384,49114,2,0,P|176:326|195:263,1,136,8|0,0:0|1:0,0:0:0:0:
300,235,49587,1,0,0:0:0:0:
139,177,49745,5,0,1:0:0:0:
343,127,49903,1,0,1:0:0:0:
403,219,50061,2,0,P|397:253|392:287,1,68,0|0,0:0|1:0,0:0:0:0:
241,135,50377,2,0,P|246:101|251:67,1,68,8|0,0:0|0:0,0:0:0:0:
390,22,50692,1,0,0:0:0:0:
476,99,50850,6,0,P|409:113|342:126,1,136,0|8,1:0|0:0,0:0:0:0:
189,255,51324,2,0,P|195:221|200:188,1,68,0|0,1:0|1:0,0:0:0:0:
67,65,51640,2,0,P|92:87|119:108,1,68,8|0,0:0|0:0,0:0:0:0:
304,38,51956,2,0,P|271:49|240:61,1,68,0|0,1:0|0:0,0:0:0:0:
317,233,52271,6,0,P|370:196|376:130,1,136,0|0,1:0|0:0,0:0:0:0:
226,198,52745,1,0,1:0:0:0:
135,150,52903,2,0,P|121:180|123:213,1,68,8|0,0:0|0:0,0:0:0:0:
278,31,53219,1,0,1:0:0:0:
197,61,53377,6,0,P|239:111|305:113,1,136,8|10,0:0|0:0,0:0:0:0:
404,45,53850,1,2,0:0:0:0:
409,181,54008,1,2,0:0:0:0:
305,113,54166,5,2,0:0:0:0:
512,177,54324,1,2,0:0:0:0:
332,268,54482,1,2,0:0:0:0:
409,181,54640,1,2,0:0:0:0:
380,342,54798,6,0,P|329:300|263:300,1,136,4|0,1:0|1:0,0:0:0:0:
118,332,55271,2,0,P|124:298|129:264,1,68,0|0,0:0|1:0,0:0:0:0:
221,93,55587,2,0,P|226:126|232:160,1,68,0|0,0:0|1:0,0:0:0:0:
118,126,55903,5,8,0:3:0:0:
329,111,56061,1,0,1:0:0:0:
118,126,56219,1,8,0:3:0:0:
254,265,56377,2,0,P|220:259|186:255,1,68,0|0,1:0|0:0,0:0:0:0:
50,135,56692,2,0,P|83:130|117:125,1,68,0|0,1:2|0:0,0:0:0:0:
266,34,57008,2,0,P|238:75|239:126,1,102,0|0,1:2|0:0,0:0:0:0:
311,192,57324,6,0,P|377:194|424:148,1,136,4|0,1:2|1:0,0:0:0:0:
338,101,57798,1,0,0:0:0:0:
169,155,57956,2,0,P|173:188|177:222,1,68,0|0,1:0|0:0,0:0:0:0:
134,321,58271,1,0,1:0:0:0:
277,257,58429,5,8,0:3:0:0:
81,212,58587,1,0,1:0:0:0:
284,159,58745,1,8,0:3:0:0:
81,212,58903,1,0,1:0:0:0:
284,159,59061,1,0,0:0:0:0:
121,102,59219,5,8,1:0:0:0:
317,52,59377,1,8,1:0:0:0:
85,6,59535,1,8,1:3:0:0:
324,33,59692,1,8,1:3:0:0:
221,142,59850,6,0,P|193:203|201:269,1,136,6|0,1:0|0:0,0:0:0:0:
334,226,60324,1,0,1:0:0:0:
367,377,60482,2,0,L|384:305,1,68,8|2,0:1|0:0,0:0:0:0:
331,120,60798,1,0,1:0:0:0:
487,191,60956,6,0,P|454:188|420:183,1,68,2|0,1:2|0:0,0:0:0:0:
331,120,61271,1,8,0:1:0:0:
233,256,61429,2,0,P|266:251|300:248,1,68,0|0,1:0|0:0,0:0:0:0:
249,160,61745,5,8,1:0:0:0:
275,341,61903,1,8,1:0:0:0:
124,254,62061,1,8,1:3:0:0:
330,214,62219,1,8,1:3:0:0:
154,371,62377,6,0,P|114:319|123:253,1,136,6|0,1:2|0:0,0:0:0:0:
172,115,62850,1,0,1:0:0:0:
254,166,63008,2,0,P|267:134|269:101,1,68,8|2,0:1|0:0,0:0:0:0:
107,12,63324,2,0,P|93:43|91:76,1,68,0|2,1:0|1:2,0:0:0:0:
56,161,63640,6,0,P|104:116|171:114,1,136,0|8,0:0|1:0,0:0:0:0:
145,219,64114,1,0,0:0:0:0:
264,154,64271,5,8,1:0:0:0:
169,314,64429,1,8,1:0:0:0:
118,97,64587,1,8,1:3:0:0:
117,97,64903,6,0,P|151:91|192:84,1,76.4999976654053,4|0,1:0|0:0,0:0:0:0:
338,238,65219,2,0,P|304:244|260:252,1,76.4999976654053,0|0,1:0|0:0,0:0:0:0:
130,343,65535,2,0,P|160:274|155:199,1,152.999995330811,0|0,1:0|1:0,0:0:0:0:
52,163,66008,1,0,0:0:0:0:
52,163,66087,1,0,0:0:0:0:
52,163,66166,5,0,1:0:0:0:
216,97,66324,1,0,0:0:0:0:
134,40,66482,1,0,1:0:0:0:
159,280,66640,1,0,0:0:0:0:
240,219,66798,5,0,1:0:0:0:
50,275,66956,1,0,0:0:0:0:
238,351,67114,1,0,1:0:0:0:
50,275,67271,1,0,0:0:0:0:
50,275,67350,1,0,0:0:0:0:
50,275,67429,6,0,P|28:203|66:139,1,152.999995330811,4|8,1:2|1:0,0:0:0:0:
185,130,67903,1,8,1:0:0:0:
115,31,68061,2,0,P|152:22|189:12,1,76.4999976654053,8|8,1:0|1:0,0:0:0:0:
249,259,68377,2,0,P|212:249|174:240,1,76.4999976654053,8|8,1:0|1:0,0:0:0:0:
312,130,68692,6,0,B|365:141|414:120|438:69|438:69|418:129|447:168,1,255.000009727478,0|2,0:0|1:2,0:0:0:0:
343,30,69640,2,0,P|312:19|281:17,1,63.7500024318696,0|0,0:0|0:0,0:0:0:0:
85,140,69956,6,0,L|168:122,1,85,4|0,1:0|0:0,0:0:0:0:
256,30,70271,1,8,0:1:0:0:
370,243,70429,2,0,B|304:216|271:262|202:232,1,170,0|0,0:0|1:0,0:0:0:0:
334,332,70903,1,8,0:1:0:0:
253,136,71061,6,0,P|239:97|251:57,1,85,0|0,0:0|1:0,0:0:0:0:
181,222,71377,1,0,0:0:0:0:
347,104,71535,5,10,0:1:0:0:
129,21,71692,1,0,1:0:0:0:
347,104,71850,1,2,0:0:0:0:
100,159,72008,1,0,1:0:0:0:
374,8,72166,1,10,0:1:0:0:
225,101,72324,1,0,0:0:0:0:
361,311,72482,6,0,P|368:269|375:227,1,85,2|0,1:2|0:0,0:0:0:0:
294,47,72798,1,8,0:1:0:0:
424,139,72956,2,0,B|347:113|334:166|258:141,1,170,0|0,0:0|1:0,0:0:0:0:
158,236,73429,1,8,0:1:0:0:
83,71,73587,6,0,P|91:112|99:154,1,85,0|0,0:0|1:0,0:0:0:0:
67,291,73903,1,0,0:0:0:0:
253,192,74061,5,10,0:1:0:0:
2,138,74219,1,0,1:0:0:0:
118,371,74377,1,2,0:0:0:0:
192,116,74535,1,0,1:0:0:0:
51,279,74692,2,0,P|110:257|169:279,1,127.5,10|0,0:1|0:0,0:0:0:0:
247,341,75008,6,0,P|288:332|330:323,1,85,4|0,1:2|0:0,0:0:0:0:
263,221,75324,1,8,0:1:0:0:
452,310,75482,1,0,0:0:0:0:
247,341,75640,1,2,0:0:0:0:
358,184,75798,1,0,1:0:0:0:
152,133,75956,2,0,P|158:175|164:217,1,85,8|0,0:1|0:0,0:0:0:0:
353,68,76271,6,0,P|285:20|204:38,1,170,0|10,0:0|0:1,0:0:0:0:
393,215,76745,1,0,1:0:0:0:
298,259,76903,2,0,P|283:219|293:178,1,85,2|0,0:0|1:0,0:0:0:0:
461,32,77219,2,0,P|475:71|465:112,1,85,10|0,0:1|0:0,0:0:0:0:
209,191,77535,6,0,P|251:185|293:178,1,85,4|0,1:0|1:0,0:0:0:0:
502,257,77850,2,0,P|460:249|417:244,1,85,8|0,0:1|0:0,0:0:0:0:
192,295,78166,2,0,P|234:289|276:282,1,85,4|0,1:2|1:0,0:0:0:0:
512,156,78482,2,0,P|469:149|426:144,1,85,8|0,0:1|0:0,0:0:0:0:
297,40,78798,5,4,1:0:0:0:
375,220,78956,1,0,1:0:0:0:
207,175,79114,1,8,0:1:0:0:
392,59,79271,1,0,0:0:0:0:
207,175,79429,2,0,P|164:169|122:164,1,85,0|0,1:0|1:0,0:0:0:0:
97,42,79745,2,0,P|139:47|181:52,1,85,8|0,1:0|0:0,0:0:0:0:
315,0,80061,6,0,P|296:37|297:79,1,85,4|0,1:0|0:0,0:0:0:0:
395,154,80377,1,8,0:1:0:0:
261,287,80535,1,0,0:0:0:0:
344,342,80692,2,0,P|362:304|361:262,1,85,0|0,0:0|1:0,0:0:0:0:
211,193,81008,2,0,P|176:216|156:253,1,85,8|0,0:1|0:0,0:0:0:0:
320,160,81324,5,4,1:2:0:0:
183,70,81482,2,0,B|255:91|278:36|349:60,1,170,0|0,1:0|1:0,0:0:0:0:
475,56,81956,2,0,P|469:98|465:140,1,85,0|0,0:0|1:0,0:0:0:0:
312,360,82271,2,0,P|317:317|321:275,1,85,8|0,0:1|0:0,0:0:0:0:
320,160,82587,6,0,P|251:206|172:185,1,170,4|8,1:0|0:1,0:0:0:0:
97,78,83061,1,0,0:0:0:0:
16,319,83219,2,0,P|54:299|96:299,1,85,0|0,0:0|1:0,0:0:0:0:
343,229,83535,2,0,P|300:229|263:209,1,85,8|0,0:1|0:0,0:0:0:0:
312,27,83850,6,0,P|316:70|322:112,1,85,0|0,1:0|1:0,0:0:0:0:
158,154,84166,2,0,P|153:196|147:238,1,85,8|0,0:1|1:0,0:0:0:0:
245,324,84482,5,0,1:0:0:0:
48,224,84640,1,0,1:0:0:0:
273,144,84798,1,0,1:0:0:0:
48,224,84956,1,0,1:0:0:0:
179,246,85114,6,0,P|220:237|262:229,1,85,12|0,1:0|1:0,0:0:0:0:
477,83,85429,2,0,P|435:91|393:99,1,85,8|0,0:1|1:0,0:0:0:0:
148,48,85745,6,0,P|189:56|231:64,1,85,8|0,0:1|1:0,0:0:0:0:
492,224,86061,2,0,P|449:213|407:205,1,85,8|0,0:1|1:0,0:0:0:0:
190,167,86377,5,8,0:1:0:0:
281,329,86535,1,0,1:0:0:0:
311,117,86692,2,0,P|305:158|297:200,1,85,8|0,0:1|1:0,0:0:0:0:
118,357,87008,2,0,P|124:315|132:273,1,85,8|0,0:1|1:0,0:0:0:0:
56,139,87324,2,0,P|98:130|139:118,1,85,8|0,0:1|1:0,0:0:0:0:
271,17,87640,5,4,1:0:0:0:
232,257,87798,1,0,1:0:0:0:
358,197,87956,1,8,0:1:0:0:
138,118,88114,2,0,P|180:128|221:137,1,85,0|8,1:0|0:1,0:0:0:0:
365,11,88429,2,0,L|357:63,1,53.125,0|0,1:0|0:0,0:0:0:0:
243,291,88587,2,0,L|250:238,1,53.125,0|0,1:0|0:0,0:0:0:0:
221,137,88745,6,0,B|296:121|314:172|387:157,1,170,4|0,1:2|1:0,0:0:0:0:
488,105,89219,2,0,P|495:146|503:188,1,85,0|0,1:0|1:0,0:0:0:0:
357,63,89535,1,0,1:0:0:0:
306,255,89692,1,0,1:0:0:0:
396,204,89850,1,0,1:0:0:0:
369,171,89929,1,0,1:0:0:0:
331,153,90008,1,0,1:0:0:0:
288,151,90087,1,0,1:0:0:0:
249,167,90166,6,0,P|223:185|192:189,1,63.7500024318696,6|2,1:2|0:0,0:0:0:0:
101,135,90482,1,2,0:0:0:0:
195,110,90640,2,0,L|180:236,1,127.500004863739,2|0,0:0|0:0,0:0:0:0:
131,348,91114,2,0,P|162:338|193:332,1,63.7500024318696,2|0,0:0|0:0,0:0:0:0:
315,278,91429,6,0,P|376:295|439:304,1,127.500004863739,0|2,0:0|0:0,0:0:0:0:
384,204,91903,1,0,0:0:0:0:
456,132,92061,2,0,P|394:114|331:105,1,127.500004863739,2|2,0:0|0:0,0:0:0:0:
204,37,92535,1,0,0:0:0:0:
204,37,92614,1,0,0:0:0:0:
203,36,92692,6,0,P|233:90|216:150,1,127.500004863739,2|0,0:0|0:0,0:0:0:0:
140,103,93166,1,2,0:0:0:0:
129,277,93324,2,0,L|137:202,1,63.7500024318696,0|0,0:0|0:0,0:0:0:0:
2,167,93640,2,0,P|33:163|64:157,1,63.7500024318696,0|0,0:0|0:0,0:0:0:0:
279,77,93956,6,0,P|220:54|160:72,1,127.500004863739,2|2,0:0|0:0,0:0:0:0:
217,156,94429,1,0,0:0:0:0:
156,236,94587,2,0,P|214:258|274:240,1,127.500004863739,2|2,0:0|0:0,0:0:0:0:
345,152,95061,1,0,0:0:0:0:
383,317,95219,6,0,P|389:285|396:254,1,63.7500024318696,2|2,0:0|0:0,0:0:0:0:
426,82,95535,1,2,0:0:0:0:
497,155,95692,2,0,L|370:167,1,127.500004863739,2|0,0:0|0:0,0:0:0:0:
267,118,96166,2,0,L|185:104,1,63.7500024318696,0|0,0:0|0:0,0:0:0:0:
106,171,96482,6,0,P|92:232|127:284,1,127.500004863739,2|0,0:0|0:0,0:0:0:0:
193,213,96956,1,0,0:0:0:0:
220,307,97114,2,0,P|273:276|290:216,1,127.500004863739,2|2,0:0|0:0,0:0:0:0:
206,104,97587,1,0,0:0:0:0:
225,22,97745,6,0,P|222:53|218:85,1,63.7500024318696,2|0,0:0|0:0,0:0:0:0:
406,229,98061,2,0,P|402:197|399:165,1,63.7500024318696,0|0,0:0|0:0,0:0:0:0:
173,205,98377,2,0,P|236:196|299:189,1,127.500004863739,2|0,0:0|0:0,0:0:0:0:
456,74,98850,1,0,0:0:0:0:
368,16,99008,6,0,P|363:48|359:80,1,63.7500024318696,2|0,0:0|0:0,0:0:0:0:
299,189,99324,2,0,P|303:220|307:252,1,63.7500024318696,0|0,0:0|0:0,0:0:0:0:
508,208,99640,2,0,P|457:170|394:167,1,127.500004863739,2|0,0:0|0:0,0:0:0:0:
122,346,100114,1,0,0:0:0:0:
307,252,100271,6,0,B|193:298|174:196|60:244,1,255,2|0,0:0|0:0,0:0:0:0:
52,133,101535,6,0,P|103:127|154:120,1,101.999996887207,2|0,0:0|0:0,0:0:0:0:
259,59,102008,1,0,0:0:0:0:
300,180,102166,2,0,P|350:185|401:192,1,101.999996887207,2|2,0:0|0:0,0:0:0:0:
235,372,102798,6,0,B|243:265|182:211|106:244|106:244|128:279|172:277,1,305.999990661621,2|0,0:0|0:0,0:0:0:0:
235,268,104061,2,0,B|235:207|276:163|329:212|394:117|320:42|218:33|203:97|194:165|252:174|274:123,1,356.999989105225,2|2,0:0|0:0,0:0:0:0:
260,95,105324,6,0,B|243:43|145:45|145:45|183:142|233:137|233:137|178:128|144:227|144:227|244:225|257:173|257:173|242:219|322:285|322:285|343:178|306:158|306:158|348:198|433:137|433:137|342:78|306:118|306:118|358:74|322:-12|322:-12|253:33|261:87,1,1360,2|2,0:0|0:0,0:0:0:0:
