osu file format v14

[General]
AudioFilename: audio.mp3
AudioLeadIn: 0
PreviewTime: 69482
Countdown: 0
SampleSet: None
StackLeniency: 0.7
Mode: 0
LetterboxInBreaks: 0
WidescreenStoryboard: 1

[Editor]
DistanceSpacing: 1.2
BeatDivisor: 4
GridSize: 8
TimelineZoom: 2.599999

[Metadata]
Title:Re:TrymenT
TitleUnicode:Re:TrymenT
Artist:Hotaru Murasaki
ArtistUnicode:紫咲ほたる
Creator:Daoski
Version:Garden:InsanE
Source:Re:LieF ~親愛なるあなたへ~
Tags:short レリーフ dear you shin'ainaru anata e re lief tryment relief retryment eroge visual novel rask opening arika kibbleru garden bandi sinn
BeatmapID:1307673
BeatmapSetID:517219

[Difficulty]
HPDrainRate:6
CircleSize:4
OverallDifficulty:7.5
ApproachRate:9
SliderMultiplier:1.6
SliderTickRate:1

[Events]
//Background and Video events
0,0,"garden bg.jpg",0,0
Video,0,"tryment.avi"
//Break Periods
//Storyboard Layer 0 (Background)
//Storyboard Layer 1 (Fail)
//Storyboard Layer 2 (Pass)
//Storyboard Layer 3 (Foreground)
//Storyboard Sound Samples

[TimingPoints]
13114,315.789473684211,4,2,0,50,1,0
14377,-133.333333333333,4,2,0,50,0,0
24482,-100,4,2,0,65,0,0
33324,-133.333333333333,4,2,0,50,0,0
54798,-117.647058823529,4,2,0,60,0,0
59850,-133.333333333333,4,2,0,60,0,0
64903,-111.111111111111,4,2,0,60,0,0
68535,-200,4,2,0,60,0,0
69640,-111.111111111111,4,2,0,60,0,0
69956,-90.9090909090909,4,2,0,70,0,1
90166,-133.333333333333,4,2,0,50,0,0
105324,-133.333333333333,4,2,0,50,0,0
107850,-133.333333333333,4,2,0,40,0,0

[Colours]
Combo1 : 255,208,55
Combo2 : 182,218,62
Combo3 : 250,119,158
Combo4 : 154,132,215

[HitObjects]
227,129,14377,6,0,L|240:258,1,120.000004577637,2|0,0:0|0:0,0:0:0:0:
275,330,14850,2,0,P|327:303|395:310,1,120.000004577637,2|0,0:0|0:0,0:0:0:0:
477,214,15324,2,0,L|471:274,1,60.0000022888184,2|0,0:0|0:0,0:0:0:0:
389,193,15640,6,0,P|380:142|372:71,1,120.000004577637,2|0,0:0|0:0,0:0:0:0:
429,5,16114,2,0,P|376:31|317:32,1,120.000004577637
227,19,16587,2,0,P|216:48|207:78,1,60.0000022888184,2|0,0:0|0:0,0:0:0:0:
277,205,16903,6,0,P|271:175|262:147,1,60.0000022888184,2|0,0:0|0:0,0:0:0:0:
350,124,17219,1,0,0:0:0:0:
349,244,17377,2,0,P|289:246|242:285,1,120.000004577637,2|0,0:0|0:0,0:0:0:0:
213,366,17850,2,0,P|242:373|272:374,1,60.0000022888184,2|0,0:0|0:0,0:0:0:0:
133,323,18166,6,0,B|86:327|86:327|63:322|63:322|14:327,1,120.000004577637,2|0,0:0|0:0,0:0:0:0:
13,327,18640,1,2,0:0:0:0:
97,236,18798,2,0,P|112:180|72:117,1,120.000004577637,0|2,0:0|0:0,0:0:0:0:
85,126,19429,6,0,L|220:137,1,120.000004577637,2|0,0:0|0:0,0:0:0:0:
377,138,19903,2,0,P|338:182|280:185,1,120.000004577637,2|0,0:0|0:0,0:0:0:0:
394,49,20377,2,0,P|424:41|453:37,1,60.0000022888184,2|0,0:0|0:0,0:0:0:0:
310,18,20692,5,2,0:0:0:0:
280,185,21008,1,0,0:0:0:0:
310,18,21324,1,2,0:0:0:0:
291,197,21640,2,0,L|362:200,1,60.0000022888184,2|0,0:0|0:0,0:0:0:0:
454,253,21956,6,0,P|394:264|325:295,1,120.000004577637,2|0,0:0|0:0,0:0:0:0:
264,335,22429,2,0,P|184:337|145:299,1,120.000004577637,2|0,0:0|0:0,0:0:0:0:
216,195,22903,2,0,P|219:224|222:254,1,60.0000022888184,2|0,0:0|0:0,0:0:0:0:
139,146,23219,6,2,P|89:137|30:180,1,120.000004577637
216,195,23692,2,2,L|332:166,1,120.000004577637
233,46,24166,2,2,P|224:74|218:104,1,60.0000022888184
371,72,24482,6,0,L|473:47,1,80,4|0,1:2|0:0,0:0:0:0:
453,169,24798,2,0,P|442:208|442:248,1,80,2|0,1:2|0:0,0:0:0:0:
332,165,25114,2,0,P|261:137|171:171,1,160,8|4,0:3|1:3,0:0:0:0:
51,277,25587,1,0,0:0:0:0:
167,274,25745,6,0,P|158:314|153:358,1,80,2|0,1:2|0:0,0:0:0:0:
344,331,26061,1,8,1:3:0:0:
259,231,26219,1,4,0:3:0:0:
252,370,26377,1,8,0:3:0:0:
429,290,26535,1,8,0:3:0:0:
332,165,26692,2,0,P|294:144|255:134,1,80,2|0,1:2|0:0,0:0:0:0:
415,32,27008,6,0,B|429:68|429:68|424:102|424:102|447:141|438:190,1,160,4|2,1:2|1:2,0:0:0:0:
374,351,27482,2,0,P|362:313|356:274,1,80,2|4,0:0|0:3,0:0:0:0:
250,215,27798,2,0,P|246:254|238:293,1,80,2|4,0:0|0:3,0:0:0:0:
171,123,28114,2,0,P|202:100|248:84,1,80,2|0,0:0|1:0,0:0:0:0:
121,244,28429,5,2,0:0:0:0:
121,244,28508,1,2,0:0:0:0:
121,244,28587,1,8,1:3:0:0:
322,173,28745,1,8,0:3:0:0:
171,123,28903,1,4,0:3:0:0:
238,293,29061,1,4,0:3:0:0:
417,192,29219,2,0,P|426:152|429:113,1,80,2|0,1:2|0:0,0:0:0:0:
352,327,29535,6,0,P|438:325|484:258,1,160,4|2,1:2|1:2,0:0:0:0:
251,214,30008,2,0,P|240:263|238:302,1,80,2|4,0:0|0:3,0:0:0:0:
184,143,30324,1,0,0:0:0:0:
348,187,30482,2,0,P|393:174|433:158,1,80,2|0,1:3|3:0,0:0:0:0:
454,141,30719,1,0,3:0:0:0:
454,141,30798,6,0,P|449:87|437:54,1,80,2|0,3:2|0:0,0:0:0:0:
330,15,31114,1,2,0:2:0:0:
221,129,31271,2,0,P|142:138|86:71,1,160,2|8,1:2|0:3,0:0:0:0:
330,15,31745,2,0,P|326:69|328:105,1,80,2|0,1:2|0:0,0:0:0:0:
471,195,32061,5,6,0:0:0:0:
368,214,32219,1,4,0:3:0:0:
318,286,32377,1,2,0:0:0:0:
305,340,32535,1,2,0:0:0:0:
465,300,32692,5,6,0:0:0:0:
471,195,32850,1,4,0:3:0:0:
426,120,33008,1,2,0:0:0:0:
374,100,33166,1,2,0:0:0:0:
251,261,33324,6,0,B|302:240|353:257|353:257|385:240|389:216|369:184,1,180.000006866455,4|0,0:3|0:0,0:0:0:0:
271,111,33877,2,0,P|269:127|272:146,1,30.0000011444092
275,144,34587,5,4,1:3:0:0:
275,144,34903,2,0,P|286:171|295:201,1,60.0000022888184,2|0,0:0|0:0,0:0:0:0:
258,283,35219,2,0,P|204:262|136:256,1,120.000004577637,2|0,0:0|0:0,0:0:0:0:
53,268,35692,1,0,0:0:0:0:
53,268,35850,6,0,P|40:225|38:199,1,60.0000022888184,2|0,0:0|0:0,0:0:0:0:
88,87,36166,2,0,P|96:116|102:146,1,60.0000022888184
188,172,36482,2,0,L|264:158,1,60.0000022888184,2|0,0:0|0:0,0:0:0:0:
321,109,36798,2,0,L|387:122,1,60.0000022888184,2|0,0:0|0:0,0:0:0:0:
458,176,37114,5,2,0:0:0:0:
458,176,37429,2,0,P|451:219|449:248,1,60.0000022888184,2|0,0:0|0:0,0:0:0:0:
393,375,37745,2,0,P|383:315|361:260,1,120.000004577637,2|0,0:0|0:0,0:0:0:0:
274,235,38219,1,0,0:0:0:0:
274,234,38377,6,0,P|244:236|214:232,1,60.0000022888184,2|0,0:0|0:0,0:0:0:0:
336,170,38692,2,0,P|338:134|331:100,1,60.0000022888184
266,50,39008,2,0,L|191:77,1,60.0000022888184,2|0,0:0|0:0,0:0:0:0:
131,168,39324,2,0,P|131:138|127:109,1,60.0000022888184,2|0,0:0|0:0,0:0:0:0:
72,237,39640,5,4,1:3:0:0:
72,237,39798,1,4,0:3:0:0:
144,290,39956,2,0,P|196:291|249:236,1,120.000004577637,0|2,0:0|0:0,0:0:0:0:
244,248,40587,2,0,L|256:322,1,60.0000022888184,2|0,0:0|0:0,0:0:0:0:
380,357,40903,6,0,L|322:370,1,60.0000022888184,2|0,0:0|0:0,0:0:0:0:
435,285,41219,2,0,P|455:308|467:336,1,60.0000022888184
346,274,41535,2,0,P|357:242|373:220,1,60.0000022888184,2|0,0:0|0:0,0:0:0:0:
455,141,41850,2,0,L|460:201,1,60.0000022888184,2|0,0:0|0:0,0:0:0:0:
486,56,42166,6,0,P|412:60|375:94,1,120.000004577637,2|0,0:0|0:0,0:0:0:0:
315,152,42640,2,0,B|266:152|266:152|240:143|240:143|185:143,1,120.000004577637,2|0,0:0|0:0,0:0:0:0:
209,287,43114,2,0,P|218:258|223:229,1,60.0000022888184,2|0,0:0|0:0,0:0:0:0:
137,72,43429,6,0,P|106:124|115:184,1,120.000004577637,2|0,0:0|0:0,0:0:0:0:
196,143,43903,2,0,B|240:143|240:143|266:152|266:152|315:152,1,120.000004577637,2|0,0:0|0:0,0:0:0:0:
391,104,44377,2,0,P|391:74|386:44,1,60.0000022888184,2|0,0:0|0:0,0:0:0:0:
459,171,44692,5,4,1:3:0:0:
459,171,45008,2,0,P|449:232|442:307,1,120.000004577637,2|0,0:0|3:0,0:0:0:0:
388,362,45482,2,0,P|338:327|269:338,1,120.000004577637,2|2,0:0|0:0,0:0:0:0:
137,359,45956,6,0,P|167:365|196:365,1,60.0000022888184,2|0,0:2|0:0,0:0:0:0:
187,218,46271,2,0,P|178:247|174:277,1,60.0000022888184,0|0,3:0|0:0,0:0:0:0:
274,192,46587,2,0,P|268:133|255:74,1,120.000004577637,2|0,3:2|0:0,0:0:0:0:
188,13,47061,1,0,0:0:0:0:
134,124,47219,5,2,0:0:0:0:
134,124,47535,2,0,L|14:112,1,120.000004577637,2|0,0:0|3:0,0:0:0:0:
124,213,48008,2,0,P|181:201|219:156,1,120.000004577637,2|2,0:0|0:0,0:0:0:0:
33,203,48482,6,0,P|24:236|24:276,1,60.0000022888184,2|0,0:0|0:0,0:0:0:0:
101,336,48798,2,0,P|72:345|43:349,1,60.0000022888184,0|0,3:0|0:0,0:0:0:0:
176,286,49114,2,0,P|233:287|305:303,1,120.000004577637,2|0,3:2|0:0,0:0:0:0:
379,330,49587,1,0,0:0:0:0:
479,231,49745,5,4,1:3:0:0:
479,231,49903,1,4,0:3:0:0:
396,196,50061,2,0,P|389:165|389:134,1,60.0000022888184,2|0,3:2|0:0,0:0:0:0:
468,93,50377,2,0,P|403:97|340:47,1,120.000004577637,2|0,3:2|0:0,0:0:0:0:
247,22,50850,6,0,P|256:66|262:151,1,120.000004577637,2|0,0:0|3:0,0:0:0:0:
147,207,51324,2,0,P|177:208|207:213,1,60.0000022888184
85,277,51640,2,0,P|57:225|72:152,1,120.000004577637,2|0,3:2|0:0,0:0:0:0:
130,104,52114,1,0,0:0:0:0:
206,212,52271,6,0,B|316:263|324:171|441:214,1,240.000009155274,2|2,0:0|3:2,0:0:0:0:
438,213,53219,2,0,P|444:183|446:153,1,60.0000022888184,0|2,0:0|3:2,0:0:0:0:
362,68,53535,2,0,P|391:62|420:53,1,60.0000022888184,0|2,0:0|3:2,0:0:0:0:
261,51,53850,5,2,0:0:0:0:
317,238,54008,1,2,0:3:0:0:
194,128,54166,1,2,0:3:0:0:
304,144,54324,1,0,0:0:0:0:
152,220,54482,2,0,L|91:214,1,60.0000022888184,2|0,0:0|0:0,0:0:0:0:
228,289,54798,6,0,P|306:286|380:333,1,136.000002593994,4|2,1:2|1:2,0:0:0:0:
356,310,55271,1,0,0:0:0:0:
470,251,55429,2,0,P|463:222|461:167,1,68.0000012969971,4|0,0:3|0:0,0:0:0:0:
494,39,55745,1,4,1:3:0:0:
463,167,55903,1,8,0:3:0:0:
297,111,56061,5,8,0:3:0:0:
413,70,56219,1,4,0:3:0:0:
324,206,56377,2,0,B|288:206|288:206|222:193|222:193|184:193,1,136.000002593994,4|0,1:3|3:0,0:0:0:0:
297,111,56850,1,0,0:0:0:0:
226,291,57008,1,0,3:0:0:0:
226,291,57087,1,0,3:0:0:0:
226,291,57166,2,0,L|283:288,1,34.0000006484985,0|0,3:0|0:0,0:0:0:0:
110,243,57324,6,0,P|101:162|153:109,1,136.000002593994,4|0,1:2|1:0,0:0:0:0:
228,57,57798,2,0,P|201:36|178:10,1,68.0000012969971,2|4,0:0|0:3,0:0:0:0:
344,70,58114,2,0,P|342:104|336:150,1,68.0000012969971,2|4,0:0|0:3,0:0:0:0:
201,200,58429,1,8,0:3:0:0:
357,232,58587,5,2,1:2:0:0:
201,200,58745,1,8,0:3:0:0:
379,320,58903,2,0,P|413:307|452:276,1,68.0000012969971,2|0,0:0|0:0,0:0:0:0:
463,95,59219,1,2,1:2:0:0:
357,232,59377,1,4,0:3:0:0:
512,203,59535,1,2,1:2:0:0:
358,116,59692,1,4,0:3:0:0:
318,317,59850,6,0,P|385:319|445:277,1,120.000004577637,4|0,1:2|0:0,0:0:0:0:
357,232,60324,1,4,0:3:0:0:
226,346,60482,2,0,L|215:279,1,60.0000022888184,0|0,1:0|0:0,0:0:0:0:
130,230,60798,2,0,L|138:156,1,60.0000022888184,0|0,1:0|0:0,0:0:0:0:
162,46,61114,5,2,0:0:0:0:
233,117,61271,2,0,P|266:113|292:108,1,60.0000022888184,0|2,1:0|0:0,0:0:0:0:
380,56,61587,1,4,0:3:0:0:
345,198,61745,5,2,1:2:0:0:
473,46,61903,1,0,0:0:0:0:
495,244,62061,1,8,0:3:0:0:
429,123,62219,1,4,0:3:0:0:
373,305,62377,5,2,1:2:0:0:
373,305,62692,2,0,P|290:289|252:291,2,120.000004577637,2|0|0,0:0|3:0|1:0,0:0:0:0:
357,153,63482,1,0,0:0:0:0:
357,153,63640,6,0,L|346:225,1,60.0000022888184,2|0,0:0|0:0,0:0:0:0:
478,277,63956,2,0,L|486:209,1,60.0000022888184,0|0,1:0|0:0,0:0:0:0:
373,305,64271,1,2,1:2:0:0:
487,197,64429,1,4,0:3:0:0:
275,123,64587,2,0,P|237:120|196:123,1,60.0000022888184,8|0,1:3|0:0,0:0:0:0:
403,14,64903,5,4,1:2:0:0:
403,14,65219,2,0,L|393:96,1,71.9999978027344,2|0,3:2|0:0,0:0:0:0:
346,290,65535,2,0,P|341:248|330:203,1,71.9999978027344,2|0,3:2|0:0,0:0:0:0:
275,123,65850,1,0,1:0:0:0:
441,187,66008,1,0,3:0:0:0:
441,187,66087,1,0,3:0:0:0:
441,187,66166,6,0,L|512:179,1,71.9999978027344,2|0,3:2|0:0,0:0:0:0:
291,53,66482,2,0,P|280:87|274:122,1,71.9999978027344,2|0,3:2|0:0,0:0:0:0:
222,351,66798,2,0,P|220:315|211:278,1,71.9999978027344,2|0,3:2|0:0,0:0:0:0:
126,148,67114,2,0,L|47:149,1,71.9999978027344,2|0,1:2|0:0,0:0:0:0:
318,250,67429,6,0,P|394:245|452:185,1,143.999995605469,4|4,1:2|0:3,0:0:0:0:
465,9,67903,1,4,0:3:0:0:
354,156,68061,1,8,0:3:0:0:
191,46,68219,1,8,0:3:0:0:
392,61,68377,1,8,1:3:0:0:
197,196,68535,6,0,B|154:198|119:181|119:181|82:203|41:204|41:204|21:192|-6:181,1,200,4|2,1:2|0:0,0:0:0:0:
369,109,69640,2,0,L|365:74,1,35.9999989013672,2|0,0:0|0:0,0:0:0:0:
193,160,69798,2,0,L|196:195,1,35.9999989013672,2|0,0:0|0:0,0:0:0:0:
292,231,69956,6,0,B|271:38,1,176.000005371094,4|2,1:0|1:2,0:0:0:0:
401,216,70429,2,0,P|441:228|509:223,1,88.000002685547,2|0,0:0|0:0,0:0:0:0:
359,314,70745,1,4,0:3:0:0:
459,122,70903,1,2,1:2:0:0:
292,231,71061,6,0,P|197:239|122:169,1,176.000005371094,2|2,0:0|0:0,0:0:0:0:
190,338,71535,1,2,1:2:0:0:
231,137,71692,1,4,0:3:0:0:
43,246,71850,2,0,P|28:288|22:337,1,88.000002685547,2|0,0:0|0:0,0:0:0:0:
135,193,72166,1,2,1:2:0:0:
40,89,72324,1,2,0:0:0:0:
231,137,72482,6,0,P|276:126|322:104,1,88.000002685547,2|0,0:0|0:0,0:0:0:0:
415,47,72798,1,2,1:2:0:0:
177,26,72956,2,0,P|87:24|37:105,1,176.000005371094,2|4,0:0|0:3,0:0:0:0:
231,137,73429,1,2,1:2:0:0:
86,289,73587,6,0,P|77:241|76:196,1,88.000002685547,2|4,0:0|0:3,0:0:0:0:
188,359,73903,1,0,0:0:0:0:
313,204,74061,2,0,L|404:184,1,88.000002685547,2|0,1:2|0:0,0:0:0:0:
174,228,74377,1,4,0:3:0:0:
324,108,74535,1,0,0:0:0:0:
177,231,74692,1,2,1:2:0:0:
199,59,74850,1,0,0:0:0:0:
313,204,75008,6,0,P|336:243|355:298,1,88.000002685547,2|0,0:0|0:0,0:0:0:0:
90,244,75324,2,0,P|122:166|209:151,1,176.000005371094,2|2,1:2|0:0,0:0:0:0:
313,204,75798,1,4,0:3:0:0:
199,59,75956,1,2,1:2:0:0:
254,280,76114,6,0,P|352:292|409:225,1,176.000005371094,2|2,0:0|0:0,0:0:0:0:
392,64,76587,1,2,1:2:0:0:
313,203,76745,1,0,0:0:0:0:
487,187,76903,1,2,0:0:0:0:
287,102,77061,1,4,0:3:0:0:
402,242,77219,1,2,1:2:0:0:
392,64,77377,1,0,0:0:0:0:
164,204,77535,6,0,L|74:191,1,88.000002685547,4|0,1:2|0:0,0:0:0:0:
287,102,77850,1,8,1:3:0:0:
314,259,78008,1,2,0:0:0:0:
196,118,78166,6,0,B|178:77|178:77|173:21,1,88.000002685547,4|0,1:2|0:0,0:0:0:0:
346,172,78482,1,4,1:3:0:0:
223,275,78640,1,2,0:0:0:0:
287,102,78798,6,0,P|329:85|382:86,1,88.000002685547,4|0,1:2|0:0,0:0:0:0:
314,259,79114,1,4,1:3:0:0:
164,204,79271,1,2,0:0:0:0:
346,172,79429,6,0,L|395:211,1,44.0000013427735,8|0,0:3|0:0,0:0:0:0:
241,314,79587,2,0,L|221:272,1,44.0000013427735,4|0,0:3|0:0,0:0:0:0:
196,118,79745,1,2,1:2:0:0:
196,118,80061,6,0,B|148:115|148:115|118:128|118:128|66:120|20:164,1,176.000005371094,4|2,1:2|1:2,0:0:0:0:
99,32,80535,1,2,0:0:0:0:
164,204,80692,2,0,P|214:205|265:184,1,88.000002685547,2|4,0:0|0:3,0:0:0:0:
344,43,81008,2,0,L|383:131,1,88.000002685547,0|0,1:0|0:0,0:0:0:0:
403,368,81324,6,0,P|345:318|348:208,1,176.000005371094,4|2,0:0|1:2,0:0:0:0:
442,266,81798,1,2,0:0:0:0:
247,358,81956,2,0,P|204:349|150:343,1,88.000002685547,2|0,0:0|0:0,0:0:0:0:
72,209,82271,1,0,1:0:0:0:
197,254,82429,1,0,0:0:0:0:
32,302,82587,5,8,0:3:0:0:
197,254,82745,1,0,0:0:0:0:
134,65,82903,1,2,1:2:0:0:
72,209,83061,1,0,0:0:0:0:
222,137,83219,2,0,L|319:111,1,88.000002685547,4|0,0:3|0:0,0:0:0:0:
227,334,83535,2,0,P|207:303|197:251,1,88.000002685547,2|0,1:2|0:0,0:0:0:0:
394,174,83850,5,8,0:3:0:0:
296,265,84008,1,0,0:0:0:0:
438,274,84166,1,2,1:2:0:0:
306,114,84324,1,0,0:0:0:0:
196,253,84482,2,0,P|204:296|227:334,1,88.000002685547,4|0,0:3|0:0,0:0:0:0:
306,114,84798,2,0,L|215:139,1,88.000002685547,2|0,1:2|0:0,0:0:0:0:
76,231,85114,5,4,1:2:0:0:
12,93,85271,1,4,0:3:0:0:
67,257,85429,1,2,1:2:0:0:
124,65,85587,1,0,0:0:0:0:
196,253,85745,2,0,P|192:306|183:353,1,88.000002685547,2|4,1:2|0:3,0:0:0:0:
76,231,86061,1,2,1:2:0:0:
221,137,86219,6,0,L|330:108,1,88.000002685547,2|2,0:0|1:2,0:0:0:0:
483,203,86535,1,0,0:0:0:0:
483,203,86692,2,0,L|385:178,1,88.000002685547,2|0,1:2|0:0,0:0:0:0:
476,72,87008,1,2,1:2:0:0:
306,114,87166,1,4,0:3:0:0:
483,203,87324,1,2,1:2:0:0:
347,27,87482,1,0,0:0:0:0:
293,236,87640,5,4,1:2:0:0:
293,236,87798,2,0,P|285:191|293:145,1,88.000002685547,0|2,0:0|1:2,0:0:0:0:
392,306,88114,2,0,P|358:337|314:355,1,88.000002685547,0|2,0:0|1:2,0:0:0:0:
119,324,88429,2,0,P|168:313|210:313,1,88.000002685547,0|2,0:0|1:2,0:0:0:0:
398,194,88745,6,0,B|351:156|293:151|293:151|300:119|292:78,1,176.000005371094,4|0,0:0|0:0,0:0:0:0:
104,120,89219,5,2,1:2:0:0:
91,148,89298,1,0,3:0:0:0:
87,178,89377,1,0,3:0:0:0:
88,209,89456,1,0,3:0:0:0:
100,238,89535,6,0,L|153:232,3,44.0000013427735,2|0|0|0,1:2|3:0|3:0|3:0,0:0:0:0:
236,249,89850,2,0,L|289:243,3,44.0000013427735,2|0|0|0,1:2|3:0|3:0|3:0,0:0:0:0:
376,267,90166,6,0,P|370:297|368:326,1,60.0000022888184,4|0,1:0|0:0,0:0:0:0:
469,238,90482,1,0,0:0:0:0:
469,238,90640,2,0,P|458:182|451:115,1,120.000004577637,2|0,0:0|0:0,0:0:0:0:
364,23,91114,2,0,P|363:53|361:83,1,60.0000022888184,2|0,0:0|0:0,0:0:0:0:
241,184,91429,5,2,0:0:0:0:
467,30,91745,1,2,0:0:0:0:
262,48,92061,1,2,0:0:0:0:
439,178,92377,2,0,L|451:119,1,60.0000022888184,2|0,0:0|0:0,0:0:0:0:
348,220,92692,6,0,P|302:186|225:189,1,120.000004577637,2|0,0:0|0:0,0:0:0:0:
150,286,93166,2,0,L|270:275,1,120.000004577637,2|0,0:0|0:0,0:0:0:0:
254,125,93640,2,0,P|243:164|239:196,1,60.0000022888184,2|0,0:0|0:0,0:0:0:0:
305,45,93956,6,0,P|244:32|190:55,2,120.000004577637,2|2|2,0:0|0:0|0:0,0:0:0:0:
305,45,94903,2,0,P|337:34|379:13,1,60.0000022888184,2|0,0:0|0:0,0:0:0:0:
254,125,95219,6,0,P|287:132|321:144,1,60.0000022888184,2|0,0:0|0:0,0:0:0:0:
178,182,95535,1,0,0:0:0:0:
178,182,95692,2,0,P|159:124|182:61,1,120.000004577637,2|0,0:0|0:0,0:0:0:0:
263,220,96166,2,0,P|259:254|253:291,1,60.0000022888184,2|0,0:0|0:0,0:0:0:0:
355,198,96482,6,0,P|431:198|494:218,1,120.000004577637,2|0,0:0|0:0,0:0:0:0:
274,367,97114,2,0,P|213:366|154:355,1,120.000004577637,2|0,0:0|0:0,0:0:0:0:
175,69,97745,6,0,L|170:135,1,60.0000022888184,2|0,0:0|0:0,0:0:0:0:
131,266,98061,2,0,L|118:208,1,60.0000022888184,2|0,0:0|0:0,0:0:0:0:
250,181,98377,2,0,P|314:162|349:119,1,120.000004577637,2|0,0:0|0:0,0:0:0:0:
347,122,98850,1,0,0:0:0:0:
416,7,99008,6,0,L|457:135,1,120.000004577637,2|0,0:0|0:0,0:0:0:0:
275,268,99640,2,0,P|327:232|389:228,1,120.000004577637,2|0,0:0|0:0,0:0:0:0:
170,128,100271,5,2,0:0:0:0:
170,128,101535,5,2,0:0:0:0:
245,291,101850,1,0,0:0:0:0:
238,30,102166,1,2,0:0:0:0:
104,224,102482,1,2,0:0:0:0:
384,205,102798,6,0,B|341:208|310:193|310:193|273:208|233:195|233:195|150:234|115:157|73:223|73:223|115:225,1,360.000013732911,2|0,0:0|0:0,0:0:0:0:
267,105,104061,2,0,P|238:24|188:118,1,240.000009155274,2|0,0:0|0:0,0:0:0:0:
366,111,104850,2,0,P|371:82|367:42,1,60.0000022888184,2|2,0:0|0:0,0:0:0:0:
104,224,105324,5,2,0:0:0:0:
256,192,105403,12,2,107850,0:0:0:0:
