osu file format v14

[General]
AudioFilename: audio.mp3
AudioLeadIn: 0
PreviewTime: 69482
Countdown: 0
SampleSet: None
StackLeniency: 0.7
Mode: 0
LetterboxInBreaks: 0
WidescreenStoryboard: 1

[Editor]
Bookmarks: 14377,24482,34587,44692,54798,59850,64903,69640,80061,90166,107850
DistanceSpacing: 2.7
BeatDivisor: 4
GridSize: 4
TimelineZoom: 1.6

[Metadata]
Title:Re:TrymenT
TitleUnicode:Re:TrymenT
Artist:Hotaru Murasaki
ArtistUnicode:紫咲ほたる
Creator:Daoski
Version:Bandi:ExtrA
Source:Re:LieF ~親愛なるあなたへ~
Tags:short レリーフ dear you shin'ainaru anata e re lief tryment relief retryment eroge visual novel rask opening arika kibbleru garden bandi sinn
BeatmapID:1307665
BeatmapSetID:517219

[Difficulty]
HPDrainRate:6.4
CircleSize:4
OverallDifficulty:8.3
ApproachRate:9.2
SliderMultiplier:1.5
SliderTickRate:1

[Events]
//Background and Video events
0,0,"bandi bg.jpg",0,0
Video,0,"tryment.avi"
//Break Periods
//Storyboard Layer 0 (Background)
//Storyboard Layer 1 (Fail)
//Storyboard Layer 2 (Pass)
//Storyboard Layer 3 (Foreground)
//Storyboard Sound Samples

[TimingPoints]
13114,315.789473684211,4,2,1,70,1,0
53535,-80,4,2,1,70,0,0
58587,-74.0740740740741,4,2,1,70,0,0
69956,-66.6666666666667,4,2,1,80,0,1
83850,-80,4,2,1,80,0,1
87482,-133.333333333333,4,2,1,80,0,1
88903,-100,4,2,1,80,0,0
99008,-133.333333333333,4,2,1,80,0,0
102798,-158.730158730159,4,2,1,80,0,0
104061,-200,4,2,1,80,0,0
105324,-200,4,2,1,10,0,0

[Colours]
Combo1 : 255,208,55
Combo2 : 182,218,62
Combo3 : 250,119,158
Combo4 : 154,132,215

[HitObjects]
208,208,14377,6,0,P|248:200|288:208,1,75,0|0,0:0|0:0,0:0:0:0:
112,248,14692,2,0,P|107:211|114:175,2,75,0|2|0,0:0|0:0|0:0,0:0:0:0:
288,200,15166,1,0,0:0:0:0:
152,88,15324,2,0,P|112:80|72:88,1,75,2|0,0:0|0:0,0:0:0:0:
240,120,15640,6,0,P|248:80|176:0,1,150,0|0,0:0|0:0,0:0:0:0:
208,208,16114,2,0,P|248:216|328:144,1,150,2|0,0:0|0:0,0:0:0:0:
192,8,16587,1,2,0:0:0:0:
336,160,16903,5,0,0:0:0:0:
264,184,17061,1,0,0:0:0:0:
192,208,17219,1,0,0:0:0:0:
120,232,17377,1,2,0:0:0:0:
344,168,17692,5,0,0:0:0:0:
272,192,17850,1,2,0:0:0:0:
128,240,18166,5,0,0:0:0:0:
224,40,18640,6,0,L|192:120,1,75,2|0,0:0|0:0,0:0:0:0:
136,248,19114,1,2,0:0:0:0:
352,160,19429,6,0,P|357:202|336:247,1,75,0|0,0:0|0:0,0:0:0:0:
250,190,19745,1,0,0:0:0:0:
296,328,19903,2,0,P|336:344|384:336,1,75,2|0,0:0|0:0,0:0:0:0:
352,240,20219,1,0,0:0:0:0:
200,280,20377,2,0,L|120:288,1,75,2|0,0:0|0:0,0:0:0:0:
216,104,20692,2,0,L|296:96,1,75
400,136,21008,5,0,0:0:0:0:
120,168,21324,1,2,0:0:0:0:
296,368,21640,1,0,0:0:0:0:
408,144,21956,6,0,P|416:184|408:240,2,75
312,32,22429,2,0,P|272:24|216:32,1,75,2|0,0:0|0:0,0:0:0:0:
264,168,22745,1,0,0:0:0:0:
424,40,22903,2,0,P|464:40|512:56,1,75,2|0,0:0|0:0,0:0:0:0:
272,176,23219,6,0,P|232:176|184:160,2,75
432,48,23692,2,0,P|448:88|440:200,1,150,2|0,0:0|0:0,0:0:0:0:
192,160,24166,1,2,0:0:0:0:
360,80,24324,5,0,0:0:0:0:
360,80,24403,1,0,0:0:0:0:
360,80,24482,6,0,P|369:116|369:153,1,75,4|0,1:0|0:0,0:0:0:0:
304,344,24798,2,0,P|294:307|294:270,1,75,0|0,1:0|0:0,0:0:0:0:
344,88,25114,5,0,1:0:0:0:
284,264,25271,1,0,0:0:0:0:
112,132,25429,2,0,P|153:130|217:156,1,75,0|0,1:0|0:0,0:0:0:0:
272,256,25745,6,0,P|232:272|136:216,1,150,0|0,1:0|1:0,0:0:0:0:
352,208,26219,2,0,P|368:248|312:344,1,150,8|8,1:3|1:3,0:0:0:0:
299,136,26692,2,0,P|336:120|372:122,1,75,0|0,1:0|0:0,0:0:0:0:
400,336,27008,6,0,P|363:352|327:350,1,75,4|0,1:2|0:0,0:0:0:0:
160,304,27324,1,0,1:0:0:0:
208,144,27482,2,0,L|135:130,1,75,0|0,0:0|1:0,0:0:0:0:
352,200,27798,2,0,L|279:214,1,75,0|0,0:0|1:0,0:0:0:0:
456,152,28114,5,0,0:0:0:0:
320,56,28271,1,0,1:0:0:0:
280,208,28429,5,0,0:0:0:0:
272,216,28508,1,0,0:0:0:0:
264,224,28587,5,4,1:3:0:0:
160,304,28745,1,8,0:3:0:0:
176,216,28903,1,0,1:0:0:0:
252,313,29061,1,8,0:3:0:0:
224,144,29219,1,0,1:0:0:0:
88,256,29377,1,0,0:0:0:0:
188,48,29535,6,0,P|228:40|273:52,1,75,4|0,1:3|0:0,0:0:0:0:
116,124,29850,1,0,1:0:0:0:
324,112,30008,2,0,P|332:152|320:197,1,75,8|0,0:3|1:0,0:0:0:0:
224,144,30324,1,0,0:0:0:0:
304,280,30482,2,0,P|345:289|390:276,1,75,0|0,1:0|0:0,0:0:0:0:
340,204,30719,1,0,0:0:0:0:
340,204,30798,5,4,1:3:0:0:
176,168,30956,1,0,0:0:0:0:
272,56,31114,1,0,1:0:0:0:
168,160,31271,2,0,P|172:208|192:252,1,75,8|0,0:3|1:0,0:0:0:0:
280,64,31587,5,8,0:3:0:0:
328,208,31745,1,0,1:0:0:0:
208,128,31903,1,0,0:0:0:0:
352,128,32061,5,4,1:0:0:0:
240,208,32219,1,0,0:0:0:0:
280,52,32377,1,0,1:0:0:0:
340,220,32535,1,0,0:0:0:0:
196,116,32692,5,4,1:0:0:0:
364,116,32850,1,0,0:0:0:0:
228,220,33008,1,0,1:0:0:0:
280,44,33166,1,0,0:0:0:0:
280,136,33324,1,4,1:0:0:0:
280,136,33798,5,0,0:0:0:0:
280,136,33877,1,0,0:0:0:0:
280,136,33956,1,2,0:0:0:0:
280,224,34587,5,4,1:3:0:0:
40,160,34903,6,0,P|76:148|116:148,1,75,0|0,0:0|0:0,0:0:0:0:
296,240,35219,2,0,P|260:252|220:252,2,75,0|0|0,0:0|0:0|0:0,0:0:0:0:
128,163,35692,5,0,0:0:0:0:
276,60,35850,1,0,0:0:0:0:
284,72,36166,2,0,L|272:160,1,75,0|0,0:0|0:0,0:0:0:0:
372,40,36482,2,0,L|360:128,1,75,2|0,0:0|0:0,0:0:0:0:
464,0,36798,2,0,L|452:88,1,75,2|0,0:0|0:0,0:0:0:0:
273,146,37114,5,2,0:0:0:0:
273,146,37429,6,0,P|224:152|184:136,1,75,0|0,0:0|0:0,0:0:0:0:
361,114,37745,2,0,P|367:163|296:232,1,150,0|0,0:0|0:0,0:0:0:0:
192,136,38219,5,0,0:0:0:0:
312,240,38377,2,0,L|392:256,1,75,0|0,0:0|0:0,0:0:0:0:
200,144,38692,2,0,L|120:128,1,75,0|0,0:0|0:0,0:0:0:0:
208,248,39008,2,0,L|192:328,1,75,2|0,0:0|0:0,0:0:0:0:
304,136,39324,2,0,L|320:56,1,75,2|0,0:0|0:0,0:0:0:0:
126,129,39640,5,6,1:3:0:0:
126,129,39956,6,0,P|119:166|121:223,1,75,0|0,0:0|0:0,0:0:0:0:
393,203,40271,2,0,P|392:165|386:129,1,75,0|0,0:0|0:0,0:0:0:0:
310,2,40587,1,0,0:0:0:0:
384,128,40745,6,0,P|320:152|242:135,1,150,0|0,0:0|0:0,0:0:0:0:
147,57,41219,2,0,P|130:97|123:137,1,75,0|0,0:0|0:0,0:0:0:0:
264,256,41535,5,2,0:0:0:0:
264,256,41850,1,2,0:0:0:0:
264,256,42166,6,0,P|192:264|168:256,1,75,2|0,0:0|0:0,0:0:0:0:
80,152,42482,1,0,0:0:0:0:
264,256,42640,2,0,P|273:292|271:329,2,75,0|0|0,0:0|0:0|0:0,0:0:0:0:
161,152,43114,6,0,P|123:149|87:159,1,75,0|0,0:0|0:0,0:0:0:0:
256,168,43429,2,0,P|258:130|176:56,1,150,0|2,0:0|0:0,0:0:0:0:
80,152,43903,5,0,0:0:0:0:
264,176,44061,5,10,1:2:0:0:
83,136,44219,1,8,1:2:0:0:
260,191,44377,5,2,0:0:0:0:
89,121,44535,1,0,1:0:0:0:
256,208,44692,5,4,1:3:0:0:
256,208,44850,1,0,0:0:0:0:
256,208,45008,6,0,P|208:224|160:224,1,75,0|0,0:0|1:0,0:0:0:0:
88,160,45324,1,8,0:0:0:0:
336,152,45482,2,0,P|352:200|352:248,1,75,0|0,1:0|0:0,0:0:0:0:
353,224,45798,5,0,1:0:0:0:
288,320,45956,2,0,P|344:344|440:312,1,150,0|0,1:0|1:0,0:0:0:0:
432,312,46587,2,0,P|376:336|280:304,1,150,10|2,1:2|1:2,0:0:0:0:
240,216,47061,1,0,0:0:0:0:
184,312,47219,5,2,1:2:0:0:
184,312,47377,1,0,0:0:0:0:
240,208,47535,6,0,P|201:194|150:198,1,75,0|0,0:0|1:0,0:0:0:0:
56,224,47850,1,8,0:0:0:0:
320,176,48008,2,0,P|293:144|247:122,1,75,0|0,1:0|0:0,0:0:0:0:
160,184,48324,5,0,1:0:0:0:
328,168,48482,2,0,B|402:150|402:198|474:182,1,150,0|0,1:0|1:0,0:0:0:0:
216,168,49114,2,0,B|141:150|141:198|69:182,1,150,10|2,1:2|1:2,0:0:0:0:
272,104,49745,5,6,1:3:0:0:
272,104,49903,1,0,1:0:0:0:
184,272,50061,6,0,L|177:346,1,75,0|0,0:0|1:0,0:0:0:0:
273,226,50377,2,0,L|266:300,1,75,8|0,0:0|0:0,0:0:0:0:
361,178,50692,2,0,L|354:252,1,75,0|0,1:0|1:0,0:0:0:0:
272,104,51008,5,0,0:0:0:0:
272,104,51166,1,0,1:0:0:0:
360,256,51324,6,0,P|440:264|512:248,2,150,0|8|0,1:0|1:2|1:0,0:0:0:0:
272,104,52271,6,0,B|232:216|304:216|272:336,1,225,0|0,1:0|1:0,0:0:0:0:
176,272,52903,2,0,P|160:232|155:197,1,75,8|0,0:0|0:0,0:0:0:0:
360,165,53219,1,0,1:0:0:0:
144,192,53377,6,0,P|96:176|184:168,1,300,8|0,0:0|0:0,0:0:0:0:
88,296,54166,5,2,0:0:0:0:
88,296,54324,1,0,0:0:0:0:
179,316,54482,2,0,L|69:291,1,93.75,2|0,0:0|0:0,0:0:0:0:
40,192,54798,6,0,P|32:144|48:88,1,93.75,4|0,1:2|0:0,0:0:0:0:
168,232,55114,2,0,P|137:194|122:137,1,93.75,0|0,1:0|0:0,0:0:0:0:
297,196,55429,2,0,P|251:178|210:137,1,93.75,0|0,1:0|0:0,0:0:0:0:
152,24,55745,5,0,1:0:0:0:
312,208,55903,2,0,P|320:264|312:312,1,93.75,8|0,0:3|0:0,0:0:0:0:
376,144,56219,1,8,0:3:0:0:
232,176,56377,2,0,P|224:120|232:72,1,93.75,0|0,1:0|0:0,0:0:0:0:
384,152,56692,5,0,1:0:0:0:
384,152,56850,1,0,0:0:0:0:
384,152,57008,1,0,1:0:0:0:
384,152,57166,1,0,0:0:0:0:
144,248,57324,6,0,P|136:200|152:136,1,93.75,4|0,1:2|0:0,0:0:0:0:
328,320,57640,2,0,P|280:328|216:312,1,93.75,0|0,1:0|0:0,0:0:0:0:
400,136,57956,2,0,P|408:184|392:248,1,93.75,0|0,1:0|0:0,0:0:0:0:
216,64,58271,2,0,P|264:56|328:72,1,93.75,0|8,1:0|0:3,0:0:0:0:
400,228,58587,5,0,1:0:0:0:
400,136,58745,1,8,0:3:0:0:
308,63,58903,1,0,1:0:0:0:
216,64,59061,1,0,0:0:0:0:
143,155,59219,5,8,1:2:0:0:
144,248,59377,1,8,0:0:0:0:
235,320,59535,1,8,1:3:0:0:
328,320,59692,1,8,0:3:0:0:
136,144,59850,6,0,P|80:136|16:152,2,101.250000386238,4|0|0,1:0|0:0|0:0,0:0:0:0:
256,192,60324,1,0,1:0:0:0:
376,144,60482,6,0,P|432:136|496:152,1,101.250000386238,8|0,0:0|0:0,0:0:0:0:
427,319,60798,6,0,P|371:327|307:311,2,101.250000386238,0|0|0,1:0|1:0|0:0,0:0:0:0:
472,136,61271,2,0,P|416:128|352:144,1,101.250000386238,8|0,1:2|1:0,0:0:0:0:
232,184,61587,5,0,0:0:0:0:
144,48,61745,1,8,0:0:0:0:
64,184,61903,1,8,0:0:0:0:
240,192,62061,1,8,0:3:0:0:
152,56,62219,1,8,0:3:0:0:
160,64,62377,6,0,P|216:56|272:72,1,101.250000386238,4|0,1:2|0:0,0:0:0:0:
64,112,62692,2,0,P|56:56|72:0,1,101.250000386238,0|0,0:0|1:0,0:0:0:0:
112,208,63008,2,0,P|56:216|0:200,1,101.250000386238,8|0,0:0|0:0,0:0:0:0:
208,160,63324,2,0,P|216:216|200:272,1,101.250000386238,0|0,1:0|1:0,0:0:0:0:
160,352,63561,1,0,0:0:0:0:
160,352,63640,6,0,P|216:360|272:344,1,101.250000386238,0|0,0:0|0:0,0:0:0:0:
312,160,63956,2,0,P|362:156|410:170,1,101.250000386238,8|0,1:2|0:0,0:0:0:0:
456,368,64271,2,0,P|464:312|448:256,1,101.250000386238,8|8,0:0|0:0,0:0:0:0:
248,248,64587,2,0,P|240:304|256:360,1,101.250000386238,8|0,0:3|0:0,0:0:0:0:
368,248,64903,5,4,1:0:0:0:
256,352,65061,1,0,0:0:0:0:
256,256,65219,1,2,1:2:0:0:
360,360,65377,1,0,0:0:0:0:
256,152,65535,5,0,1:0:0:0:
152,360,65692,1,0,0:0:0:0:
144,248,65850,1,2,1:2:0:0:
256,256,66008,1,0,0:0:0:0:
256,256,66087,1,0,0:0:0:0:
256,256,66166,5,0,1:0:0:0:
168,144,66324,1,0,0:0:0:0:
256,256,66482,1,2,1:2:0:0:
344,144,66640,1,0,0:0:0:0:
144,56,66798,5,0,1:0:0:0:
256,176,66956,1,0,0:0:0:0:
368,56,67114,5,2,1:2:0:0:
256,16,67271,5,0,0:0:0:0:
256,16,67350,1,0,0:0:0:0:
256,16,67429,1,4,1:0:0:0:
256,96,67587,1,0,0:0:0:0:
256,176,67745,1,8,0:1:0:0:
256,256,67903,1,8,0:1:0:0:
184,344,68061,5,8,0:1:0:0:
328,344,68219,1,8,0:1:0:0:
136,192,68377,1,8,0:1:0:0:
376,192,68535,1,8,0:1:0:0:
256,192,68614,12,2,69324,0:0:0:0:
168,320,69640,5,0,0:0:0:0:
144,275,69719,1,0,0:0:0:0:
137,225,69798,1,0,0:0:0:0:
147,175,69877,1,0,0:0:0:0:
172,132,69956,6,0,P|128:120|48:128,1,112.500004291535,4|0,1:0|0:0,0:0:0:0:
256,224,70271,1,8,0:1:0:0:
339,132,70429,2,0,P|394:232|344:320,1,225.000008583069,0|0,0:0|1:0,0:0:0:0:
256,224,70903,5,8,0:1:0:0:
328,128,71061,1,0,0:0:0:0:
248,40,71219,1,0,1:0:0:0:
264,232,71377,1,0,0:0:0:0:
64,72,71535,6,0,L|48:192,1,112.500004291535,10|0,0:1|1:0,0:0:0:0:
169,150,71850,2,0,L|153:270,1,112.500004291535,2|0,0:1|1:0,0:0:0:0:
264,232,72166,2,0,L|248:352,1,112.500004291535,10|0,0:1|0:0,0:0:0:0:
256,109,72482,6,0,P|311:116|360:144,1,112.500004291535,0|0,1:0|0:0,0:0:0:0:
384,264,72798,1,8,0:1:0:0:
155,262,72956,2,0,L|266:231,1,112.500004291535,0|0,0:0|0:0,0:0:0:0:
376,32,73271,1,0,1:0:0:0:
480,128,73429,5,8,0:1:0:0:
264,120,73587,2,0,P|240:56|246:-1,1,112.500004291535,0|0,0:0|1:0,0:0:0:0:
242,12,73903,1,0,0:0:0:0:
472,120,74061,6,0,L|488:240,1,112.500004291535,10|0,0:1|1:0,0:0:0:0:
368,200,74377,2,0,L|384:320,1,112.500004291535,2|0,0:1|1:0,0:0:0:0:
272,272,74692,2,0,L|288:392,1,112.500004291535,10|0,0:1|0:0,0:0:0:0:
288,72,75008,6,0,P|232:69|181:92,1,112.500004291535,4|0,1:0|0:0,0:0:0:0:
376,224,75324,2,0,P|378:168|355:117,1,112.500004291535,8|0,0:1|0:0,0:0:0:0:
224,312,75640,2,0,P|279:314|330:291,1,112.500004291535,0|0,0:0|1:0,0:0:0:0:
136,160,75956,5,8,0:1:0:0:
376,224,76114,1,0,0:0:0:0:
136,160,76271,6,0,P|133:215|156:266,1,112.500004291535,0|0,1:0|0:0,0:0:0:0:
368,216,76587,2,0,P|370:160|347:109,1,112.500004291535,10|0,0:1|1:0,0:0:0:0:
128,152,76903,6,0,L|256:128,1,112.500004291535,2|0,0:1|1:0,0:0:0:0:
478,195,77219,2,0,L|350:219,1,112.500004291535,10|0,0:1|0:0,0:0:0:0:
232,128,77535,5,4,1:2:0:0:
232,128,77692,1,0,1:0:0:0:
470,187,77850,2,0,L|360:208,1,112.500004291535,8|0,0:1|0:0,0:0:0:0:
256,208,78166,5,4,1:2:0:0:
256,208,78324,1,0,1:0:0:0:
494,267,78482,2,0,L|383:287,1,112.500004291535,8|0,0:1|0:0,0:0:0:0:
272,288,78798,5,4,1:2:0:0:
272,288,78956,1,0,1:0:0:0:
510,347,79114,2,0,L|399:367,1,112.500004291535,8|0,0:1|0:0,0:0:0:0:
432,88,79429,5,4,1:3:0:0:
432,88,79587,1,8,1:3:0:0:
392,360,79745,1,8,0:1:0:0:
147,224,79903,1,8,0:1:0:0:
147,224,79982,1,0,0:0:0:0:
147,224,80061,6,0,P|203:208|275:223,1,112.500004291535,4|0,1:0|0:0,0:0:0:0:
216,352,80377,1,8,0:1:0:0:
136,216,80535,1,0,0:0:0:0:
368,160,80692,2,0,P|384:216|368:288,1,112.500004291535,2|0,0:1|1:0,0:0:0:0:
248,208,81008,5,10,0:1:0:0:
360,152,81166,1,0,0:0:0:0:
120,200,81324,6,0,P|104:144|120:72,2,112.500004291535,4|0|10,1:0|1:0|0:1,0:0:0:0:
288,352,81798,1,0,1:0:0:0:
7,191,81956,6,0,L|119:199,1,112.500004291535,2|0,0:1|1:0,0:0:0:0:
216,112,82271,1,10,0:1:0:0:
111,191,82429,1,0,0:0:0:0:
280,344,82587,6,0,L|248:232,1,112.500004291535,4|0,1:0|0:0,0:0:0:0:
416,296,82903,2,0,L|448:184,1,112.500004291535,8|0,0:1|0:0,0:0:0:0:
249,235,83219,2,0,L|217:123,1,112.500004291535,2|0,0:1|1:0,0:0:0:0:
446,187,83535,2,0,L|478:75,1,112.500004291535,10|0,0:1|0:0,0:0:0:0:
280,344,83850,5,0,1:0:0:0:
416,296,84008,1,0,1:0:0:0:
249,235,84166,1,10,0:1:0:0:
446,187,84324,1,0,1:0:0:0:
218,126,84482,1,10,0:1:0:0:
476,78,84640,1,8,1:0:0:0:
232,125,84798,5,10,0:1:0:0:
184,154,84877,1,0,0:0:0:0:
156,202,84956,1,8,0:1:0:0:
151,258,85035,1,0,0:0:0:0:
171,309,85114,5,4,1:0:0:0:
341,309,85271,1,0,1:0:0:0:
341,139,85429,1,8,0:1:0:0:
171,139,85587,1,0,1:0:0:0:
256,357,85745,5,8,0:1:0:0:
123,224,85903,1,0,1:0:0:0:
256,91,86061,1,8,0:1:0:0:
388,224,86219,1,0,1:0:0:0:
153,325,86377,5,10,0:1:0:0:
359,118,86535,1,0,1:0:0:0:
153,118,86692,1,10,0:1:0:0:
359,325,86850,1,0,1:0:0:0:
110,224,87008,5,10,0:1:0:0:
402,224,87166,1,0,1:0:0:0:
256,77,87324,1,10,0:1:0:0:
255,369,87482,1,0,1:0:0:0:
96,224,87640,5,4,1:0:0:0:
96,224,87798,1,0,0:0:0:0:
416,208,88114,1,0,1:0:0:0:
30,188,88429,1,0,1:0:0:0:
232,16,88745,2,0,L|224:144,1,112.500004291535,4|0,1:0|0:0,0:0:0:0:
416,208,89219,5,8,0:1:0:0:
388,205,89298,1,0,0:0:0:0:
360,210,89377,1,0,1:0:0:0:
335,223,89456,1,0,0:0:0:0:
314,242,89535,1,8,0:1:0:0:
298,265,89614,1,0,0:0:0:0:
286,290,89692,1,8,0:1:0:0:
272,314,89771,1,0,0:0:0:0:
252,334,89850,1,8,0:1:0:0:
227,346,89929,1,0,0:0:0:0:
199,352,90008,1,8,0:1:0:0:
171,354,90087,1,0,0:0:0:0:
143,352,90166,5,4,1:2:0:0:
184,72,90482,1,0,0:0:0:0:
192,264,90640,2,0,P|256:280|360:256,1,150
88,216,91114,1,0,0:0:0:0:
264,168,91271,2,0,P|328:152|432:176,1,150,2|2,0:0|0:0,0:0:0:0:
352,336,91745,6,0,L|344:248,1,75
160,336,92061,2,0,L|168:248,1,75,2|0,0:0|0:0,0:0:0:0:
256,88,92377,2,0,L|256:168,1,75,0|0,0:0|0:0,0:0:0:0:
176,272,92692,6,0,P|112:288|8:264,1,150,0|0,0:0|0:0,0:0:0:0:
104,160,93166,2,0,P|168:144|272:168,1,150
184,280,93640,1,0,0:0:0:0:
104,144,93798,2,0,P|168:128|272:152,1,150,2|2,0:0|0:0,0:0:0:0:
424,240,94271,6,0,L|328:256,1,75,0|0,0:0|0:0,0:0:0:0:
257,292,94587,2,0,L|161:276,1,75,2|0,0:0|0:0,0:0:0:0:
96,240,94903,2,0,L|0:256,1,75,0|0,0:0|0:0,0:0:0:0:
176,184,95219,6,0,P|240:168|344:192,2,150,0|0|0,0:0|0:0|0:0,0:0:0:0:
256,360,96166,5,0,0:0:0:0:
160,296,96324,2,0,L|85:311,2,75,2|0|2,0:0|0:0|0:0,0:0:0:0:
352,296,96798,6,0,L|427:311,1,75,0|0,0:0|0:0,0:0:0:0:
328,208,97114,2,0,L|403:223,1,75,2|0,0:0|0:0,0:0:0:0:
296,120,97429,2,0,L|371:135,1,75,0|0,0:0|0:0,0:0:0:0:
232,240,97745,6,0,P|168:232|248:200,1,225
208,344,98377,2,0,P|176:344|128:320,1,75,2|0,0:0|0:0,0:0:0:0:
245,190,98692,1,0,0:0:0:0:
360,296,98850,6,0,P|424:296|328:264,1,375,2|2,0:0|0:0,0:0:0:0:
372,88,99956,6,0,L|380:144,1,56.2500021457673,0|0,0:0|0:0,0:0:0:0:
391,231,100271,2,0,P|320:208|384:336,1,337.500012874604,2|0,0:0|0:0,0:0:0:0:
336,280,101377,6,0,L|56:264,1,281.250010728836,2|0,0:0|0:0,0:0:0:0:
420,36,102798,6,0,L|400:336,1,283.499991348267,2|0,0:0|0:0,0:0:0:0:
324,56,104061,6,0,L|308:296,1,225,2|0,0:0|0:0,0:0:0:0:
256,192,105324,12,2,107850,0:0:0:0:
