osu file format v14

[General]
AudioFilename: audio.mp3
AudioLeadIn: 0
PreviewTime: 69482
Countdown: 0
SampleSet: None
StackLeniency: 0.7
Mode: 0
LetterboxInBreaks: 0
WidescreenStoryboard: 1

[Editor]
DistanceSpacing: 1.2
BeatDivisor: 4
GridSize: 4
TimelineZoom: 2

[Metadata]
Title:Re:TrymenT
TitleUnicode:Re:TrymenT
Artist:Hotaru Murasaki
ArtistUnicode:紫咲ほたる
Creator:Daoski
Version:Arika:InsanE
Source:Re:LieF ~親愛なるあなたへ~
Tags:short レリーフ dear you shin'ainaru anata e re lief tryment relief retryment eroge visual novel rask opening arika kibbleru garden bandi sinn
BeatmapID:1307672
BeatmapSetID:517219

[Difficulty]
HPDrainRate:5
CircleSize:4
OverallDifficulty:7
ApproachRate:9
SliderMultiplier:1.55
SliderTickRate:2

[Events]
//Background and Video events
0,0,"arika bg.jpg",0,0
Video,0,"tryment.avi"
//Break Periods
//Storyboard Layer 0 (Background)
//Storyboard Layer 1 (Fail)
//Storyboard Layer 2 (Pass)
//Storyboard Layer 3 (Foreground)
//Storyboard Sound Samples

[TimingPoints]
13114,315.789473684211,4,2,0,100,1,0
14377,-100,4,2,10,40,0,0
14850,-100,4,2,11,40,0,0
15324,-100,4,2,12,40,0,0
15640,-133.333333333333,4,2,13,40,0,0
16113,-133.333333333333,4,2,14,40,0,0
16587,-133.333333333333,4,2,15,40,0,0
16903,-100,4,2,16,40,0,0
17061,-100,4,2,17,40,0,0
17219,-100,4,2,18,40,0,0
17377,-100,4,2,13,40,0,0
17692,-100,4,2,17,40,0,0
17850,-100,4,2,19,40,0,0
18166,-133.333333333333,4,2,14,40,0,0
18640,-133.333333333333,4,2,12,40,0,0
19114,-133.333333333333,4,2,11,40,0,0
19429,-100,4,2,10,40,0,0
19903,-100,4,2,11,40,0,0
20377,-100,4,2,14,40,0,0
20692,-133.333333333333,4,2,19,40,0,0
21008,-133.333333333333,4,2,21,40,0,0
21324,-133.333333333333,4,2,22,40,0,0
21640,-133.333333333333,4,2,23,40,0,0
21956,-133.333333333333,4,2,24,40,0,0
22429,-133.333333333333,4,2,23,40,0,0
22903,-133.333333333333,4,2,12,40,0,0
23219,-133.333333333333,4,2,11,50,0,0
23692,-133.333333333333,4,2,10,70,0,0
24166,-133.333333333333,4,2,25,90,0,0
24324,-133.333333333333,4,2,1,40,0,0
24482,-83.3333333333333,4,2,10,50,0,0
24798,-83.3333333333333,4,2,1,50,0,0
28271,-83.3333333333333,4,2,2,50,0,0
28429,-83.3333333333333,4,2,16,50,0,0
28587,-83.3333333333333,4,2,28,50,0,0
28745,-83.3333333333333,4,2,24,50,0,0
28903,-83.3333333333333,4,2,16,50,0,0
29061,-83.3333333333333,4,2,19,50,0,0
29219,-83.3333333333333,4,2,14,50,0,0
29377,-83.3333333333333,4,2,18,50,0,0
29535,-83.3333333333333,4,2,11,50,0,0
29850,-83.3333333333333,4,2,1,50,0,0
31429,-83.3333333333333,4,2,2,50,0,0
31587,-83.3333333333333,4,2,1,50,0,0
33324,-83.3333333333333,4,2,1,40,0,0
33798,-83.3333333333333,4,2,1,20,0,0
33956,-83.3333333333333,4,2,1,20,0,0
34587,-100,4,2,2,30,0,0
34903,-100,4,2,1,30,0,0
43745,-100,4,2,12,30,0,0
43903,-100,4,2,16,30,0,0
44061,-100,4,2,19,30,0,0
44219,-100,4,2,14,30,0,0
44377,-100,4,2,18,30,0,0
44535,-100,4,2,17,30,0,0
44692,-100,4,2,1,40,0,0
44850,-100,4,2,2,40,0,0
45008,-100,4,2,1,40,0,0
53219,-100,4,2,1,40,0,0
53692,-100,4,2,18,40,0,0
53850,-100,4,2,12,40,0,0
54008,-100,4,2,16,40,0,0
54166,-100,4,2,19,40,0,0
54324,-100,4,2,14,40,0,0
54482,-100,4,2,18,40,0,0
54640,-100,4,2,17,40,0,0
54798,-83.3333333333333,4,2,1,50,0,0
55114,-83.3333333333333,4,2,1,50,0,0
59061,-83.3333333333333,4,2,1,50,0,0
59535,-83.3333333333333,4,2,1,50,0,0
59692,-83.3333333333333,4,2,1,50,0,0
59850,-83.3333333333333,4,2,26,50,0,0
60166,-83.3333333333333,4,2,1,50,0,0
60640,-83.3333333333333,4,2,26,50,0,0
60798,-83.3333333333333,4,2,1,50,0,0
60956,-83.3333333333333,4,2,27,50,0,0
61114,-83.3333333333333,4,2,1,50,0,0
62377,-83.3333333333333,4,2,27,50,0,0
63166,-83.3333333333333,4,2,27,50,0,0
63324,-83.3333333333333,4,2,1,50,0,0
63482,-83.3333333333333,4,2,18,50,0,0
63640,-83.3333333333333,4,2,1,50,0,0
64903,-83.3333333333333,4,2,1,50,0,0
67429,-83.3333333333333,4,2,1,60,0,0
67745,-83.3333333333333,4,2,1,60,0,0
68061,-83.3333333333333,4,2,1,80,0,0
68377,-83.3333333333333,4,2,1,100,0,0
68535,-83.3333333333333,4,2,1,100,0,0
68692,-83.3333333333333,4,2,1,40,0,0
69324,-83.3333333333333,4,2,1,80,0,0
69640,-83.3333333333333,4,2,1,60,0,0
69956,-76.9230769230769,4,2,1,80,0,1
70114,-76.9230769230769,4,2,2,80,0,1
70271,-76.9230769230769,4,2,1,80,0,1
70745,-76.9230769230769,4,2,1,80,0,1
71535,-76.9230769230769,4,2,28,80,0,1
71692,-76.9230769230769,4,2,1,80,0,1
71850,-76.9230769230769,4,2,24,80,0,1
72008,-76.9230769230769,4,2,1,80,0,1
72166,-76.9230769230769,4,2,19,80,0,1
72324,-76.9230769230769,4,2,18,80,0,1
72640,-76.9230769230769,4,2,2,80,0,1
72798,-76.9230769230769,4,2,1,80,0,1
74061,-76.9230769230769,4,2,18,80,0,1
74219,-76.9230769230769,4,2,1,80,0,1
74377,-76.9230769230769,4,2,19,80,0,1
74535,-76.9230769230769,4,2,1,80,0,1
74692,-76.9230769230769,4,2,29,80,0,1
75008,-76.9230769230769,4,2,1,80,0,1
75166,-76.9230769230769,4,2,2,80,0,1
75324,-76.9230769230769,4,2,1,80,0,1
75640,-76.9230769230769,4,2,12,80,0,1
75798,-76.9230769230769,4,2,1,80,0,1
76271,-76.9230769230769,4,2,2,80,0,1
76429,-76.9230769230769,4,2,1,80,0,1
76587,-76.9230769230769,4,2,28,80,0,1
76745,-76.9230769230769,4,2,1,80,0,1
76903,-76.9230769230769,4,2,24,80,0,1
77061,-76.9230769230769,4,2,1,80,0,1
77219,-76.9230769230769,4,2,23,80,0,1
77535,-76.9230769230769,4,2,1,80,0,1
80061,-76.9230769230769,4,2,1,90,0,1
80219,-76.9230769230769,4,2,2,90,0,1
80377,-76.9230769230769,4,2,1,90,0,1
81482,-76.9230769230769,4,2,2,90,0,1
81640,-76.9230769230769,4,2,1,90,0,1
85114,-76.9230769230769,4,2,1,100,0,1
85271,-76.9230769230769,4,2,2,100,0,1
85429,-76.9230769230769,4,2,1,100,0,1
86535,-76.9230769230769,4,2,2,100,0,1
87640,-76.9230769230769,4,2,1,90,0,1
87956,-76.9230769230769,4,2,1,90,0,1
89061,-76.9230769230769,4,2,1,90,0,1
90166,-100,4,2,27,40,0,0
90324,-100,4,2,18,40,0,0
90482,-100,4,2,19,40,0,0
90640,-100,4,2,24,40,0,0
91114,-100,4,2,12,40,0,0
91745,-100,4,2,28,40,0,0
92061,-100,4,2,24,40,0,0
92377,-100,4,2,19,40,0,0
92692,-100,4,2,24,40,0,0
93166,-100,4,2,23,40,0,0
93956,-100,4,2,19,50,0,0
94271,-100,4,2,23,60,0,0
94587,-100,4,2,24,70,0,0
94903,-100,4,2,28,80,0,0
95219,-100,4,2,24,80,0,0
95377,-100,4,2,18,40,0,0
95535,-100,4,2,13,40,0,0
95692,-100,4,2,14,40,0,0
96482,-100,4,2,12,40,0,0
97114,-100,4,2,18,40,0,0
97429,-100,4,2,14,40,0,0
97745,-100,4,2,16,40,0,0
98377,-100,4,2,19,40,0,0
99008,-100,4,2,14,40,0,0
99640,-100,4,2,13,40,0,0
100271,-133.333333333333,4,2,18,40,0,0
101219,-133.333333333333,4,2,1,40,0,0
101535,-133.333333333333,4,2,25,40,0,0
102166,-133.333333333333,4,2,30,40,0,0
102482,-133.333333333333,4,2,31,40,0,0
102798,-133.333333333333,4,2,12,40,0,0
104061,-133.333333333333,4,2,23,40,0,0
105008,-133.333333333333,4,2,19,40,0,0
105324,-133.333333333333,4,2,10,40,0,0
107850,-133.333333333333,4,2,1,20,0,0

[Colours]
Combo1 : 255,208,55
Combo2 : 182,218,62
Combo3 : 250,119,158
Combo4 : 154,132,215

[HitObjects]
390,243,14377,6,0,P|351:247|319:268,1,77.5,2|0,0:0|0:0,0:0:0:0:
355,354,14692,1,0,0:0:0:0:
438,318,14850,2,0,L|419:134,1,155,2|0,0:0|0:0,0:0:0:0:
412,60,15324,1,2,0:0:0:0:
412,60,15640,6,0,P|334:94|319:176,2,174.375006651879,2|2|2,0:0|0:0|0:0,0:0:0:0:
226,91,16903,6,0,L|148:90,1,77.5,2|2,0:0|0:0,0:0:0:0:
89,162,17219,1,2,0:0:0:0:
181,171,17377,2,0,L|368:178,1,155,2|2,0:0|0:0,0:0:0:0:
424,188,17850,1,2,0:0:0:0:
424,188,18166,6,0,B|452:231|452:231|423:284|431:373,2,174.375006651879,2|2|2,0:0|0:0|0:0,0:0:0:0:
257,122,19429,6,0,P|228:97|216:61,1,77.5,2|0,0:0|0:0,0:0:0:0:
307,42,19745,1,0,0:0:0:0:
350,117,19903,2,0,L|308:300,1,155,2|0,0:0|0:0,0:0:0:0:
336,358,20377,1,2,0:0:0:0:
336,358,20692,6,0,L|461:322,1,116.250004434586,2|2,0:0|0:0,0:0:0:0:
315,268,21166,1,0,0:0:0:0:
315,268,21324,2,0,L|190:232,1,116.250004434586,2|2,0:0|0:0,0:0:0:0:
73,287,21956,6,0,P|58:206|121:134,2,174.375006651879,2|2|2,0:0|0:0|0:0,0:0:0:0:
203,235,23219,6,0,P|284:250|356:187,2,174.375006651879,2|2|2,0:0|0:0|0:0,0:0:0:0:
261,160,24324,1,0,0:0:0:0:
261,160,24403,1,0,0:0:0:0:
261,160,24482,6,0,L|248:63,1,92.9999971618653,6|0,1:0|0:0,0:0:0:0:
368,180,24798,2,0,L|355:83,2,92.9999971618653,0|0|0,1:0|0:0|1:0,0:0:0:0:
457,247,25271,1,0,0:0:0:0:
457,247,25429,1,0,1:0:0:0:
389,335,25587,1,0,0:0:0:0:
389,335,25666,1,0,0:0:0:0:
389,335,25745,6,0,B|296:365|296:308|201:343,1,185.999994323731,0|0,1:0|1:0,0:0:0:0:
94,347,26219,1,8,0:3:0:0:
94,347,26377,2,0,P|103:302|141:258,2,92.9999971618653,0|8|0,1:0|0:3|1:0,0:0:0:0:
206,341,26850,1,0,0:0:0:0:
335,258,27008,6,0,P|287:246|234:247,1,92.9999971618653,4|0,1:2|0:0,0:0:0:0:
131,265,27324,1,0,1:0:0:0:
144,154,27482,2,0,P|145:75|249:21,1,185.999994323731,0|0,0:0|0:0,0:0:0:0:
312,97,27956,1,0,1:0:0:0:
312,97,28035,1,0,0:0:0:0:
312,97,28114,1,0,0:0:0:0:
417,59,28271,6,0,L|437:150,1,92.9999971618653,0|2,0:0|0:0,0:0:0:0:
341,237,28587,2,0,L|321:146,1,92.9999971618653,2|10,1:2|0:3,0:0:0:0:
211,123,28903,1,2,1:2:0:0:
182,231,29061,1,10,0:3:0:0:
215,104,29219,1,2,1:2:0:0:
177,251,29377,1,2,0:0:0:0:
221,83,29535,6,0,P|136:89|103:180,1,185.999994323731,2|0,1:2|1:0,0:0:0:0:
173,273,30008,2,0,P|258:267|291:176,1,185.999994323731,8|0,0:3|0:0,0:0:0:0:
345,83,30482,1,0,1:0:0:0:
195,178,30640,1,0,0:0:0:0:
280,356,30798,6,0,B|314:295|314:295|288:244|292:165,1,185.999994323731,0|0,1:0|1:0,0:0:0:0:
384,244,31271,2,0,P|401:295|378:353,1,92.9999971618653,8|0,0:3|0:0,0:0:0:0:
224,282,31587,1,8,0:3:0:0:
416,228,31745,1,0,1:0:0:0:
195,178,31903,1,0,0:0:0:0:
250,382,32061,1,4,1:2:0:0:
256,192,32140,12,4,33324,1:2:0:0:
256,191,33798,6,0,L|256:245,2,46.4999985809327,0|0|0,0:0|0:0|0:0,0:0:0:0:
256,191,34587,6,0,L|254:90,1,77.5,0|0,1:2|0:0,0:0:0:0:
294,28,34903,2,0,P|255:21|205:34,1,77.5,0|0,0:0|0:0,0:0:0:0:
150,92,35219,2,0,B|123:134|123:134|148:185|126:249,1,155,0|0,0:0|0:0,0:0:0:0:
46,191,35692,1,0,0:0:0:0:
46,191,35850,6,0,P|32:153|32:115,1,77.5,0|0,0:0|0:0,0:0:0:0:
129,236,36166,2,0,P|143:274|143:312,1,77.5,0|0,0:0|0:0,0:0:0:0:
70,368,36482,1,0,0:0:0:0:
158,340,36640,1,0,0:0:0:0:
247,366,36798,2,0,L|340:354,1,77.5,0|0,0:0|0:0,0:0:0:0:
399,266,37114,6,0,B|322:277|322:277|249:233,1,155,0|0,0:0|0:0,0:0:0:0:
339,195,37587,1,0,0:0:0:0:
258,147,37745,2,0,P|190:170|165:251,1,155,0|0,0:0|0:0,0:0:0:0:
214,322,38219,1,0,0:0:0:0:
339,195,38377,6,0,P|353:156|348:120,1,77.5,0|0,0:0|0:0,0:0:0:0:
399,266,38692,2,0,P|385:305|390:341,1,77.5,0|0,0:0|0:0,0:0:0:0:
480,315,39008,1,0,0:0:0:0:
476,222,39166,1,0,0:0:0:0:
473,128,39324,2,0,P|464:81|441:42,1,77.5,0|0,0:0|0:0,0:0:0:0:
245,116,39640,6,0,P|318:139|394:108,1,155,0|0,1:0|0:0,0:0:0:0:
316,53,40114,1,0,0:0:0:0:
231,91,40271,2,0,B|218:151|236:199|236:199|192:257,1,155,0|0,0:0|0:0,0:0:0:0:
114,232,40745,2,0,P|133:302|212:329,1,155,0|0,0:0|0:0,0:0:0:0:
287,286,41219,5,0,0:0:0:0:
208,235,41377,1,0,0:0:0:0:
290,192,41535,1,0,0:0:0:0:
366,243,41692,1,0,0:0:0:0:
287,286,41850,2,0,L|314:358,1,77.5,0|0,0:0|0:0,0:0:0:0:
208,235,42166,6,0,P|197:167|259:97,1,155,0|0,0:0|0:0,0:0:0:0:
329,58,42640,2,0,B|252:38|252:87|161:49,1,155,0|0,0:0|0:0,0:0:0:0:
88,85,43114,1,0,0:0:0:0:
151,153,43271,1,0,0:0:0:0:
77,320,43429,6,0,P|52:237|59:159,1,155,0|2,0:0|0:0,0:0:0:0:
88,85,43903,1,2,0:0:0:0:
151,153,44061,1,10,0:0:0:0:
239,122,44219,1,10,0:0:0:0:
176,54,44377,1,2,0:0:0:0:
88,85,44535,1,2,1:2:0:0:
260,115,44692,6,0,P|332:103|392:171,1,155,0|0,1:0|0:0,0:0:0:0:
303,195,45166,1,0,1:0:0:0:
393,321,45324,2,0,L|381:245,2,77.5,8|0|0,0:0|0:0|0:0,0:0:0:0:
470,268,45798,1,0,0:0:0:0:
289,283,45956,6,0,P|217:295|157:227,1,155,0|0,1:0|1:0,0:0:0:0:
180,151,46429,1,0,1:0:0:0:
131,230,46587,2,0,P|101:254|63:260,1,77.5,8|0,0:0|0:0,0:0:0:0:
195,123,46903,2,0,P|224:98|262:92,1,77.5,0|0,1:0|0:0,0:0:0:0:
161,242,47219,6,0,L|69:81,1,155,0|0,1:0|0:0,0:0:0:0:
3,60,47692,1,0,1:0:0:0:
18,151,47850,2,0,L|67:237,2,77.5,8|0|0,0:0|0:0|0:0,0:0:0:0:
73,19,48324,1,0,0:0:0:0:
238,54,48482,6,0,P|198:61|159:55,1,77.5,0|8,1:0|0:0,0:0:0:0:
298,128,48798,2,0,P|338:121|377:127,1,77.5,0|0,1:0|1:0,0:0:0:0:
401,285,49114,1,8,0:0:0:0:
468,143,49271,1,0,0:0:0:0:
330,213,49429,1,0,1:0:0:0:
484,244,49587,1,0,0:0:0:0:
374,126,49745,6,0,P|368:88|385:33,1,77.5,0|0,1:0|1:0,0:0:0:0:
401,285,50061,2,0,P|408:322|403:361,1,77.5,0|0,0:0|1:0,0:0:0:0:
330,213,50377,2,0,B|256:200|256:242|165:212,1,155,8|0,0:0|0:0,0:0:0:0:
296,293,50850,2,0,P|214:306|133:287,1,155,0|8,1:0|0:0,0:0:0:0:
85,154,51324,5,0,1:0:0:0:
57,238,51482,1,0,1:0:0:0:
185,129,51640,1,8,0:0:0:0:
105,168,51798,1,0,0:0:0:0:
271,181,51956,1,0,1:0:0:0:
186,152,52114,1,0,0:0:0:0:
315,256,52271,6,0,P|392:269|469:226,1,155,0|0,1:0|0:0,0:0:0:0:
492,148,52745,1,0,1:0:0:0:
431,77,52903,2,0,P|354:64|277:107,1,155,8|0,0:0|1:0,0:0:0:0:
244,180,53377,2,0,P|194:122|213:37,1,155,8|10,0:0|0:0,0:0:0:0:
287,7,53850,5,2,0:0:0:0:
197,31,54008,1,2,0:0:0:0:
106,54,54166,1,2,0:0:0:0:
106,54,54245,1,0,0:0:0:0:
106,54,54324,1,2,0:0:0:0:
83,144,54482,2,0,L|96:219,1,77.5,2|2,0:0|0:0,0:0:0:0:
194,123,54798,6,0,L|226:306,1,185.999994323731,4|0,1:0|1:0,0:0:0:0:
329,348,55271,1,0,0:0:0:0:
424,290,55429,2,0,P|410:207|332:232,1,185.999994323731,0|0,1:0|1:0,0:0:0:0:
424,290,55903,6,0,L|399:94,1,185.999994323731,8|8,0:3|0:3,0:0:0:0:
468,16,56377,1,0,1:0:0:0:
358,34,56535,1,0,0:0:0:0:
358,34,56614,1,0,0:0:0:0:
358,34,56692,1,0,1:2:0:0:
286,119,56850,1,0,0:0:0:0:
358,34,57008,1,0,1:2:0:0:
266,142,57166,1,0,0:0:0:0:
358,34,57324,6,0,P|385:117|350:211,1,185.999994323731,4|0,1:2|1:0,0:0:0:0:
249,249,57798,2,0,P|171:209|129:118,1,185.999994323731,0|0,0:0|0:0,0:0:0:0:
181,24,58271,1,0,1:0:0:0:
237,120,58429,2,0,L|253:320,1,185.999994323731,8|8,0:3|0:3,0:0:0:0:
115,357,58903,5,0,1:0:0:0:
115,357,58982,1,0,0:0:0:0:
115,357,59061,1,0,0:0:0:0:
214,306,59219,1,8,1:0:0:0:
120,245,59377,1,8,1:0:0:0:
251,305,59535,1,8,1:3:0:0:
98,217,59692,1,8,1:3:0:0:
373,147,59850,6,0,P|280:144|212:209,1,185.999994323731,6|0,1:0|0:0,0:0:0:0:
321,238,60324,1,0,1:0:0:0:
370,338,60482,2,0,B|283:369|283:309|183:349,1,185.999994323731,8|0,0:1|1:0,0:0:0:0:
108,267,60956,2,0,P|96:171|167:91,1,185.999994323731,2|8,1:2|0:1,0:0:0:0:
297,260,61429,6,0,P|264:296|213:325,1,92.9999971618653,0|0,1:0|0:0,0:0:0:0:
224,150,61745,2,8,P|257:114|308:85,1,92.9999971618653,8|8,1:0|1:0,0:0:0:0:
371,172,62061,1,8,1:3:0:0:
417,70,62219,1,8,1:3:0:0:
490,270,62377,5,6,1:2:0:0:
490,270,62692,2,0,P|448:293|389:295,1,92.9999971618653,0|0,0:0|1:0,0:0:0:0:
297,260,63008,1,8,0:1:0:0:
216,334,63166,1,2,0:0:0:0:
323,368,63324,1,0,1:0:0:0:
206,242,63482,2,0,B|190:173|190:173|199:138|199:138|180:61,1,185.999994323731,2|0,1:2|0:0,0:0:0:0:
291,165,63956,6,0,L|313:256,1,92.9999971618653,8|0,1:0|0:0,0:0:0:0:
92,131,64271,2,8,L|71:41,1,92.9999971618653,8|8,1:0|1:0,0:0:0:0:
180,61,64587,1,8,1:3:0:0:
191,172,64745,1,8,1:3:0:0:
317,285,64903,5,4,1:0:0:0:
317,285,65219,2,0,P|361:276|391:238,1,92.9999971618653,0|0,1:0|0:0,0:0:0:0:
432,136,65535,1,0,1:0:0:0:
491,232,65692,1,0,0:0:0:0:
331,155,65850,1,0,1:0:0:0:
171,208,66008,2,0,P|161:126|243:157,1,185.999994323731,0|0,0:0|0:0,0:0:0:0:
105,258,66482,6,0,P|79:218|67:175,1,92.9999971618653,0|0,1:0|0:0,0:0:0:0:
198,35,66798,2,0,P|244:44|283:66,1,92.9999971618653,0|0,1:0|0:0,0:0:0:0:
322,204,67114,2,0,P|296:244|262:273,1,92.9999971618653,0|0,1:0|0:0,0:0:0:0:
157,129,67429,5,4,1:2:0:0:
245,196,67587,1,0,1:0:0:0:
138,231,67745,2,8,L|37:260,1,92.9999971618653,8|8,1:0|1:0,0:0:0:0:
50,143,68061,1,8,1:0:0:0:
88,38,68219,1,8,1:0:0:0:
181,102,68377,2,8,L|282:73,1,92.9999971618653,8|8,1:0|1:0,0:0:0:0:
256,192,68692,12,2,69324,1:2:0:0:
343,329,69640,6,0,L|334:278,1,46.4999985809327,0|0,0:0|0:0,0:0:0:0:
390,217,69798,2,0,L|381:166,1,46.4999985809327,0|0,0:0|0:0,0:0:0:0:
413,91,69956,6,0,B|348:86|348:86|284:110|284:110|208:103,1,201.499990776062,4|8,1:0|0:1,0:0:0:0:
158,20,70429,2,0,P|114:101|156:196,1,201.499990776062,0|0,0:0|1:0,0:0:0:0:
217,275,70903,2,0,P|208:326|180:373,1,100.749995388031,8|0,0:1|0:0,0:0:0:0:
255,185,71219,6,0,B|300:186|328:231|328:231|397:232|432:166,1,201.499990776062,0|10,1:0|0:1,0:0:0:0:
351,110,71692,1,0,1:0:0:0:
446,76,71850,1,2,0:0:0:0:
281,27,72008,1,0,1:0:0:0:
186,61,72166,2,0,B|134:62|134:62|95:27,1,100.749995388031,10|0,0:1|0:0,0:0:0:0:
255,130,72482,6,0,B|273:196|273:196|256:253|256:253|274:326,1,201.499990776062,2|8,1:2|0:1,0:0:0:0:
350,259,72956,2,0,L|386:368,2,100.749995388031,0|0|0,0:0|0:0|1:0,0:0:0:0:
387,164,73429,1,8,0:1:0:0:
264,228,73587,2,0,B|213:211|159:224|159:224|88:222|75:140,1,201.499990776062,0|0,0:0|0:0,0:0:0:0:
6,110,74061,6,0,P|47:77|107:79,1,100.749995388031,10|0,0:1|1:0,0:0:0:0:
187,112,74377,1,2,0:0:0:0:
188,11,74535,1,0,1:0:0:0:
84,174,74692,2,0,P|82:220|103:297,1,100.749995388031,10|0,0:1|0:0,0:0:0:0:
110,304,74929,1,0,0:0:0:0:
141,320,75008,6,0,B|234:294|235:366|348:317,2,201.499990776062,4|8|2,1:2|0:1|0:0,0:0:0:0:
280,247,75798,1,0,1:0:0:0:
187,112,75956,1,8,0:1:0:0:
148,285,76114,1,0,0:0:0:0:
155,245,76192,1,0,0:0:0:0:
162,205,76271,6,0,P|112:189|57:199,1,100.749995388031,0|0,0:0|0:0,0:0:0:0:
286,212,76587,2,0,P|336:228|391:218,1,100.749995388031,10|0,0:1|1:0,0:0:0:0:
227,134,76903,2,0,P|211:84|221:29,1,100.749995388031,2|0,0:0|1:0,0:0:0:0:
225,282,77219,2,0,P|241:332|231:387,1,100.749995388031,10|0,0:1|0:0,0:0:0:0:
129,342,77535,6,0,L|358:322,1,201.499990776062,4|8,1:0|0:1,0:0:0:0:
437,354,78008,1,0,0:0:0:0:
416,245,78166,2,0,B|440:140|377:141|413:38,1,201.499990776062,4|8,1:2|0:1,0:0:0:0:
510,95,78640,1,0,0:0:0:0:
313,196,78798,6,0,P|266:204|222:168,1,100.749995388031,4|0,1:0|1:0,0:0:0:0:
217,37,79114,2,0,P|264:29|308:65,1,100.749995388031,8|0,0:1|0:0,0:0:0:0:
226,176,79429,1,0,1:0:0:0:
220,210,79508,1,0,1:0:0:0:
230,244,79587,1,0,1:0:0:0:
252,271,79666,1,0,1:0:0:0:
283,287,79745,2,0,L|369:275,1,50.3749976940156,8|0,1:0|0:0,0:0:0:0:
449,213,79903,2,0,L|399:220,1,50.3749976940156,8|0,1:0|0:0,0:0:0:0:
313,196,80061,6,0,B|231:208|231:208|186:228|186:228|105:236,1,201.499990776062,4|8,1:0|0:1,0:0:0:0:
3,192,80535,1,0,0:0:0:0:
106,129,80692,2,0,L|99:28,1,100.749995388031,0|0,0:0|1:0,0:0:0:0:
219,75,81008,2,0,L|225:175,1,100.749995388031,8|0,0:1|0:0,0:0:0:0:
190,291,81324,6,0,B|292:318|292:255|405:299,1,201.499990776062,4|8,1:2|0:1,0:0:0:0:
491,357,81798,1,0,1:0:0:0:
457,241,81956,2,0,P|410:213|343:207,1,100.749995388031,0|0,0:0|1:0,0:0:0:0:
249,166,82271,1,8,0:1:0:0:
177,263,82429,1,0,0:0:0:0:
365,205,82587,6,0,P|375:156|373:94,1,100.749995388031,4|0,1:0|1:0,0:0:0:0:
292,285,82903,2,0,P|282:334|284:396,1,100.749995388031,8|0,0:1|0:0,0:0:0:0:
264,193,83219,2,0,P|213:192|164:202,1,100.749995388031,0|0,0:0|1:0,0:0:0:0:
388,292,83535,2,0,P|438:292|487:282,1,100.749995388031,8|0,0:1|0:0,0:0:0:0:
417,124,83850,5,0,1:0:0:0:
388,291,84008,1,0,1:0:0:0:
506,184,84166,1,8,0:1:0:0:
343,200,84324,1,0,1:0:0:0:
487,281,84482,2,0,L|509:166,1,100.749995388031,0|0,1:0|1:0,0:0:0:0:
435,25,84798,2,0,L|416:123,1,100.749995388031,8|0,1:0|1:0,0:0:0:0:
270,276,85114,6,0,P|264:183|347:210,1,201.499990776062,12|8,1:0|0:1,0:0:0:0:
387,312,85587,1,0,1:0:0:0:
329,103,85745,2,0,P|281:98|228:113,1,100.749995388031,8|0,0:1|1:0,0:0:0:0:
166,214,86061,2,0,P|169:262|193:311,1,100.749995388031,8|0,0:1|1:0,0:0:0:0:
305,351,86377,6,0,B|372:341|372:341|431:363|431:363|505:355,1,201.499990776062,8|8,0:1|0:1,0:0:0:0:
467,239,86850,1,0,1:0:0:0:
346,225,87008,2,0,L|227:245,1,100.749995388031,8|0,0:1|1:0,0:0:0:0:
413,148,87324,2,0,L|512:131,1,100.749995388031,8|0,0:1|1:0,0:0:0:0:
306,137,87640,5,4,1:0:0:0:
195,48,87798,1,0,1:0:0:0:
153,182,87956,1,8,0:1:0:0:
43,92,88114,1,0,1:0:0:0:
227,51,88271,1,8,0:1:0:0:
183,309,88429,1,0,1:0:0:0:
15,264,88587,1,0,1:0:0:0:
275,228,88745,2,0,B|377:195|376:266|477:223,1,201.499990776062,4|0,1:2|1:0,0:0:0:0:
356,142,89219,5,0,1:0:0:0:
326,136,89298,1,0,1:0:0:0:
296,137,89377,1,0,1:0:0:0:
266,142,89456,1,0,1:0:0:0:
238,154,89535,2,0,P|215:171|197:201,1,50.3749976940156,0|0,1:0|1:0,0:0:0:0:
182,217,89692,2,0,P|166:237|146:251,1,50.3749976940156,0|0,1:0|1:0,0:0:0:0:
110,256,89850,2,0,P|82:249|55:227,1,50.3749976940156,0|0,1:0|1:0,0:0:0:0:
40,210,90008,2,0,P|26:182|20:149,1,50.3749976940156,0|0,1:0|1:0,0:0:0:0:
44,127,90166,6,0,B|55:201|55:201|46:301,1,155,6|2,1:2|0:0,0:0:0:0:
119,341,90640,2,0,L|289:330,1,155,2|0,0:0|0:0,0:0:0:0:
362,360,91114,1,2,0:0:0:0:
336,271,91271,2,0,B|323:212|323:212|330:180|330:180|315:99,1,155,0|0,0:0|0:0,0:0:0:0:
241,171,91745,6,0,L|222:73,2,77.5,2|0|2,0:0|0:0|0:0,0:0:0:0:
169,241,92219,1,0,0:0:0:0:
169,241,92377,1,2,0:0:0:0:
129,157,92535,1,0,0:0:0:0:
129,157,92692,6,0,P|73:209|85:297,1,155,2|0,0:0|0:0,0:0:0:0:
163,380,93166,2,0,B|168:349|196:326|196:326|171:292|166:210,1,155,2|0,0:0|0:0,0:0:0:0:
235,175,93640,1,0,0:0:0:0:
289,250,93798,2,0,L|456:213,1,155,0|0,0:0|0:0,0:0:0:0:
498,289,94271,6,0,L|419:307,2,77.5,2|0|2,0:0|0:0|0:0,0:0:0:0:
440,216,94745,1,0,0:0:0:0:
487,136,94903,1,2,0:0:0:0:
414,77,95061,1,0,0:0:0:0:
414,77,95219,6,0,P|348:105|331:35,1,155,2|2,0:0|0:0,0:0:0:0:
200,136,95692,2,0,P|264:160|234:223,1,155,2|0,0:0|0:0,0:0:0:0:
141,213,96166,1,0,0:0:0:0:
189,292,96324,2,0,B|267:318|267:271|357:302,1,155,0|0,0:0|0:0,0:0:0:0:
424,341,96798,6,0,P|461:355|506:349,1,77.5,0|0,0:0|0:0,0:0:0:0:
469,263,97114,2,0,L|449:168,1,77.5,2|0,0:0|0:0,0:0:0:0:
349,78,97429,2,0,L|365:154,1,77.5,2|0,0:0|0:0,0:0:0:0:
291,211,97745,6,0,B|237:213|237:213|193:197|193:197|131:200,1,155,2|0,0:0|0:0,0:0:0:0:
46,183,98219,1,0,0:0:0:0:
36,280,98377,2,0,B|90:278|90:278|134:294|134:294|188:291,1,155,2|0,0:0|0:0,0:0:0:0:
258,352,98850,2,0,P|281:282|247:213,1,155,0|0,0:0|0:0,0:0:0:0:
159,179,99324,5,0,0:0:0:0:
154,86,99482,1,0,0:0:0:0:
245,69,99640,1,2,0:0:0:0:
302,141,99798,1,0,0:0:0:0:
246,212,99956,2,0,P|222:248|193:267,1,77.5,0|0,0:0|0:0,0:0:0:0:
109,270,100271,6,0,P|55:204|167:194,1,232.500008869171,2|0,0:0|0:0,0:0:0:0:
193,266,101061,1,0,0:0:0:0:
193,266,101219,2,0,P|189:300|165:338,1,58.1250022172929,0|0,0:0|0:0,0:0:0:0:
256,193,101535,6,0,P|290:197|328:221,1,58.1250022172929,2|0,0:0|0:0,0:0:0:0:
218,111,101850,2,0,P|222:77|246:39,1,58.1250022172929,0|0,0:0|0:0,0:0:0:0:
158,178,102166,2,0,P|124:174|86:150,1,58.1250022172929,2|0,0:0|0:0,0:0:0:0:
193,266,102482,2,0,P|189:300|165:338,1,58.1250022172929,2|0,0:0|0:0,0:0:0:0:
100,371,102798,6,0,B|178:331|257:364|257:364|306:326|403:346|403:346|377:305|386:253,1,406.87501552105,2|0,0:0|0:0,0:0:0:0:
480,268,104061,6,0,P|387:151|294:286,1,348.750013303757,2|2,0:0|0:0,0:0:0:0:
385,257,105324,5,2,0:0:0:0:
256,192,105403,12,2,107850,0:0:0:0:
