osu file format v14

[General]
AudioFilename: audio.mp3
AudioLeadIn: 0
PreviewTime: 57204
Countdown: 1
SampleSet: Soft
StackLeniency: 0.7
Mode: 0
LetterboxInBreaks: 0
WidescreenStoryboard: 0

[Editor]
DistanceSpacing: 0.7
BeatDivisor: 4
GridSize: 4
TimelineZoom: 1

[Metadata]
Title:Re:TrymenT
TitleUnicode:Re:TrymenT
Artist:Hotaru Murasaki
ArtistUnicode:Hotaru Murasaki
Creator:Ameyy
Version:Voyage
Source:
Tags:
BeatmapID:1387640
BeatmapSetID:654662

[Difficulty]
HPDrainRate:7
CircleSize:4
OverallDifficulty:7
ApproachRate:9
SliderMultiplier:1.8
SliderTickRate:2

[Events]
//Background and Video events
0,0,"Konachan.com - 243019 blonde_hair clouds flowers kashimura_sana landscape logo loli long_hair male orange_eyes petals scenic sky thighhighs twintails zettai_ryouiki.jpg",0,0
//Break Periods
//Storyboard Layer 0 (Background)
//Storyboard Layer 1 (Fail)
//Storyboard Layer 2 (Pass)
//Storyboard Layer 3 (Foreground)
//Storyboard Sound Samples

[TimingPoints]
1941,315.789473684211,4,2,0,100,1,0
1941,-117.647058823529,4,2,0,100,0,0
12046,-100,4,2,0,100,0,0
20888,-133.333333333333,4,2,0,100,0,0
22151,-153.846153846153,4,2,0,100,0,0
42362,-117.647058823529,4,2,0,100,0,0
43467,-117.647058823529,4,3,0,100,0,0
44256,-117.647058823529,4,2,0,100,0,0
47414,-133.333333333333,4,2,0,100,0,0
52467,-105.263157894736,4,2,0,100,0,0
56098,-133.333333333333,4,2,0,100,0,0
56809,-100,4,2,0,100,0,0
57519,-90.9090909090909,4,2,0,100,0,1
66993,-90.9090909090909,4,3,0,100,0,1
67625,-90.9090909090909,4,2,0,100,0,1
77730,-125,4,2,0,100,0,0
85309,-166.666666666667,4,2,0,100,0,0

[HitObjects]
68,108,1941,6,0,B|108:120|144:108|144:108|196:120,1,114.750002188683
208,136,2256,2,0,L|244:212,1,76.5000014591217,2|0,0:0|0:0,0:0:0:0:
152,248,2572,1,0,0:0:0:0:
400,220,2730,1,0,0:0:0:0:
400,220,2888,2,0,P|444:184|384:172,1,114.750002188683,2|0,0:0|0:0,0:0:0:0:
330,185,3204,6,0,B|315:214|320:249|337:271|337:271|303:281|292:312,1,153.000002918243,0|2,0:0|0:0,0:0:0:0:
386,367,3677,2,0,P|314:354|225:358,1,153.000002918243
164,337,4151,5,2,0:0:0:0:
164,337,4467,6,0,B|164:283|183:247|183:247|147:244|112:200,1,153.000002918243,0|2,0:0|0:0,0:0:0:0:
43,165,4941,2,0,L|56:225,1,38.2500007295609
125,139,5098,1,0,0:0:0:0:
295,146,5256,1,2,0:0:0:0:
295,146,5414,1,2,0:0:0:0:
295,146,5730,6,0,B|229:129|214:171|125:134,1,153.000002918243,0|2,0:0|0:0,0:0:0:0:
192,68,6204,1,0,0:0:0:0:
352,92,6362,2,0,P|373:156|304:223,1,153.000002918243,0|2,0:0|0:0,0:0:0:0:
199,285,6993,6,0,P|267:272|356:303,1,153.000002918243,0|2,0:0|0:0,0:0:0:0:
417,306,7467,1,0,0:0:0:0:
376,300,7546,1,0,0:0:0:0:
346,296,7625,1,0,0:0:0:0:
484,230,7783,1,0,0:0:0:0:
318,292,7941,2,0,B|269:282|269:282|248:291|248:291|210:270|147:294,1,153.000002918243,2|0,0:0|0:0,0:0:0:0:
107,219,8572,5,2,0:0:0:0:
211,203,8888,1,0,0:0:0:0:
107,219,9204,5,2,0:0:0:0:
107,219,9519,6,0,B|165:231|209:199|209:199|239:210|265:236,1,153.000002918243,0|2,0:0|0:0,0:0:0:0:
53,283,9993,2,0,P|24:241|61:148,1,153.000002918243
135,130,10467,5,2,0:0:0:0:
317,131,10783,6,0,B|250:112|245:163|159:127,1,153.000002918243,0|2,0:0|0:0,0:0:0:0:
411,84,11256,2,0,B|434:124|434:124|386:240,1,153.000002918243
363,310,11730,2,0,P|370:328|375:347,1,38.2500007295609,2|0,0:0|0:0,0:0:0:0:
272,281,11888,2,0,P|265:263|261:245,1,38.2500007295609
271,360,12046,6,0,B|216:353|199:308|199:308|134:305|116:251,1,180,4|8,0:0|0:0,0:0:0:0:
142,156,12519,1,0,0:0:0:0:
209,109,12677,2,0,P|224:163|194:219,1,90
174,38,12993,2,0,P|224:31|272:58,1,90,8|0,0:0|0:0,0:0:0:0:
424,225,13309,6,0,L|231:203,1,180,0|8,0:0|0:0,0:0:0:0:
459,149,13783,2,0,P|499:184|457:305,1,180
360,290,14256,1,8,0:0:0:0:
442,158,14414,1,0,0:0:0:0:
398,367,14572,6,0,L|213:352,1,180,0|8,0:0|0:0,0:0:0:0:
115,296,15046,2,0,P|70:253|26:250,2,90
204,229,15519,1,8,0:0:0:0:
37,331,15677,1,0,0:0:0:0:
73,130,15835,1,0,0:0:0:0:
299,235,15993,5,8,0:0:0:0:
250,230,16072,1,8,0:0:0:0:
204,229,16151,1,8,0:0:0:0:
283,108,16309,1,8,0:0:0:0:
368,292,16467,1,8,0:0:0:0:
471,110,16625,1,8,0:0:0:0:
284,290,16783,1,8,0:0:0:0:
183,103,16941,1,8,0:0:0:0:
368,292,17098,6,0,P|329:359|222:349,1,180,0|8,0:0|0:0,0:0:0:0:
441,228,17572,2,0,L|452:327,1,90
347,143,17888,1,0,0:0:0:0:
420,87,18046,1,8,0:0:0:0:
247,195,18204,2,0,P|169:191|140:167,1,90
219,117,18519,5,0,0:0:0:0:
209,303,18677,1,8,0:0:0:0:
202,113,18835,2,0,B|154:113|128:66|128:66|49:117|47:152,1,180
127,68,19309,5,8,0:0:0:0:
207,19,19467,1,0,0:0:0:0:
264,225,19625,5,0,0:0:0:0:
244,255,19783,1,0,0:0:0:0:
223,284,19941,1,8,0:0:0:0:
357,284,20098,5,0,0:0:0:0:
355,301,20256,1,0,0:0:0:0:
352,318,20414,1,0,0:0:0:0:
445,217,20572,5,8,0:0:0:0:
446,208,20730,1,0,0:0:0:0:
445,201,20888,2,0,B|408:164|400:124|400:124|348:145|290:130,1,202.500007724762
286,130,21441,1,2,0:0:0:0:
282,129,21519,1,2,0:0:0:0:
286,130,22151,5,0,0:0:0:0:
286,130,22467,5,2,0:0:0:0:
199,94,22625,1,0,0:0:0:0:
374,90,22783,2,0,B|404:120|404:120|411:160|387:202,1,116.999994644165,0|2,0:0|0:0,0:0:0:0:
352,276,23256,1,0,0:0:0:0:
259,282,23414,2,0,L|183:247,1,58.4999973220826
417,339,23730,2,0,L|493:374,1,58.4999973220826,2|0,0:0|0:0,0:0:0:0:
315,355,24046,5,0,0:0:0:0:
271,280,24204,1,0,0:0:0:0:
336,211,24362,1,2,0:0:0:0:
423,258,24519,1,0,0:0:0:0:
407,338,24677,5,0,0:0:0:0:
266,287,24993,5,2,0:0:0:0:
167,339,25151,1,0,0:0:0:0:
167,339,25309,2,0,P|109:311|96:264,1,116.999994644165,0|2,0:0|0:0,0:0:0:0:
119,171,25783,1,0,0:0:0:0:
198,228,25941,5,0,0:0:0:0:
129,156,26098,1,0,0:0:0:0:
101,254,26256,1,2,0:0:0:0:
213,234,26414,1,0,0:0:0:0:
14,270,26572,6,0,L|26:200,1,58.4999973220826
228,145,26888,2,0,L|205:77,1,58.4999973220826,2|0,0:0|0:0,0:0:0:0:
102,45,27204,5,0,0:0:0:0:
102,45,27519,5,2,0:0:0:0:
201,84,27677,1,0,0:0:0:0:
116,171,27835,2,0,B|96:215|117:267|117:267|157:259,1,116.999994644165,0|2,0:0|0:0,0:0:0:0:
320,227,28309,2,0,P|247:198|200:211,1,116.999994644165
365,295,28783,6,0,P|391:269|401:232,1,58.4999973220826,2|0,0:0|0:0,0:0:0:0:
323,80,29098,2,0,L|329:143,1,58.4999973220826
480,304,29414,2,0,L|474:241,1,58.4999973220826,2|0,0:0|0:0,0:0:0:0:
326,144,29730,2,0,B|266:157|250:190|250:190|274:226,1,116.999994644165,0|2,0:0|0:0,0:0:0:0:
455,157,30204,2,0,L|407:24,1,116.999994644165
414,225,30677,2,0,P|463:237|485:233,1,58.4999973220826,2|0,0:0|0:0,0:0:0:0:
263,219,30993,2,0,L|216:257,1,58.4999973220826
101,270,31309,5,2,0:0:0:0:
154,177,31467,1,0,0:0:0:0:
221,264,31625,1,0,0:0:0:0:
89,273,31783,1,0,0:0:0:0:
152,165,31941,1,2,0:0:0:0:
229,267,32098,1,0,0:0:0:0:
231,268,32177,1,0,0:0:0:0:
233,269,32256,6,0,P|277:314|350:310,1,116.999994644165,0|2,0:0|0:0,0:0:0:0:
360,135,32730,1,0,0:0:0:0:
360,135,32888,2,0,L|310:243,1,116.999994644165,0|2,0:0|0:0,0:0:0:0:
204,170,33362,1,0,0:0:0:0:
108,227,33519,2,0,L|134:306,1,58.4999973220826
125,151,33835,2,0,P|87:151|53:179,1,58.4999973220826,2|0,0:0|0:0,0:0:0:0:
114,357,34151,2,0,P|152:357|186:329,1,58.4999973220826
306,244,34467,2,0,P|268:244|234:272,1,58.4999973220826,2|0,0:0|0:0,0:0:0:0:
389,344,34783,5,0,0:0:0:0:
396,137,35098,5,2,0:0:0:0:
308,185,35414,1,0,0:0:0:0:
308,185,35572,2,0,P|305:218|307:258,1,58.4999973220826,0|2,0:0|0:0,0:0:0:0:
312,93,35888,5,0,0:0:0:0:
213,75,36046,2,0,P|171:94|144:123,1,58.4999973220826
396,137,36362,2,0,P|438:118|465:89,1,58.4999973220826,2|0,0:0|0:0,0:0:0:0:
312,93,36677,1,0,0:0:0:0:
211,77,36835,1,0,0:0:0:0:
321,60,36993,1,2,0:0:0:0:
222,37,37151,1,0,0:0:0:0:
431,53,37309,5,0,0:0:0:0:
431,53,37625,6,0,B|460:76|460:76|448:179,1,116.999994644165,2|0,0:0|0:0,0:0:0:0:
336,270,38256,1,2,0:0:0:0:
336,270,38414,2,0,P|412:270|455:313,1,116.999994644165
286,333,38888,2,0,P|261:304|258:273,1,58.4999973220826,2|0,0:0|0:0,0:0:0:0:
311,118,39204,2,0,L|308:203,1,58.4999973220826
154,277,39519,2,0,L|160:207,1,58.4999973220826,2|0,0:0|0:0,0:0:0:0:
173,354,39835,6,0,P|118:352|79:297,1,116.999994644165,0|2,0:0|0:0,0:0:0:0:
70,143,40309,1,0,0:0:0:0:
70,143,40467,2,0,L|26:255,1,116.999994644165,0|2,0:0|0:0,0:0:0:0:
169,125,40941,2,0,L|234:155,1,58.4999973220826
91,49,41256,5,2,0:0:0:0:
115,241,41414,1,2,0:0:0:0:
242,58,41572,1,2,0:0:0:0:
244,236,41730,1,2,0:0:0:0:
70,143,41888,1,2,0:0:0:0:
222,149,42046,1,2,0:0:0:0:
162,13,42204,1,2,0:0:0:0:
309,167,42362,6,0,P|366:135|369:34,1,153.000002918243,0|8,0:0|0:0,0:0:0:0:
297,81,42835,2,0,L|438:170,1,153.000002918243
255,305,43309,1,8,0:0:0:0:
299,185,43467,1,8,0:0:0:0:
233,312,43625,2,0,L|134:331,1,76.5000014591217
379,272,43941,2,0,L|480:312,1,76.5000014591217,8|0,0:0|0:0,0:0:0:0:
313,183,44256,5,0,0:0:0:0:
193,193,44414,1,0,0:0:0:0:
379,272,44572,1,8,0:0:0:0:
355,86,44730,1,0,0:0:0:0:
188,202,44888,6,0,B|160:234|160:234|16:206,1,153.000002918243,0|8,0:0|0:0,0:0:0:0:
183,86,45362,2,0,B|223:78|223:78|274:97,1,76.5000014591217
355,86,45677,1,0,0:0:0:0:
392,251,45835,1,8,0:0:0:0:
303,254,45993,2,0,L|296:353,1,76.5000014591217
392,160,46309,5,0,0:0:0:0:
392,160,46388,1,0,0:0:0:0:
392,160,46467,1,8,0:0:0:0:
269,176,46625,1,10,0:0:0:0:
460,66,46783,1,10,0:0:0:0:
385,280,46941,1,10,0:0:0:0:
360,50,47098,1,10,0:0:0:0:
509,192,47256,1,10,0:0:0:0:
259,180,47414,6,0,B|205:161|169:203|111:167,1,135.000005149842,4|8,0:0|0:0,0:0:0:0:
71,109,47888,1,0,0:0:0:0:
96,268,48046,2,0,L|79:335,1,67.5000025749208
202,283,48362,2,0,L|185:365,1,67.5000025749208,8|0,0:0|0:0,0:0:0:0:
296,280,48677,1,0,0:0:0:0:
244,206,48835,1,0,0:0:0:0:
339,355,48993,6,0,P|375:308|379:276,1,67.5000025749208,8|0,0:0|0:0,0:0:0:0:
407,207,49309,1,0,0:0:0:0:
249,190,49467,1,0,0:0:0:0:
437,188,49625,1,8,0:0:0:0:
275,162,49783,1,0,0:0:0:0:
438,104,49941,5,0,0:0:0:0:
438,104,50256,2,0,L|351:123,1,67.5000025749208,8|0,0:0|0:0,0:0:0:0:
298,76,50572,2,0,L|209:98,1,67.5000025749208
173,34,50888,1,8,0:0:0:0:
149,114,51046,1,0,0:0:0:0:
82,273,51204,5,0,0:0:0:0:
82,273,51362,2,0,P|140:275|163:262,1,67.5000025749208,0|8,0:0|0:0,0:0:0:0:
269,199,51677,2,0,P|211:197|188:210,1,67.5000025749208,0|8,0:0|0:0,0:0:0:0:
306,278,51993,2,0,P|364:280|387:267,1,67.5000025749208,0|8,0:0|0:0,0:0:0:0:
438,123,52309,5,0,0:0:0:0:
438,123,52388,1,0,0:0:0:0:
438,123,52467,2,0,L|451:238,1,85.4999977169037
365,28,52783,1,8,0:0:0:0:
465,35,52941,1,0,0:0:0:0:
301,137,53098,2,0,B|260:152|260:152|191:134,1,85.4999977169037
278,47,53414,1,8,0:0:0:0:
322,232,53572,1,0,0:0:0:0:
219,142,53730,1,0,0:0:0:0:
228,301,53888,1,0,0:0:0:0:
382,347,54046,6,0,L|293:346,1,85.4999977169037,8|0,0:0|0:0,0:0:0:0:
128,291,54362,2,0,L|250:304,1,85.4999977169037
42,177,54677,1,8,0:0:0:0:
162,131,54835,1,0,0:0:0:0:
162,131,54993,2,0,P|224:130|164:70,1,170.999995433807,0|8,0:0|0:0,0:0:0:0:
294,43,55467,5,8,0:0:0:0:
111,45,55625,1,8,0:0:0:0:
324,49,55783,1,8,0:0:0:0:
77,44,55941,1,8,0:0:0:0:
363,57,56098,2,0,B|408:88|421:150|298:161|296:199|365:288|477:207|357:175,1,270.000010299683
320,279,56809,2,0,P|382:299|458:266,1,135,4|0,0:0|0:0,0:0:0:0:
201,179,57204,5,8,0:0:0:0:
193,214,57283,1,0,0:0:0:0:
186,249,57362,1,0,0:0:0:0:
178,284,57441,1,0,0:0:0:0:
119,330,57519,6,0,P|176:361|238:330,1,99.0000030212403
201,179,57835,1,8,0:0:0:0:
142,73,57993,1,0,0:0:0:0:
180,62,58072,1,0,0:0:0:0:
219,64,58151,1,0,0:0:0:0:
319,120,58309,5,0,0:0:0:0:
71,32,58467,1,8,0:0:0:0:
71,32,58625,2,0,P|60:95|93:138,1,99.0000030212403
319,120,58941,1,0,0:0:0:0:
319,120,59098,2,0,L|196:135,1,99.0000030212403,10|0,0:0|0:0,0:0:0:0:
53,244,59414,2,0,L|169:229,1,99.0000030212403,2|0,0:0|0:0,0:0:0:0:
275,341,59730,2,0,L|254:228,1,99.0000030212403,10|0,0:0|0:0,0:0:0:0:
149,141,60046,5,0,0:0:0:0:
256,241,60204,1,0,0:0:0:0:
407,200,60362,2,0,L|293:175,1,99.0000030212403,8|0,0:0|0:0,0:0:0:0:
486,172,60677,1,0,0:0:0:0:
488,211,60756,1,0,0:0:0:0:
481,250,60835,1,0,0:0:0:0:
309,179,60993,5,8,0:0:0:0:
442,93,61151,1,0,0:0:0:0:
481,250,61309,1,0,0:0:0:0:
269,106,61467,1,0,0:0:0:0:
269,106,61625,2,0,P|228:159|241:222,1,99.0000030212403,10|0,0:0|0:0,0:0:0:0:
440,354,61941,2,0,P|481:301|468:238,1,99.0000030212403,2|0,0:0|0:0,0:0:0:0:
191,316,62256,2,0,L|321:307,1,99.0000030212403,8|0,0:0|0:0,0:0:0:0:
175,239,62572,6,0,B|122:254|115:308|115:308|80:264|9:252,1,198.000006042481,0|8,0:0|0:0,0:0:0:0:
85,132,63046,2,0,L|112:78,2,49.5000015106202
173,142,63362,1,0,0:0:0:0:
30,256,63519,2,0,L|11:373,2,99.0000030212403,8|0|0,0:0|0:0|0:0,0:0:0:0:
173,142,63993,5,10,0:0:0:0:
200,152,64151,1,8,0:0:0:0:
263,268,64309,5,2,0:0:0:0:
292,265,64467,1,0,0:0:0:0:
380,152,64625,5,2,0:0:0:0:
406,165,64783,1,8,0:0:0:0:
229,346,64941,5,0,0:0:0:0:
229,346,65098,2,0,B|161:329|147:252|147:252|110:277|48:249,1,198.000006042481,4|8,0:0|0:0,0:0:0:0:
9,342,65572,1,0,0:0:0:0:
50,197,65730,2,0,P|135:206|136:317,1,198.000006042481,4|8,0:0|0:0,0:0:0:0:
87,262,66204,1,0,0:0:0:0:
239,311,66362,2,0,B|257:235|220:169|220:169|283:216,1,198.000006042481,4|8,0:0|0:0,0:0:0:0:
350,263,66835,1,0,0:0:0:0:
263,108,66993,2,0,B|234:89|234:89|147:107,1,99.0000030212403
340,73,67309,1,8,0:0:0:0:
340,73,67625,6,0,B|407:134|407:134|454:99|520:139,1,198.000006042481,0|8,0:0|0:0,0:0:0:0:
422,35,68098,1,0,0:0:0:0:
457,192,68256,2,0,B|492:206|492:206|464:290|356:303,1,198.000006042481,0|8,0:0|0:0,0:0:0:0:
328,180,68730,1,0,0:0:0:0:
374,382,68888,2,0,P|315:357|295:311,1,99.0000030212403
328,180,69204,1,8,0:0:0:0:
165,254,69362,5,0,0:0:0:0:
76,233,69519,2,0,L|121:136,1,99.0000030212403
262,64,69835,2,0,B|309:79|309:79|387:58,2,99.0000030212403,8|0|0,0:0|0:0|0:0,0:0:0:0:
117,143,70309,1,0,0:0:0:0:
117,143,70467,2,0,L|146:259,1,99.0000030212403,8|0,0:0|0:0,0:0:0:0:
283,332,70783,2,0,L|322:217,1,99.0000030212403
232,180,71098,5,8,0:0:0:0:
393,190,71256,1,0,0:0:0:0:
206,271,71414,1,0,0:0:0:0:
407,289,71572,1,0,0:0:0:0:
316,111,71730,1,8,0:0:0:0:
140,131,71888,1,0,0:0:0:0:
149,216,72046,2,0,B|106:269|148:332,1,99.0000030212403
465,345,72362,2,0,B|508:292|466:229,1,99.0000030212403,8|0,0:0|0:0,0:0:0:0:
316,111,72677,5,0,0:0:0:0:
199,77,72835,1,0,0:0:0:0:
333,235,72993,1,8,0:0:0:0:
356,12,73151,1,0,0:0:0:0:
218,180,73309,1,0,0:0:0:0:
419,142,73467,1,0,0:0:0:0:
264,11,73625,5,8,0:0:0:0:
217,239,73783,1,0,0:0:0:0:
427,63,73941,1,0,0:0:0:0:
174,69,74098,1,0,0:0:0:0:
381,230,74256,1,8,0:0:0:0:
179,161,74414,1,0,0:0:0:0:
352,8,74572,5,0,0:0:0:0:
295,258,74730,1,0,0:0:0:0:
245,6,74888,1,8,0:0:0:0:
444,165,75046,1,0,0:0:0:0:
179,161,75204,6,0,B|137:181|137:181|116:260,1,99.0000030212403
182,309,75519,1,8,0:0:0:0:
174,71,75677,2,0,L|16:74,1,148.50000453186
25,73,75993,1,0,0:0:0:0:
179,161,76151,1,8,0:0:0:0:
228,4,76309,2,0,P|259:63|241:120,1,99.0000030212403
25,73,76625,5,0,0:0:0:0:
23,107,76704,1,0,0:0:0:0:
24,141,76783,1,8,0:0:0:0:
29,175,76862,1,0,0:0:0:0:
42,206,76941,1,0,0:0:0:0:
70,187,77019,5,0,0:0:0:0:
104,191,77098,1,0,0:0:0:0:
133,209,77177,1,0,0:0:0:0:
156,234,77256,1,0,0:0:0:0:
162,267,77335,1,0,0:0:0:0:
153,300,77414,1,8,0:0:0:0:
132,328,77493,1,0,0:0:0:0:
100,343,77572,1,0,0:0:0:0:
65,345,77651,1,0,0:0:0:0:
81,269,77730,6,0,B|131:250|180:297|249:261,1,144,4|2,0:0|0:0,0:0:0:0:
299,206,78204,1,0,0:0:0:0:
202,348,78362,2,0,P|149:302|174:215,1,144,0|2,0:0|0:0,0:0:0:0:
299,206,78835,1,0,0:0:0:0:
181,111,78993,2,0,B|267:138|299:69|299:69|329:139|431:116,1,288
424,115,79941,5,2,0:0:0:0:
424,115,80098,1,0,0:0:0:0:
432,123,80256,2,0,L|440:216,1,72
300,343,80572,1,2,0:0:0:0:
282,258,80730,2,0,P|228:229|186:237,1,72
59,138,81046,1,0,0:0:0:0:
132,85,81204,2,0,B|209:67|235:54|311:133|311:133|322:68|371:55,1,288,2|2,0:0|0:0,0:0:0:0:
356,60,82151,5,0,0:0:0:0:
413,147,82467,1,2,0:0:0:0:
317,211,82783,2,0,P|277:255|269:285,1,72
272,265,83019,1,0,0:0:0:0:
272,265,83098,1,2,0:0:0:0:
190,218,83256,1,0,0:0:0:0:
190,218,83730,5,2,0:0:0:0:
190,218,83888,2,0,L|176:122,1,72
134,292,84204,1,0,0:0:0:0:
134,292,84362,2,0,P|197:311|222:300,1,72,2|0,0:0|0:0,0:0:0:0:
232,78,84677,2,0,P|169:59|144:70,1,72
30,170,84993,2,0,L|125:177,1,72,2|0,0:0|0:0,0:0:0:0:
399,183,85309,6,0,B|358:215|306:186|306:186|251:213|169:185,2,216
400,183,87204,5,0,0:0:0:0:
400,183,87835,1,0,0:0:0:0:
400,183,89098,6,0,P|325:161|289:167,1,107.999996704102,0|2,0:0|0:0,0:0:0:0:
125,283,89729,2,0,P|200:305|236:299,1,107.999996704102,0|2,0:0|0:0,0:0:0:0:
120,63,90362,2,0,B|57:72|24:186|24:186|73:162|136:205,1,269.999991760254
249,292,91625,2,0,B|289:252|270:166|270:166|428:258|465:85,1,377.999988464356
256,192,92809,12,0,95414,0:0:0:0:
