osu file format v14

[General]
AudioFilename: audio.mp3
AudioLeadIn: 0
PreviewTime: 86126
Countdown: 0
SampleSet: Soft
StackLeniency: 0.7
Mode: 0
LetterboxInBreaks: 0
WidescreenStoryboard: 1

[Editor]
Bookmarks: 34038,48214,81510,110521
DistanceSpacing: 0.4
BeatDivisor: 4
GridSize: 16
TimelineZoom: 1.500003

[Metadata]
Title:Anata dake ga Shiru Sekai
TitleUnicode:あなただけが知る世界
Artist:Hotaru Murasaki
ArtistUnicode:紫咲ほたる
Creator:subahibi
Version:sainoo's Insane
Source:TrymenT ―今を変えたいと願うあなたへ―
Tags:eroge visual novel op opening japanese video game re:tryment retryment alpha tryment last project 甘利紗陽 nikolomara nik sainoo majk00 kleune
BeatmapID:4096098
BeatmapSetID:1776799

[Difficulty]
HPDrainRate:5
CircleSize:4
OverallDifficulty:8
ApproachRate:9
SliderMultiplier:1.6
SliderTickRate:1

[Events]
//Background and Video events
0,0,"re bg.png",0,0
//Break Periods
2,76428,80903
//Storyboard Layer 0 (Background)
//Storyboard Layer 1 (Fail)
//Storyboard Layer 2 (Pass)
//Storyboard Layer 3 (Foreground)
//Storyboard Layer 4 (Overlay)
//Storyboard Sound Samples

[TimingPoints]
2383,329.67032967033,4,2,1,30,1,0
34031,-100,4,2,1,60,0,0
44580,-100,4,2,1,40,0,0
47218,-400,4,2,1,40,0,0
59745,-125,4,2,1,40,0,0
60404,-400,4,2,1,40,0,0
62383,-125,4,2,1,40,0,0
63042,-400,4,2,1,40,0,0
65679,-117.647058823529,4,2,1,60,0,0
81503,-117.647058823529,4,2,1,70,0,0
86119,-117.647058823529,4,2,1,40,0,0
88097,-400,4,2,1,40,0,0
89415,-100,4,2,1,80,0,0
90157,-100,4,2,1,5,0,0
90240,-100,4,2,1,80,0,0
91311,-100,4,2,1,5,0,0
91393,-100,4,2,1,80,0,0
102850,-100,4,2,1,5,0,0
102931,-100,4,2,1,80,0,0
104168,-100,4,2,1,5,0,0
104251,-100,4,2,1,80,0,0

[Colours]
Combo1 : 0,149,198
Combo2 : 87,150,253
Combo3 : 233,174,255

[HitObjects]
441,268,34031,6,0,L|281:282,1,160,12|8,2:0|2:0,2:0:0:0:
238,342,34525,1,4,2:3:0:0:
137,290,34690,2,0,P|133:268|123:196,1,80,4|0,2:3|2:0,2:0:0:0:
43,219,35020,2,0,P|50:196|65:140,1,80,10|0,2:0|1:0,2:0:0:0:
64,141,35267,1,0,1:0:0:0:
64,141,35350,2,0,P|119:112|244:95,1,160,10|10,1:2|2:0,2:0:0:0:
271,147,35844,1,0,2:0:0:0:
389,121,36009,2,0,P|364:152|348:189,1,80,10|0,2:0|2:0,2:0:0:0:
292,39,36339,2,0,P|330:28|363:6,1,80,10|0,2:0|1:0,2:0:0:0:
437,194,36668,6,0,P|461:226|462:356,1,160,14|8,1:2|2:0,2:0:0:0:
396,329,37163,1,0,2:0:0:0:
313,358,37328,1,8,2:0:0:0:
246,328,37492,1,0,2:0:0:0:
158,360,37657,2,0,B|151:323|151:323|156:265,1,80,10|2,2:0|2:0,2:0:0:0:
53,247,37987,6,0,P|59:206|61:107,1,120,10|0,2:0|2:0,2:0:0:0:
75,113,38317,2,0,L|90:26,1,80,10|2,2:0|2:0,2:0:0:0:
168,85,38646,1,10,2:0:0:0:
145,166,38811,1,0,2:0:0:0:
204,108,38976,2,0,P|232:116|291:133,1,80,10|0,2:0|2:0,2:0:0:0:
461,103,39306,6,0,P|424:116|323:56,1,160,12|10,2:0|2:0,2:0:0:0:
361,0,39800,1,0,2:0:0:0:
428,92,39965,2,0,P|432:115|438:172,1,80,10|0,2:0|2:0,2:0:0:0:
360,223,40295,2,0,P|367:247|381:302,1,80,10|0,2:0|1:0,2:0:0:0:
380,300,40542,1,0,1:0:0:0:
380,300,40624,2,0,P|334:319|223:305,1,160,10|10,1:2|2:0,2:0:0:0:
185,241,41119,1,0,2:0:0:0:
78,337,41284,6,0,P|74:296|65:195,1,120,10|0,2:0|2:0,2:0:0:0:
85,211,41613,2,0,L|92:123,1,80,8|0,2:0|2:0,2:0:0:0:
91,131,41861,1,0,2:0:0:0:
91,131,41943,1,10,2:0:0:0:
256,192,42025,12,8,44580,1:2:0:0:
235,199,46558,5,2,2:0:0:0:
235,199,47218,2,0,P|240:152|243:73,1,120,2|0,2:0|2:0,2:0:0:0:
234,56,48372,1,0,2:0:0:0:
154,57,48536,2,0,B|87:81|87:81|23:47,1,140,2|0,2:0|2:0,2:0:0:0:
44,147,49855,6,0,P|43:182|32:308,1,160,2|2,2:0|2:0,2:0:0:0:
180,335,51833,1,2,2:0:0:0:
180,335,52492,2,0,P|184:307|199:209,1,120,2|0,2:0|2:0,2:0:0:0:
215,204,53646,1,0,2:0:0:0:
297,227,53811,1,2,2:0:0:0:
297,227,55130,2,0,P|295:196|286:67,1,160,10|2,2:0|2:0,2:0:0:0:
340,349,57108,5,10,2:0:0:0:
340,349,57767,2,0,B|387:325|387:325|461:338,1,120,10|0,2:0|2:0,2:0:0:0:
453,336,59086,1,2,2:0:0:0:
494,271,59251,1,2,2:0:0:0:
418,203,59415,1,2,2:0:0:0:
430,99,59580,1,2,2:0:0:0:
509,165,59745,2,0,L|428:186,1,64,0|0,3:0|2:0,2:0:0:0:
447,181,59992,1,0,3:0:0:0:
447,181,60075,1,0,2:0:0:0:
344,240,60240,1,0,3:0:0:0:
306,125,60404,6,0,P|270:135|166:161,1,140,10|0,2:0|2:0,2:0:0:0:
110,119,61723,1,2,2:0:0:0:
30,86,61888,1,2,2:0:0:0:
67,18,62053,1,2,2:0:0:0:
137,44,62218,1,2,2:0:0:0:
95,127,62383,6,0,P|81:167|77:202,1,64,0|2,2:0|2:0,2:0:0:0:
56,307,62712,2,0,P|95:290|138:271,1,64,10|2,2:0|2:0,2:0:0:0:
160,192,63042,2,0,P|212:186|276:262,1,160,10|2,2:0|2:0,2:0:0:0:
246,353,65020,1,2,2:0:0:0:
246,353,65514,5,0,1:0:0:0:
280,269,65679,2,0,B|290:200|255:214|256:130,1,136.000000000001,14|0,2:0|2:0,2:0:0:0:
184,103,66174,1,0,2:0:0:0:
215,7,66339,2,0,B|292:26,1,68.0000000000002,2|0,2:0|2:0,2:0:0:0:
281,23,66586,1,0,2:0:0:0:
281,23,66668,1,0,3:0:0:0:
389,68,66833,1,8,2:0:0:0:
357,166,66998,2,0,L|344:306,1,136.000000000001,10|4,2:0|2:3,2:0:0:0:
414,327,67492,1,8,2:3:0:0:
512,209,67657,5,2,2:0:0:0:
445,167,67822,1,0,2:0:0:0:
407,232,67987,1,8,2:0:0:0:
470,274,68152,1,8,2:3:0:0:
512,186,68317,2,0,P|515:144|501:29,2,136.000000000001,14|2|2,2:0|3:2|3:2,2:0:0:0:
477,276,69141,1,4,2:3:0:0:
479,291,69223,1,4,2:3:0:0:
471,301,69306,1,4,2:3:0:0:
392,326,69470,1,0,3:0:0:0:
272,354,69635,5,2,3:2:0:0:
249,262,69800,2,0,P|260:224|281:122,1,136.000000000001,2|8,2:0|2:3,2:0:0:0:
347,65,70295,2,0,P|360:96|370:129,1,68.0000000000002,2|2,2:0|2:0,2:0:0:0:
421,40,70624,1,2,2:0:0:0:
474,99,70789,1,2,2:0:0:0:
425,203,70954,6,0,P|368:222|284:223,1,136.000000000001,14|0,2:0|2:0,2:0:0:0:
250,290,71448,1,0,2:0:0:0:
160,240,71613,1,2,2:3:0:0:
197,160,71778,1,4,2:3:0:0:
208,150,71861,1,4,2:3:0:0:
206,137,71943,1,4,2:3:0:0:
146,71,72108,1,8,2:3:0:0:
28,42,72273,6,0,B|44:110|44:110|36:207,2,136.000000000001,14|4|2,2:0|2:3|2:0,2:0:0:0:
125,107,73097,1,12,2:3:0:0:
198,44,73262,2,0,P|201:64|208:113,1,68.0000000000002,8|2,2:0|2:0,2:0:0:0:
285,41,73591,1,14,2:0:0:0:
328,105,73756,1,2,2:0:0:0:
314,189,73921,1,2,2:0:0:0:
337,266,74086,1,2,2:0:0:0:
328,339,74251,2,0,L|248:351,1,68.0000000000002,2|4,2:3|2:3,2:0:0:0:
260,349,74498,1,4,2:3:0:0:
260,349,74580,1,4,2:3:0:0:
222,274,74745,1,4,2:3:0:0:
113,367,74910,6,0,P|122:308|91:224,1,136.000000000001,12|0,2:0|2:0,2:0:0:0:
18,135,75404,1,12,2:0:0:0:
18,135,75734,2,0,P|54:85|208:53,1,204.000000000001,2|12,2:1|2:0,2:0:0:0:
140,333,81503,6,0,P|136:298|124:198,1,136.000000000001,14|4,2:0|2:3,2:0:0:0:
51,256,81998,2,0,P|45:235|33:190,1,68.0000000000002,2|0,2:0|2:0,2:0:0:0:
33,190,82328,1,8,2:0:0:0:
131,130,82492,2,0,P|127:163|124:197,1,68.0000000000002,2|0,2:0|2:0,2:0:0:0:
107,56,82822,1,8,2:0:0:0:
210,226,82987,2,0,P|215:199|237:93,1,136.000000000001,2|0,2:0|2:0,2:0:0:0:
385,107,83481,1,2,2:0:0:0:
303,164,83646,1,8,2:0:0:0:
361,261,83811,2,0,P|356:281|340:355,1,68.0000000000002,8|8,2:3|2:3,2:0:0:0:
345,328,84058,1,8,2:3:0:0:
345,328,84141,1,14,2:0:0:0:
256,192,84223,12,2,86119,2:0:0:0:
256,192,86778,5,2,2:0:0:0:
256,192,87932,1,2,2:0:0:0:
256,192,88097,2,0,P|257:162|261:67,1,120,2|2,2:0|2:0,2:0:0:0:
81,29,89251,5,4,2:3:0:0:
81,29,89333,1,4,2:3:0:0:
81,29,89415,2,0,B|121:95|121:95|61:178,1,160,14|0,2:0|2:0,2:0:0:0:
39,245,89910,2,0,P|93:234|168:219,1,120,0|0,2:0|2:0,2:0:0:0:
186,255,90240,5,0,2:0:0:0:
312,292,90404,1,2,2:0:0:0:
292,153,90569,1,10,2:0:0:0:
337,304,90734,2,0,P|332:351|324:411,1,80,10|0,2:0|2:0,2:0:0:0:
457,241,91064,2,0,P|462:219|477:105,1,120,2|0,2:0|2:0,2:0:0:0:
457,107,91393,2,0,B|437:72|437:72|473:51,1,80,2|0,2:0|2:0,2:0:0:0:
357,162,91723,5,8,2:0:0:0:
357,162,91806,1,0,1:0:0:0:
357,162,91888,1,0,1:0:0:0:
357,162,91970,1,0,1:0:0:0:
357,162,92053,2,0,L|192:188,1,160,14|0,2:0|2:0,2:0:0:0:
210,93,92547,1,0,2:0:0:0:
128,34,92712,2,0,P|166:24|205:14,1,80,0|0,2:0|2:0,2:0:0:0:
65,86,93042,1,2,2:0:0:0:
28,197,93207,6,0,P|34:245|49:286,1,80,10|10,2:0|2:0,2:0:0:0:
206,316,93536,1,2,2:0:0:0:
125,227,93701,1,2,2:0:0:0:
184,346,93866,2,0,P|261:353|319:301,1,160,2|0,2:0|2:0,2:0:0:0:
319,301,94278,1,0,2:0:0:0:
319,301,94361,1,8,2:0:0:0:
436,214,94525,1,0,1:0:0:0:
288,159,94690,6,0,P|293:117|297:-3,1,160,14|0,2:0|2:0,2:0:0:0:
417,42,95185,1,2,2:0:0:0:
417,42,95267,1,0,2:0:0:0:
417,42,95350,2,0,L|409:128,1,80,0|0,2:0|2:0,2:0:0:0:
498,75,95679,1,2,2:0:0:0:
472,217,95844,1,10,2:0:0:0:
428,152,96009,5,10,2:0:0:0:
399,243,96174,1,0,2:0:0:0:
491,304,96339,1,2,2:0:0:0:
432,384,96503,1,0,2:0:0:0:
432,384,96586,1,0,2:0:0:0:
432,384,96668,2,0,L|342:361,1,80,0|0,2:0|2:0,2:0:0:0:
191,312,96998,1,8,2:0:0:0:
191,312,97328,5,10,2:0:0:0:
250,216,97492,1,10,2:0:0:0:
135,132,97657,1,0,2:0:0:0:
59,236,97822,1,2,2:0:0:0:
134,224,97987,5,2,2:0:0:0:
102,126,98152,1,10,2:0:0:0:
226,13,98317,2,0,B|247:50|247:50|239:86,1,80,6|2,2:0|2:0,2:0:0:0:
43,80,98646,1,10,2:3:0:0:
227,177,98811,1,4,2:3:0:0:
227,177,98893,1,4,2:3:0:0:
227,177,98976,1,8,2:3:0:0:
65,282,99141,1,10,2:3:0:0:
120,175,99306,5,4,2:3:0:0:
229,264,99470,1,2,2:3:0:0:
352,230,99635,1,8,2:0:0:0:
450,279,99800,1,0,1:0:0:0:
392,344,99965,6,0,P|332:353|274:367,1,120,12|0,2:0|2:0,2:0:0:0:
245,349,100295,2,0,L|166:330,1,80,0|0,1:2|1:2,2:0:0:0:
167,330,100542,1,0,1:0:0:0:
167,330,100624,1,0,1:0:0:0:
65,335,100789,1,8,2:0:0:0:
141,220,100954,1,10,2:3:0:0:
41,169,101119,1,10,2:0:0:0:
141,220,101284,2,0,P|204:215|298:147,1,160,10|2,2:3|1:2,2:0:0:0:
247,13,101778,1,0,1:2:0:0:
215,127,101943,1,2,1:2:0:0:
319,67,102108,1,8,2:0:0:0:
408,216,102273,2,0,B|403:175|403:175|381:143,1,80,2|8,1:2|2:0,2:0:0:0:
381,143,102520,1,0,2:0:0:0:
381,143,102602,6,0,P|346:214|336:293,1,160,14|2,2:0|1:2,2:0:0:0:
242,304,103097,1,0,1:0:0:0:
386,354,103262,2,0,P|364:362|295:380,1,80,2|8,1:2|2:0,2:0:0:0:
157,287,103591,1,2,1:2:0:0:
209,384,103756,1,10,1:2:0:0:
234,226,103921,2,0,P|241:137|244:91,1,120,10|0,1:2|2:0,2:0:0:0:
215,77,104251,2,0,L|138:55,1,80,2|0,1:2|1:0,2:0:0:0:
312,40,104580,1,2,1:2:0:0:
414,98,104745,1,8,2:0:0:0:
312,169,104910,1,2,1:2:0:0:
213,283,105075,1,10,2:3:0:0:
295,259,105240,6,0,B|370:261|356:323|472:324,1,160,14|8,2:0|2:0,2:0:0:0:
416,224,105734,1,0,2:0:0:0:
481,156,105899,2,0,P|488:178|511:236,1,80,8|0,2:0|2:0,2:0:0:0:
350,148,106229,2,0,P|341:132|314:69,1,80,10|2,2:0|2:0,2:0:0:0:
400,77,106558,1,10,2:0:0:0:
412,210,106723,2,0,P|364:225|251:227,1,160,0|0,2:0|3:0,2:0:0:0:
471,357,107218,6,0,L|393:340,1,80,14|0,2:0|3:0,2:0:0:0:
214,308,107547,1,10,2:0:0:0:
214,308,107630,1,0,1:0:0:0:
214,308,107712,1,2,1:2:0:0:
214,308,107795,1,0,1:0:0:0:
214,308,107877,2,0,P|136:312|54:307,1,160,14|8,2:0|2:0,2:0:0:0:
62,219,108372,1,0,1:0:0:0:
128,117,108536,2,0,B|145:208,1,80,14|0,2:0|1:0,2:0:0:0:
26,106,108866,2,0,B|11:27,1,80,8|0,2:0|1:0,2:0:0:0:
11,27,109113,1,0,1:0:0:0:
11,27,109196,1,14,2:0:0:0:
192,69,109361,5,0,1:0:0:0:
192,69,109443,1,0,1:0:0:0:
192,69,109525,1,8,2:0:0:0:
99,163,109690,1,0,1:0:0:0:
205,297,109855,1,14,2:0:0:0:
30,244,110020,1,0,1:0:0:0:
30,244,110102,1,0,1:0:0:0:
30,244,110185,1,8,2:0:0:0:
193,161,110350,1,0,1:0:0:0:
325,206,110514,1,14,2:0:0:0:
