osu file format v14

[General]
AudioFilename: audio.mp3
AudioLeadIn: 0
PreviewTime: 86126
Countdown: 0
SampleSet: Soft
StackLeniency: 0.7
Mode: 0
LetterboxInBreaks: 0
WidescreenStoryboard: 1

[Editor]
DistanceSpacing: 1
BeatDivisor: 4
GridSize: 16
TimelineZoom: 1.500003

[Metadata]
Title:Anata dake ga Shiru Sekai
TitleUnicode:あなただけが知る世界
Artist:Hotaru Murasaki
ArtistUnicode:紫咲ほたる
Creator:subahibi
Version:nik's Normal
Source:TrymenT ―今を変えたいと願うあなたへ―
Tags:eroge visual novel op opening japanese video game re:tryment retryment alpha tryment last project 甘利紗陽 nikolomara nik sainoo majk00 kleune
BeatmapID:4096125
BeatmapSetID:1776799

[Difficulty]
HPDrainRate:3
CircleSize:3.4
OverallDifficulty:3.5
ApproachRate:5.2
SliderMultiplier:1.02
SliderTickRate:2

[Events]
//Background and Video events
0,0,"re bg.png",0,0
//Break Periods
2,76435,79981
//Storyboard Layer 0 (Background)
//Storyboard Layer 1 (Fail)
//Storyboard Layer 2 (Pass)
//Storyboard Layer 3 (Foreground)
//Storyboard Layer 4 (Overlay)
//Storyboard Sound Samples

[TimingPoints]
2383,329.67032967033,4,2,1,30,1,0
12932,-100,4,2,1,50,0,0
23481,-100,4,2,1,60,0,0
44580,-166.666666666667,4,2,1,40,0,0
65679,-125,4,2,1,60,0,0
81503,-125,4,2,1,70,0,0
86119,-166.666666666667,4,2,1,40,0,0
89415,-100,4,2,1,80,0,1
110514,-100,4,2,1,80,0,0

[Colours]
Combo1 : 0,149,198
Combo2 : 87,150,253
Combo3 : 233,174,255

[HitObjects]
0,278,34031,6,0,P|55:274|214:314,1,204,12|4,2:0|2:3,2:0:0:0:
300,354,35020,1,10,2:0:0:0:
300,354,35185,1,0,1:0:0:0:
300,354,35350,1,10,1:2:0:0:
383,295,35679,2,0,P|388:236|401:179,1,102,10|10,2:0|2:0,2:0:0:0:
494,160,36339,1,10,2:0:0:0:
500,261,36668,6,0,B|462:259|434:237|434:237|358:252|299:213,1,204,14|8,1:2|2:0,2:0:0:0:
221,160,37657,1,10,2:0:0:0:
154,237,37987,2,0,P|133:298|126:353,1,102,10|10,2:0|2:0,2:0:0:0:
29,362,38646,2,0,P|20:309|3:261,1,102,10|10,2:0|2:0,2:0:0:0:
28,163,39306,6,0,B|26:101|61:59|61:59|100:86|166:76,1,204,12|10,2:0|2:0,2:0:0:0:
235,22,40295,1,10,2:0:0:0:
330,56,40624,2,0,P|369:30|433:35,1,102,10|10,1:2|2:0,2:0:0:0:
495,103,41284,1,10,2:0:0:0:
452,195,41613,1,8,2:0:0:0:
256,192,41943,12,10,43921,2:0:0:0:
380,135,44580,6,0,B|291:127|134:188|134:188|87:158|15:162,1,367.199999999999,8|2,1:2|2:0,2:0:0:0:
83,335,47218,2,0,P|105:253|121:85,1,244.8,2|2,2:0|2:0,2:0:0:0:
121,94,49690,5,0,2:0:0:0:
121,94,49855,2,0,P|162:84|191:236,1,244.8,2|2,2:0|2:0,2:0:0:0:
81,369,51833,1,2,2:0:0:0:
5,201,52492,2,0,P|59:183|140:190,1,122.4,2|0,2:0|0:0,2:0:0:0:
197,240,53481,1,0,2:0:0:0:
197,240,53646,2,0,P|273:234|346:254,1,153,0|0,2:0|2:0,0:0:0:0:
487,372,55130,6,0,P|512:310|425:221,1,183.6,10|0,2:0|2:0,0:0:0:0:
371,276,56448,2,0,P|342:289|307:295,1,61.1999999999999,2|0,2:0|0:0,2:0:0:0:
242,235,57108,1,10,2:0:0:0:
242,235,57273,2,0,P|248:205|260:177,1,61.1999999999999,8|0,2:0|2:0,2:0:0:0:
302,172,57767,6,0,P|352:176|421:114,1,122.4,10|0,2:0|2:0,0:0:0:0:
438,56,58756,1,0,2:0:0:0:
438,56,58921,2,0,P|404:40|373:32,1,61.1999999999999,0|2,2:0|2:0,0:0:0:0:
341,52,59415,1,2,2:0:0:0:
341,52,59580,1,2,2:0:0:0:
214,92,60075,1,0,0:0:0:0:
214,92,60240,1,0,3:0:0:0:
214,92,60404,2,0,P|177:70|27:43,1,183.6,10|0,2:0|2:0,0:0:0:0:
12,122,61723,6,0,P|25:138|40:209,1,91.7999999999998,2|2,2:0|2:0,0:0:0:0:
19,243,62383,2,0,B|-2:283|-2:283|13:341,1,91.7999999999998,0|2,2:0|2:0,0:0:0:0:
44,353,63042,2,0,P|148:326|130:202,1,244.8,10|2,2:0|2:0,0:0:0:0:
159,378,65020,1,2,2:0:0:0:
236,299,65514,5,0,1:0:0:0:
236,299,65679,2,0,P|289:301|324:310,1,81.6,14|0,2:0|2:0,2:0:0:0:
391,371,66339,2,0,P|438:356|469:329,1,81.6,2|0,2:0|3:0,0:0:0:0:
481,297,66833,1,8,2:0:0:0:
481,297,66998,2,0,L|465:208,1,81.6,10|4,2:0|2:3,0:0:0:0:
382,165,67657,2,0,L|367:245,1,81.6,2|8,2:0|2:0,0:0:0:0:
342,289,68152,1,8,2:3:0:0:
342,289,68317,6,0,P|260:280|206:140,1,244.8,14|4,2:0|2:3,0:0:0:0:
250,122,69470,1,0,3:0:0:0:
250,122,69635,2,0,L|264:42,1,81.6,2|0,3:2|2:0,0:0:0:0:
165,39,70295,2,0,L|158:0,2,40.8,2|2|2,2:0|2:0|2:0,0:0:0:0:
141,82,70789,1,2,2:0:0:0:
141,82,70954,6,0,P|77:109|15:49,1,163.2,14|2,2:0|2:3,0:0:0:0:
17,201,72108,1,8,2:3:0:0:
17,201,72273,2,0,L|32:294,1,81.6,14|4,2:0|2:3,0:0:0:0:
108,340,72932,1,2,2:0:0:0:
198,294,73262,1,8,2:0:0:0:
198,294,73426,1,2,2:0:0:0:
198,294,73591,6,0,L|213:387,2,81.6,14|2|2,2:0|2:0|2:3,0:0:0:0:
288,249,74580,1,4,2:3:0:0:
288,249,74745,1,4,2:3:0:0:
288,249,74910,2,0,L|305:156,1,81.6,12|0,2:0|0:0,2:0:0:0:
282,124,75404,1,12,2:0:0:0:
184,132,75734,2,0,P|122:133|103:68,1,122.4,2|12,2:1|2:0,2:0:0:0:
501,195,81174,5,2,2:0:0:0:
501,195,81339,1,0,2:0:0:0:
501,195,81503,2,0,B|462:255|462:255|456:360,1,163.2,14|0,2:0|0:0,2:0:0:0:
357,308,82492,1,2,2:0:0:0:
357,308,82657,2,0,L|223:336,1,122.4
144,280,83481,1,2,2:0:0:0:
71,357,83811,1,8,2:3:0:0:
71,357,83976,1,8,2:3:0:0:
71,357,84141,2,0,B|18:247|18:247|74:39,1,326.4,14|0,2:0|0:0,0:0:0:0:
71,49,86119,6,0,P|125:69|171:124,1,122.4,2|2,2:0|2:0,2:0:0:0:
488,29,89415,6,0,P|440:45|414:88,1,102,14|0,2:0|2:0,2:0:0:0:
434,134,89910,1,0,2:0:0:0:
481,224,90240,2,0,L|488:278,1,51,0|2,2:0|2:0,0:0:0:0:
477,324,90569,1,10,2:0:0:0:
427,334,90734,1,10,2:0:0:0:
328,360,91064,2,0,P|273:345|231:315,1,102,2|2,2:0|2:0,0:0:0:0:
134,325,91723,1,8,2:0:0:0:
42,280,92053,6,0,P|14:321|7:390,2,102,14|0|0,2:0|2:0|2:0,0:0:0:0:
132,223,93042,1,2,2:0:0:0:
156,130,93372,2,0,P|144:55|113:24,1,102,10|2,2:0|2:0,0:0:0:0:
78,25,93866,1,2,2:0:0:0:
5,159,94361,1,8,2:0:0:0:
2,210,94525,1,0,1:0:0:0:
34,249,94690,6,0,P|95:232|147:221,1,102,14|0,2:0|2:0,2:0:0:0:
162,182,95185,2,0,P|218:203|241:264,1,102,2|0,2:0|2:0,2:0:0:0:
228,287,95679,1,2,2:0:0:0:
315,339,96009,6,0,P|384:307|437:288,1,102,10|2,2:0|2:0,2:0:0:0:
459,300,96503,2,0,P|498:237|476:189,1,102,0|0,0:0|2:0,0:0:0:0:
458,165,96998,1,8,2:0:0:0:
481,65,97328,6,0,B|436:38|436:38|364:40,1,102,10|0,2:0|2:0,0:0:0:0:
347,72,97822,1,2,2:0:0:0:
296,67,97987,1,2,2:0:0:0:
211,10,98317,1,6,2:0:0:0:
117,50,98646,2,0,B|99:109|99:109|57:133,1,102,10|8,2:3|2:3,0:0:0:0:
11,128,99141,1,10,2:3:0:0:
3,26,99470,1,2,2:3:0:0:
86,154,99965,6,0,P|142:152|188:136,1,102,12|0,2:0|1:2,2:0:0:0:
225,169,100459,1,0,1:2:0:0:
311,114,100789,1,8,2:0:0:0:
358,133,100954,1,10,2:3:0:0:
452,94,101284,6,0,P|479:30|489:-2,2,102,10|2|2,2:3|1:2|1:2,2:0:0:0:
504,181,102273,1,2,1:2:0:0:
433,254,102602,6,0,P|386:248|340:213,1,102,14|2,2:0|1:2,2:0:0:0:
301,185,103097,2,0,P|241:223|264:290,1,153,0|2,1:0|1:2,0:0:0:0:
348,349,103921,5,10,1:2:0:0:
428,285,104251,1,2,1:2:0:0:
419,236,104415,1,0,1:0:0:0:
363,150,104745,1,8,2:0:0:0:
372,101,104910,1,2,1:2:0:0:
461,50,105240,6,0,L|483:150,1,102,14|8,2:0|2:0,2:0:0:0:
418,228,105899,2,0,L|397:328,1,102,8|10,2:0|2:0,2:0:0:0:
303,368,106558,1,10,2:0:0:0:
205,337,106888,1,10,2:0:0:0:
170,375,107053,2,0,P|118:375|67:382,1,102,0|0,3:0|3:0,0:0:0:0:
34,345,107547,2,0,P|41:268|56:210,1,102,10|14,2:0|2:0,0:0:0:0:
113,167,108207,5,8,2:0:0:0:
198,222,108536,1,14,2:0:0:0:
291,180,108866,1,8,2:0:0:0:
374,239,109196,2,0,P|447:234|479:216,1,102,14|8,2:0|2:0,2:0:0:0:
506,184,109690,1,0,1:0:0:0:
506,184,109855,2,0,P|489:125|488:66,1,102,14|8,2:0|2:0,2:0:0:0:
418,8,110514,1,14,2:0:0:0:
