osu file format v14

[General]
AudioFilename: audio.mp3
AudioLeadIn: 0
PreviewTime: 86126
Countdown: 0
SampleSet: Soft
StackLeniency: 0.7
Mode: 0
LetterboxInBreaks: 0
WidescreenStoryboard: 1

[Editor]
Bookmarks: 23488,34038
DistanceSpacing: 0.4
BeatDivisor: 4
GridSize: 16
TimelineZoom: 1.500003

[Metadata]
Title:Anata dake ga Shiru Sekai
TitleUnicode:あなただけが知る世界
Artist:Hotaru Murasaki
ArtistUnicode:紫咲ほたる
Creator:subahibi
Version:Serenity
Source:TrymenT ―今を変えたいと願うあなたへ―
Tags:eroge visual novel op opening japanese video game re:tryment retryment alpha tryment last project 甘利紗陽 nikolomara nik sainoo majk00 kleune
BeatmapID:4079771
BeatmapSetID:1776799

[Difficulty]
HPDrainRate:6
CircleSize:4
OverallDifficulty:8.5
ApproachRate:9
SliderMultiplier:1.82
SliderTickRate:2

[Events]
//Background and Video events
0,0,"re bg.png",0,0
//Break Periods
2,23688,33431
//Storyboard Layer 0 (Background)
//Storyboard Layer 1 (Fail)
//Storyboard Layer 2 (Pass)
//Storyboard Layer 3 (Foreground)
//Storyboard Layer 4 (Overlay)
//Storyboard Sound Samples

[TimingPoints]
2383,329.67032967033,4,2,1,30,1,0
12932,-100,4,2,1,50,0,0
23152,-200,4,2,1,50,0,0
23481,-200,4,2,1,60,0,0
34031,-111.111111111111,4,2,1,60,0,0
40871,-111.111111111111,4,2,1,5,0,0
40954,-111.111111111111,4,2,1,60,0,0
44580,-200,4,2,1,40,0,0
46393,-200,4,2,1,5,0,0
46558,-200,4,2,1,40,0,0
47052,-200,4,2,1,5,0,0
47218,-200,4,2,1,40,0,0
52327,-200,4,2,1,5,0,0
52492,-200,4,2,1,40,0,0
59745,-125,4,2,1,40,0,0
59909,-125,4,2,1,5,0,0
59992,-125,4,2,1,40,0,0
60156,-125,4,2,1,5,0,0
60240,-125,4,2,1,40,0,0
60734,-200,4,2,1,40,0,0
65679,-111.111111111111,4,2,1,60,0,0
75074,-111.111111111111,4,2,1,5,0,0
75157,-111.111111111111,4,2,1,60,0,0
75321,-111.111111111111,4,2,1,5,0,0
75404,-111.111111111111,4,2,1,60,0,0
78866,-166.666666666667,4,2,1,60,0,0
81503,-125,4,2,1,70,0,0
86119,-200,4,2,1,40,0,0
86613,-200,4,2,1,5,0,0
86778,-200,4,2,1,40,0,0
89415,-100,4,2,1,80,0,1
90981,-100,4,2,1,5,0,1
91064,-100,4,2,1,80,0,1
94278,-100,4,2,1,5,0,1
94361,-100,4,2,1,80,0,1
96256,-100,4,2,1,5,0,1
96339,-100,4,2,1,80,0,1
102849,-100,4,2,1,5,0,1
102932,-100,4,2,1,80,0,1
105487,-100,4,2,1,5,0,1
105569,-100,4,2,1,80,0,1
110514,-100,4,2,1,80,0,0

[Colours]
Combo1 : 0,149,198
Combo2 : 87,150,253
Combo3 : 233,174,255

[HitObjects]
256,192,2383,5,2,2:0:0:0:
383,112,4361,5,2,2:0:0:0:
446,257,5020,5,2,2:0:0:0:
306,341,6339,5,2,2:0:0:0:
140,191,7657,5,2,2:0:0:0:
289,133,9635,5,2,2:0:0:0:
144,55,10295,5,2,2:0:0:0:
388,0,11613,5,2,2:0:0:0:
240,271,12932,5,2,2:0:0:0:
165,301,13097,1,0,2:0:0:0:
293,330,13262,1,0,2:0:0:0:
298,336,13426,1,0,2:0:0:0:
258,194,13591,5,2,2:0:0:0:
240,271,13756,1,0,2:0:0:0:
293,330,13921,1,0,2:0:0:0:
327,148,14086,5,2,2:0:0:0:
248,191,14251,1,0,2:0:0:0:
238,190,14415,1,0,2:0:0:0:
229,188,14580,1,0,2:0:0:0:
168,106,14745,5,2,2:0:0:0:
336,150,14910,1,0,2:0:0:0:
283,0,15075,1,0,2:0:0:0:
281,9,15240,1,0,2:0:0:0:
279,18,15404,1,0,2:0:0:0:
238,190,15569,5,2,2:0:0:0:
75,144,15734,1,2,2:0:0:0:
67,140,15899,1,0,2:0:0:0:
258,106,16064,5,2,2:0:0:0:
138,240,16229,1,2,2:0:0:0:
92,54,16393,1,0,2:0:0:0:
232,199,16558,5,2,2:0:0:0:
410,122,16723,1,2,2:0:0:0:
477,176,17053,5,0,2:0:0:0:
479,184,17218,1,0,2:0:0:0:
481,193,17383,1,0,2:0:0:0:
371,278,17712,5,2,2:0:0:0:
389,200,17877,1,2,2:0:0:0:
410,122,18042,1,2,2:0:0:0:
207,331,18207,5,2,2:0:0:0:
115,238,18372,1,2,2:0:0:0:
108,232,18536,1,0,2:0:0:0:
95,357,18701,5,2,2:0:0:0:
228,216,18866,1,2,2:0:0:0:
234,209,19031,1,0,2:0:0:0:
293,384,19196,5,2,2:0:0:0:
101,224,19361,1,2,2:0:0:0:
353,152,19525,5,2,2:0:0:0:
371,71,19690,1,2,2:0:0:0:
414,210,19855,5,2,2:0:0:0:
441,126,20020,1,2,2:0:0:0:
245,16,20350,5,2,2:0:0:0:
274,178,20514,1,2,2:0:0:0:
303,332,20679,1,2,2:0:0:0:
306,343,20844,5,2,2:0:0:0:
366,282,21174,1,2,2:0:0:0:
224,304,21503,1,2,2:0:0:0:
414,214,21833,1,2,2:0:0:0:
155,269,22163,1,2,2:0:0:0:
461,151,22492,1,2,2:0:0:0:
91,226,22822,1,2,2:0:0:0:
245,22,23152,6,0,L|241:0,3,22.75,2|0|0|0,2:0|2:0|2:0|2:0,2:0:0:0:
258,96,23481,1,10,2:0:0:0:
180,361,34031,54,0,B|122:341|122:341|82:391|14:384,1,163.8,12|8,2:0|2:0,2:0:0:0:
202,188,34525,1,4,2:3:0:0:
202,188,34608,1,4,2:3:0:0:
202,188,34690,2,0,L|180:270,1,81.9000000000001,4|0,2:3|2:0,2:0:0:0:
288,357,35020,2,0,P|283:298|253:267,1,81.9000000000001,10|0,2:0|1:0,2:0:0:0:
100,232,35267,1,0,1:0:0:0:
100,232,35350,2,0,P|61:245|21:252,1,81.9000000000001,10|0,1:2|2:0,2:0:0:0:
227,91,35679,6,0,L|251:5,1,81.9000000000001,10|0,2:0|2:0,2:0:0:0:
80,140,36009,2,0,P|60:104|62:63,1,81.9000000000001,10|0,2:0|2:0,2:0:0:0:
340,190,36339,2,0,P|375:170|416:172,1,81.9000000000001,10|0,2:0|1:0,2:0:0:0:
512,172,36586,5,0,1:0:0:0:
512,172,36668,2,0,B|511:206|490:240|490:240|494:281|494:281|477:329,1,163.8,14|8,1:2|2:0,2:0:0:0:
309,371,37163,1,0,2:0:0:0:
403,384,37328,2,0,P|391:336|372:291,1,81.9000000000001,8|0,2:0|2:0,2:0:0:0:
252,104,37657,5,10,2:0:0:0:
176,149,37822,1,2,2:0:0:0:
333,133,37987,2,0,B|395:148|429:184|429:184|457:171|487:172,1,163.8,10|10,2:0|2:0,2:0:0:0:
374,60,38481,1,2,2:0:0:0:
436,7,38646,2,0,P|452:49|450:96,1,81.9000000000001,10|0,2:0|2:0,2:0:0:0:
280,271,38976,2,0,P|264:229|266:182,1,81.9000000000001,10|0,2:0|2:0,2:0:0:0:
427,366,39306,6,0,P|398:331|356:309,1,81.9000000000001,12|0,2:0|2:0,2:0:0:0:
133,368,39635,2,0,P|177:360|217:335,1,81.9000000000001,10|0,2:0|2:0,2:0:0:0:
279,113,39965,2,0,P|262:154|265:202,1,81.9000000000001,10|0,2:0|2:0,2:0:0:0:
391,93,40295,2,0,L|363:-9,1,81.9000000000001,10|0,2:0|1:0,2:0:0:0:
199,36,40542,5,0,1:0:0:0:
192,39,40624,2,0,P|137:59|45:72,1,122.85,10|0,1:2|2:0,2:0:0:0:
8,150,40954,2,0,P|51:158|96:174,1,81.9000000000001,10|0,2:0|2:0,2:0:0:0:
249,284,41284,2,0,P|237:247|229:206,1,81.9000000000001,10|0,2:0|2:0,2:0:0:0:
116,351,41613,2,0,P|113:310|133:275,1,81.9000000000001,8|0,2:0|2:0,2:0:0:0:
309,384,41943,2,0,B|365:369|365:369|417:381|417:381|468:366,1,163.8,10|8,2:0|2:0,2:0:0:0:
240,363,42437,5,2,2:0:0:0:
392,243,42602,1,10,2:0:0:0:
399,246,42767,1,2,2:0:0:0:
342,378,42932,2,0,P|328:334|321:291,1,81.9000000000001,10|0,2:0|2:0,2:0:0:0:
320,90,43262,5,10,2:0:0:0:
406,250,43426,1,2,2:0:0:0:
239,343,43591,1,10,2:0:0:0:
329,173,43756,1,0,2:0:0:0:
422,335,43921,5,10,2:0:0:0:
199,152,44086,2,0,B|176:138|148:129|148:129|110:171|40:163,1,163.8,2|0,2:0|1:0,2:0:0:0:
41,163,44498,1,0,1:0:0:0:
32,162,44580,6,0,B|170:172|252:254|252:254|374:193|504:214,1,500.5,8|0,1:2|2:0,2:0:0:0:
501,213,46558,2,0,P|477:146|462:76,1,136.5,2|0,2:0|2:0,2:0:0:0:
378,50,47218,2,0,B|330:56|290:85|290:85|226:37|123:30,1,273,2|0,2:0|2:0,2:0:0:0:
22,138,48372,1,0,2:0:0:0:
22,138,48536,2,0,P|61:125|128:130,1,91,2|0,2:0|2:0,2:0:0:0:
197,94,49031,1,0,2:0:0:0:
197,94,49196,2,0,L|223:-3,1,91,0|0,2:0|2:0,2:0:0:0:
247,164,49690,1,0,2:0:0:0:
302,229,49855,6,0,L|346:242,1,45.5,2|0,2:0|2:0,2:0:0:0:
244,328,50185,2,0,L|287:315,1,45.5,0|0,2:0|2:0,2:0:0:0:
429,251,50514,2,0,L|472:238,1,45.5,0|0,2:0|2:0,2:0:0:0:
375,324,50844,2,0,L|419:337,1,45.5,0|0,2:0|2:0,2:0:0:0:
216,248,51174,5,2,2:0:0:0:
171,235,51339,1,2,2:0:0:0:
135,232,51503,1,2,2:0:0:0:
110,233,51668,1,2,2:0:0:0:
91,237,51833,2,0,B|82:198|105:171|105:171|87:102,1,136.5,2|0,2:0|2:0,2:0:0:0:
78,0,52492,6,0,B|139:4|180:46|180:46|231:13|289:22,1,227.5,2|0,2:0|2:0,2:0:0:0:
434,118,53481,1,0,2:0:0:0:
434,118,53646,1,0,2:0:0:0:
319,200,53811,2,0,P|348:114|370:26,1,182,2|0,2:0|2:0,2:0:0:0:
370,25,55130,5,10,2:0:0:0:
370,25,55295,1,8,2:0:0:0:
332,99,55459,6,0,L|278:113,1,45.5,0|0,2:0|2:0,2:0:0:0:
200,180,55789,2,0,L|212:136,1,45.5,0|0,2:0|2:0,2:0:0:0:
146,80,56119,2,0,L|103:92,1,45.5,0|0,2:0|2:0,2:0:0:0:
276,234,56448,6,0,L|413:198,1,136.5,2|0,2:0|2:0,2:0:0:0:
271,108,57108,1,10,2:0:0:0:
374,41,57273,2,0,P|357:86|347:145,1,91,8|0,2:0|2:0,2:0:0:0:
409,292,57767,5,10,2:0:0:0:
409,292,57932,1,8,2:0:0:0:
409,292,58097,6,0,L|462:307,1,45.5,0|0,2:0|2:0,2:0:0:0:
451,211,58426,2,0,L|407:198,1,45.5,0|0,2:0|2:0,2:0:0:0:
315,212,58756,2,0,L|330:266,1,45.5,0|0,2:0|2:0,2:0:0:0:
269,117,59086,5,2,2:0:0:0:
223,43,59251,1,2,2:0:0:0:
141,25,59415,1,2,2:0:0:0:
68,64,59580,1,2,2:0:0:0:
146,178,59745,6,0,P|154:142|165:108,1,72.8,0|0,3:0|2:0,2:0:0:0:
165,101,59992,2,0,P|156:65|145:32,1,72.8,0|0,3:0|2:0,2:0:0:0:
141,25,60240,1,0,3:0:0:0:
48,150,60404,5,10,2:0:0:0:
48,150,60569,1,8,2:0:0:0:
48,150,60734,6,0,L|63:205,1,45.5,0|0,2:0|2:0,2:0:0:0:
111,308,61064,2,0,L|123:264,1,45.5,0|0,2:0|2:0,2:0:0:0:
0,380,61393,2,0,L|43:367,1,45.5,0|0,2:0|2:0,2:0:0:0:
205,215,61723,5,2,2:0:0:0:
277,175,61888,1,2,2:0:0:0:
359,193,62053,1,2,2:0:0:0:
405,267,62218,1,2,2:0:0:0:
405,267,62383,1,0,2:0:0:0:
422,140,62547,5,2,2:0:0:0:
301,255,62712,1,10,2:0:0:0:
243,107,62877,1,2,2:0:0:0:
321,178,63042,5,10,2:0:0:0:
321,178,63207,1,8,2:0:0:0:
321,178,63372,6,0,L|334:120,1,45.5,0|0,2:0|2:0,2:0:0:0:
216,238,63701,2,0,L|229:180,1,45.5,0|0,2:0|2:0,2:0:0:0:
154,140,64031,2,0,L|167:82,1,45.5,0|0,2:0|2:0,2:0:0:0:
0,22,64361,6,0,B|44:14|87:35|87:35|120:3|171:-1,1,182,2|2,2:0|2:0,2:0:0:0:
503,261,65514,5,0,1:0:0:0:
503,261,65597,1,0,1:0:0:0:
503,261,65679,2,0,B|464:247|423:260|423:260|398:228|353:218,1,163.8,14|0,2:0|2:0,2:0:0:0:
163,167,66174,1,0,2:0:0:0:
245,252,66339,5,2,2:0:0:0:
268,146,66503,1,0,2:0:0:0:
354,218,66668,1,0,3:0:0:0:
379,111,66833,1,8,2:0:0:0:
245,252,66998,5,10,2:0:0:0:
268,146,67163,2,4,P|212:143|161:170,1,81.8999975006104,4|4,0:3|3:3,0:3:0:0:
174,158,67410,1,4,2:3:0:0:
163,167,67492,1,8,2:3:0:0:
354,218,67657,5,2,2:0:0:0:
379,111,67822,1,0,2:0:0:0:
157,177,67987,1,8,2:3:0:0:
197,64,68152,1,8,2:0:0:0:
244,251,68317,5,14,2:0:0:0:
57,279,68481,2,0,P|45:239|48:199,1,81.8999975006104,2|2,3:2|3:2,0:0:0:0:
197,64,68811,5,0,2:0:0:0:
157,177,68976,1,2,3:2:0:0:
83,93,69141,2,4,L|71:38,2,40.9499987503052,4|4|4,3:0|3:0|3:0,3:0:0:0:
268,146,69470,5,0,3:0:0:0:
57,279,69635,1,2,3:2:0:0:
56,278,69800,2,0,P|45:239|48:199,1,81.8999975006104,2|2,3:2|0:2,0:0:0:0:
157,177,70130,5,8,2:3:0:0:
137,280,70295,5,2,2:0:0:0:
268,146,70459,1,2,2:0:0:0:
86,95,70624,1,2,2:0:0:0:
235,253,70789,1,2,2:0:0:0:
384,112,70954,6,0,P|395:72|392:32,1,81.8999975006104,14|8,0:2|0:2,0:0:0:0:
268,146,71284,1,0,2:0:0:0:
352,232,71448,1,0,2:0:0:0:
459,188,71613,5,2,2:3:0:0:
300,39,71778,2,4,L|291:-3,2,40.9499987503052,4|4|4,0:3|0:3|0:3,0:3:0:0:
268,146,72108,1,8,2:3:0:0:
459,188,72273,5,14,2:0:0:0:
390,34,72437,1,0,2:0:0:0:
268,146,72602,2,4,L|259:104,2,40.9499987503052,4|4|4,0:3|0:3|0:3,0:3:0:0:
459,188,72932,5,2,2:0:0:0:
373,130,73097,1,12,2:3:0:0:
208,230,73262,1,8,2:0:0:0:
268,146,73426,1,2,2:0:0:0:
82,106,73591,5,14,2:0:0:0:
218,358,73756,1,2,2:0:0:0:
334,228,73921,5,2,2:0:0:0:
115,384,74086,1,2,2:0:0:0:
268,146,74251,5,2,2:3:0:0:
218,358,74415,1,4,2:3:0:0:
218,358,74498,1,4,2:3:0:0:
218,358,74580,1,4,2:3:0:0:
33,278,74745,1,4,2:3:0:0:
33,278,74910,6,0,P|33:237|54:202,1,81.9000000000001,12|0,2:0|2:0,2:0:0:0:
268,146,75157,6,0,P|232:164|191:164,1,81.9000000000001,12|0,2:0|2:0,2:0:0:0:
29,0,75404,6,0,P|63:21|83:56,1,81.9000000000001,12|0,2:0|2:0,2:0:0:0:
158,291,75734,22,0,B|200:297|238:318|238:318|300:312|300:312|351:344|402:346,1,245.7,2|12,2:1|2:0,2:0:0:0:
476,307,77218,5,2,2:0:0:0:
454,225,77383,1,2,2:0:0:0:
512,164,77547,1,2,2:0:0:0:
415,45,77877,5,2,2:0:0:0:
342,87,78207,1,2,2:0:0:0:
420,138,78536,1,2,2:0:0:0:
420,138,78701,1,2,2:0:0:0:
420,138,78866,6,0,P|341:149|305:181,1,109.2,2|0,2:0|2:0,2:0:0:0:
244,222,79361,2,0,P|227:160|208:108,1,109.2,2|0,2:0|2:0,2:0:0:0:
108,44,79855,6,0,P|133:54|159:60,1,54.5999999999999,2|0,2:0|2:0,2:0:0:0:
244,222,80185,2,0,P|192:204|139:191,1,109.2,2|0,2:0|2:0,2:0:0:0:
42,176,80679,2,0,P|71:221|75:275,1,109.2,2|0,2:0|2:0,2:0:0:0:
148,333,81174,2,0,P|153:299|169:261,1,54.5999999999999,2|0,2:0|2:0,2:0:0:0:
267,87,81503,6,0,B|302:79|337:96|337:96|363:70|405:68,1,145.6,14|4,2:0|2:3,2:0:0:0:
493,112,81998,2,0,P|470:183|448:275,1,145.6,2|8,2:0|2:0,2:0:0:0:
397,384,82492,2,0,P|378:304|353:226,1,145.6,2|8,2:0|2:0,2:0:0:0:
236,188,82987,2,0,P|195:244|211:325,1,145.6,2|0,2:0|2:0,2:0:0:0:
298,336,83481,2,0,P|284:297|280:262,1,72.8,2|8,2:0|2:0,2:0:0:0:
303,68,83811,2,0,P|296:45|289:26,3,36.4,8|8|8|8,2:3|2:3|2:3|2:3,2:0:0:0:
322,164,84141,5,14,2:0:0:0:
201,374,86119,6,0,P|201:330|282:304,1,136.5,2|0,2:0|2:0,2:0:0:0:
337,371,86778,2,0,P|311:289|295:177,1,182,2|0,2:0|2:0,2:0:0:0:
296,194,87932,5,2,2:0:0:0:
220,225,88097,2,0,B|289:211|356:243|356:243|406:193|485:188,1,273,2|2,2:0|2:0,2:0:0:0:
214,318,89251,5,4,2:3:0:0:
214,318,89333,1,4,2:3:0:0:
214,318,89415,38,0,B|160:287|160:287|107:331|44:310,1,182,14|0,2:0|2:0,2:0:0:0:
92,121,89910,1,0,2:0:0:0:
0,237,90075,2,0,P|42:221|126:214,1,91,0|0,2:0|2:0,2:0:0:0:
304,102,90404,5,2,2:0:0:0:
156,0,90569,1,10,2:0:0:0:
168,177,90734,2,0,B|240:159|240:159|264:185|303:184,1,136.5,10|0,2:0|2:0,2:0:0:0:
432,0,91064,5,2,2:0:0:0:
304,102,91229,1,2,2:0:0:0:
156,0,91393,2,0,P|171:42|180:87,1,91,2|0,2:0|2:0,2:0:0:0:
261,305,91723,5,8,2:0:0:0:
287,284,91806,1,0,1:0:0:0:
318,271,91888,1,0,1:0:0:0:
351,266,91970,1,0,1:0:0:0:
384,271,92053,5,14,2:0:0:0:
304,102,92218,1,10,2:0:0:0:
459,153,92383,2,0,P|414:162|371:177,1,91,0|0,2:0|2:0,2:0:0:0:
147,353,92712,2,0,P|143:308|166:269,1,91,0|0,2:0|2:0,2:0:0:0:
363,181,93042,5,2,2:0:0:0:
227,328,93207,1,10,2:0:0:0:
414,374,93372,1,10,2:0:0:0:
271,236,93536,1,2,2:0:0:0:
316,373,93701,1,2,2:0:0:0:
160,266,93866,5,2,2:0:0:0:
160,266,93948,1,0,2:0:0:0:
160,266,94031,2,0,P|140:200|153:123,1,136.5,0|0,2:0|2:0,2:0:0:0:
241,91,94361,2,0,P|248:127|259:156,1,45.5,8|0,2:0|1:0,2:0:0:0:
79,41,94525,2,0,P|72:77|61:106,1,45.5,0|0,1:0|1:0,2:0:0:0:
266,227,94690,6,0,B|324:205|324:205|369:258|434:248,1,182,14|0,2:0|2:0,2:0:0:0:
231,318,95185,2,0,B|133:295|133:295|88:310|90:369,1,182,2|0,2:0|2:0,2:0:0:0:
296,381,95679,6,0,L|341:370,1,45.5,2|0,2:0|2:0,2:0:0:0:
422,374,95844,2,0,L|433:330,1,45.5,10|0,2:0|2:0,2:0:0:0:
363,290,96009,2,0,P|330:244|337:162,1,136.5,10|0,2:0|2:0,2:0:0:0:
340,59,96339,2,0,B|276:66|235:113|235:113|206:99|173:100,1,182,2|0,2:0|2:0,2:0:0:0:
28,192,96833,1,0,2:0:0:0:
107,26,96998,2,0,P|92:69|85:114,1,91,8|0,2:0|2:0,2:0:0:0:
187,366,97328,5,10,2:0:0:0:
310,248,97492,1,10,2:0:0:0:
147,199,97657,1,0,2:0:0:0:
215,273,97822,5,2,2:0:0:0:
280,92,97987,1,2,2:0:0:0:
85,114,98152,1,10,2:0:0:0:
243,178,98317,5,6,2:0:0:0:
21,50,98481,1,2,2:0:0:0:
309,2,98646,5,10,2:3:0:0:
67,234,98811,1,4,2:3:0:0:
67,234,98893,1,4,2:3:0:0:
67,234,98976,1,8,2:3:0:0:
404,232,99141,6,0,P|426:193|426:148,1,91,10|4,2:3|2:3,2:0:0:0:
196,85,99470,2,0,P|172:123|172:168,1,91,2|8,2:3|2:0,2:0:0:0:
346,379,99800,5,0,1:0:0:0:
346,379,99883,1,0,1:0:0:0:
346,379,99965,2,0,L|297:194,1,182,12|0,2:0|1:2,2:0:0:0:
417,311,100459,1,0,1:2:0:0:
426,319,100542,1,0,1:0:0:0:
435,327,100624,1,0,1:0:0:0:
242,368,100789,1,8,2:0:0:0:
401,212,100954,6,0,L|409:165,1,45.5,10|0,2:3|2:0,2:0:0:0:
244,80,101119,2,0,L|254:126,1,45.5,10|0,2:0|2:0,2:0:0:0:
282,289,101284,2,0,B|223:267|223:267|178:320|113:310,1,182,10|2,2:3|1:2,2:0:0:0:
312,211,101778,1,0,1:2:0:0:
312,211,101861,1,0,1:2:0:0:
312,211,101943,1,2,1:2:0:0:
120,58,102108,1,8,2:0:0:0:
146,215,102273,2,0,P|157:170|171:127,1,91,2|8,1:2|2:0,2:0:0:0:
286,343,102602,6,0,P|336:299|403:302,1,136.5,14|0,2:0|2:0,2:0:0:0:
468,370,102932,2,0,P|492:326|490:282,1,91,2|0,1:2|1:0,2:0:0:0:
277,71,103262,2,0,P|291:113|301:158,1,91,2|8,1:2|2:0,2:0:0:0:
206,383,103591,1,2,1:2:0:0:
323,259,103756,1,10,1:2:0:0:
40,309,103921,2,0,P|88:318|128:336,1,91,10|0,1:2|2:0,2:0:0:0:
106,150,104251,6,0,P|119:193|130:237,1,91,2|0,1:2|1:0,2:0:0:0:
205,14,104498,1,0,1:0:0:0:
205,14,104580,2,0,P|190:57|179:102,1,91,2|8,1:2|2:0,2:0:0:0:
216,254,104910,6,0,P|210:275|206:297,1,45.5,2|0,1:2|1:2,2:0:0:0:
16,147,105075,2,0,L|6:102,1,45.5,10|0,2:3|2:0,2:0:0:0:
287,32,105240,2,0,B|325:23|325:23|355:30|355:30|389:16|433:20,1,136.5,14|0,2:0|2:0,2:0:0:0:
512,79,105569,2,0,P|495:121|486:165,1,91,8|0,2:0|2:0,2:0:0:0:
418,336,105899,2,0,P|409:291|393:249,1,91,8|0,2:0|2:0,2:0:0:0:
175,59,106229,5,10,2:0:0:0:
264,226,106393,1,2,2:0:0:0:
405,128,106558,2,0,P|362:144|318:153,1,91,10|0,2:0|2:0,2:0:0:0:
256,221,106806,5,0,3:0:0:0:
249,214,106888,2,0,P|227:173|230:119,1,91,10|0,2:0|3:0,2:0:0:0:
11,188,107135,1,0,3:0:0:0:
19,183,107218,2,0,P|50:149|61:96,1,91,14|0,2:0|3:0,2:0:0:0:
160,6,107547,1,10,2:0:0:0:
156,28,107630,1,0,1:0:0:0:
153,50,107712,1,2,1:2:0:0:
150,73,107795,1,0,1:0:0:0:
148,95,107877,5,14,2:0:0:0:
10,38,108042,1,0,1:0:0:0:
226,129,108207,5,8,2:0:0:0:
19,183,108372,1,0,1:0:0:0:
175,322,108536,5,14,2:0:0:0:
66,115,108701,1,0,1:0:0:0:
379,266,108866,5,8,2:0:0:0:
456,48,109031,1,0,1:0:0:0:
456,48,109113,1,0,1:0:0:0:
456,48,109196,6,0,L|470:102,1,45.5,14|0,2:0|1:0,2:0:0:0:
386,131,109361,2,0,L|374:87,1,45.5,0|0,1:0|1:0,2:0:0:0:
256,54,109525,6,0,L|212:42,1,45.5,8|0,2:0|1:0,2:0:0:0:
222,172,109690,2,0,L|266:184,1,45.5,0|0,1:0|1:0,2:0:0:0:
469,264,109855,6,0,L|457:308,1,45.5,14|0,2:0|1:0,2:0:0:0:
275,384,110020,2,0,L|287:340,1,45.5,0|0,1:0|1:0,2:0:0:0:
377,0,110185,6,0,L|333:12,1,45.5,8|0,2:0|1:0,2:0:0:0:
136,197,110350,2,0,L|92:185,1,45.5,0|0,1:0|1:0,2:0:0:0:
7,169,110514,5,14,2:0:0:0:
