osu file format v14

[General]
AudioFilename: audio.mp3
AudioLeadIn: 0
PreviewTime: 86126
Countdown: 0
SampleSet: Soft
StackLeniency: 0.7
Mode: 0
LetterboxInBreaks: 0
WidescreenStoryboard: 1

[Editor]
Bookmarks: 23488,34038
DistanceSpacing: 0.4
BeatDivisor: 4
GridSize: 16
TimelineZoom: 1.900003

[Metadata]
Title:Anata dake ga Shiru Sekai
TitleUnicode:あなただけが知る世界
Artist:Hotaru Murasaki
ArtistUnicode:紫咲ほたる
Creator:subahibi
Version:MajK00's Hard
Source:TrymenT ―今を変えたいと願うあなたへ―
Tags:eroge visual novel op opening japanese video game re:tryment retryment alpha tryment last project 甘利紗陽 nikolomara nik sainoo majk00 kleune
BeatmapID:3991852
BeatmapSetID:1776799

[Difficulty]
HPDrainRate:4.2
CircleSize:3.6
OverallDifficulty:6.5
ApproachRate:8
SliderMultiplier:1.42
SliderTickRate:1

[Events]
//Background and Video events
0,0,"re bg.png",0,0
//Break Periods
2,76476,80753
//Storyboard Layer 0 (Background)
//Storyboard Layer 1 (Fail)
//Storyboard Layer 2 (Pass)
//Storyboard Layer 3 (Foreground)
//Storyboard Layer 4 (Overlay)
//Storyboard Sound Samples

[TimingPoints]
2383,329.67032967033,4,2,1,30,1,0
34031,-125,4,2,1,60,0,0
41284,-111.111111111111,4,2,1,60,0,0
44580,-200,4,2,1,40,0,0
63207,-125,4,2,1,40,0,0
65679,-125,4,2,1,60,0,0
65844,-133.333333333333,4,2,1,60,0,0
81503,-133.333333333333,4,2,1,70,0,0
81668,-125,4,2,1,70,0,0
84141,-153.846153846154,4,2,1,70,0,0
86119,-200,4,2,1,40,0,0
89415,-200,4,2,1,80,0,1
89580,-100,4,2,1,80,0,1
110514,-100,4,2,1,80,0,0

[Colours]
Combo1 : 0,149,198
Combo2 : 87,150,253
Combo3 : 233,174,255

[HitObjects]
37,146,34031,6,0,P|93:149|147:167,1,113.6,12|8,2:0|2:0,2:0:0:0:
254,45,34690,2,0,P|310:41|364:23,1,113.6,4|10,2:3|2:0,2:0:0:0:
453,91,35185,5,0,1:0:0:0:
453,91,35267,1,0,1:0:0:0:
453,91,35350,2,0,P|485:123|452:197,1,113.6,10|10,1:2|2:0,2:0:0:0:
343,299,36009,2,0,P|335:242|321:187,1,113.6,10|10,2:0|2:0,2:0:0:0:
254,45,36668,6,0,P|213:7|160:19,1,113.6,14|8,1:2|2:0,2:0:0:0:
77,67,37163,1,0,2:0:0:0:
77,67,37328,2,0,P|89:122|98:178,1,113.6,8|10,2:0|2:0,2:0:0:0:
0,313,37987,5,10,2:0:0:0:
0,313,38152,1,0,0:0:0:0:
88,280,38317,2,0,P|143:291|199:301,1,113.6,10|10,2:0|2:0,0:0:0:0:
268,357,38811,1,0,2:0:0:0:
268,357,38976,2,0,P|295:350|323:346,1,56.8,10|0,2:0|2:0,2:0:0:0:
356,366,39223,5,0,0:0:0:0:
356,366,39306,2,0,P|363:309|377:254,2,113.6,12|10|10,2:0|2:0|2:0,2:0:0:0:
283,223,40295,1,10,2:0:0:0:
358,159,40459,5,0,1:0:0:0:
358,159,40542,1,0,1:0:0:0:
358,159,40624,2,0,P|416:163|459:217,1,113.6,10|10,1:2|2:0,2:0:0:0:
283,223,41284,2,0,P|219:233|157:247,1,127.8,10|8,2:0|2:0,2:0:0:0:
42,351,41943,6,0,P|5:311|21:230,1,127.8,10|8,2:0|2:0,2:0:0:0:
86,189,42437,1,2,2:0:0:0:
86,189,42602,2,0,P|91:157|98:126,1,63.9000000000001,10|2,2:0|2:0,0:0:0:0:
32,59,42932,1,10,2:0:0:0:
32,59,43097,1,0,2:0:0:0:
120,32,43262,6,0,P|181:48|245:56,1,127.8,10|10,2:0|2:0,0:0:0:0:
331,9,43756,1,0,2:0:0:0:
331,9,43921,1,10,2:0:0:0:
327,100,44086,2,0,P|338:162|351:225,1,127.8,2|0,2:0|1:0,2:0:0:0:
390,257,44498,5,0,1:0:0:0:
389,256,44580,2,0,P|252:280|160:385,1,284,8|0,1:2|0:0,2:0:0:0:
62,192,46558,2,0,P|74:140|82:87,1,106.5,2|0,2:0|2:0,2:0:0:0:
135,29,47218,2,0,P|172:14|298:112,1,213,2|0,2:0|2:0,2:0:0:0:
371,139,48372,2,0,P|383:69|398:-1,1,142,0|0,2:0|2:0,0:0:0:0:
12,13,49690,5,0,2:0:0:0:
12,13,49855,2,0,P|43:151|66:291,1,284,2|2,2:0|2:0,2:0:0:0:
308,375,51833,6,0,P|360:375|398:339,1,106.5,2|0,2:0|2:0,2:0:0:0:
504,357,52492,2,0,P|486:271|425:208,1,177.5,2|0,2:0|2:0,2:0:0:0:
342,241,53481,5,0,2:0:0:0:
342,241,53646,1,0,2:0:0:0:
284,173,53811,2,0,L|144:201,1,142,2|0,2:0|2:0,2:0:0:0:
474,171,55130,5,10,2:0:0:0:
474,170,55295,2,0,P|480:54|372:12,1,248.5,8|2,2:0|2:0,0:0:0:0:
104,0,57108,1,10,2:0:0:0:
104,0,57273,2,0,L|117:69,1,71,8|0,2:0|2:0,2:0:0:0:
83,148,57767,5,10,2:0:0:0:
83,148,57932,2,0,P|39:162|54:279,1,177.5,8|0,2:0|2:0,0:0:0:0:
127,271,58921,1,0,2:0:0:0:
127,271,59086,6,0,P|143:273|161:277,1,35.5,2|2,2:0|2:0,0:0:0:0:
209,342,59415,2,0,P|226:337|243:335,1,35.5,2|2,2:0|2:0,0:0:0:0:
325,322,59745,2,0,L|312:385,2,53.25,0|0|0,3:0|3:0|3:0,2:0:0:0:
389,273,60404,5,10,2:0:0:0:
388,272,60569,2,0,P|335:184|233:183,1,213,8|0,2:0|2:0,0:0:0:0:
151,183,61723,6,0,P|155:165|157:148,1,35.5,2|2,2:0|2:0,0:0:0:0:
205,86,62053,2,0,P|220:76|234:66,1,35.5,2|2,2:0|2:0,0:0:0:0:
311,55,62383,1,0,2:0:0:0:
311,55,62547,2,0,P|328:59|345:61,2,35.5,2|10|2,2:0|2:0|2:0,0:0:0:0:
304,138,63042,5,10,2:0:0:0:
304,138,63207,2,0,P|405:180|443:347,1,284,8|0,2:0|2:0,0:0:0:0:
285,384,64361,1,2,2:0:0:0:
99,209,65020,1,2,2:0:0:0:
147,370,65514,5,0,1:0:0:0:
147,370,65597,1,0,1:0:0:0:
147,370,65679,1,14,2:0:0:0:
217,321,65844,2,0,P|204:269|194:216,1,106.5,0|0,0:0|2:0,0:0:0:0:
158,143,66339,2,0,P|124:123|82:121,2,79.8750000000002,2|0|8,2:0|0:0|2:0,0:0:0:0:
224,82,66998,6,0,P|276:71|328:61,1,106.5,10|4,2:0|3:3,0:0:0:0:
348,41,67410,1,4,2:3:0:0:
348,41,67492,1,8,2:3:0:0:
425,69,67657,2,0,P|464:101|461:152,1,106.5,2|8,2:0|2:3,0:0:0:0:
412,215,68152,1,8,2:0:0:0:
349,269,68317,6,0,P|271:250|192:237,1,159.75,14|0,2:0|2:0,0:0:0:0:
108,255,68976,2,0,P|104:302|123:345,2,79.8750000000002,2|4|0,3:2|3:0|3:0,0:0:0:0:
139,172,69635,5,2,3:2:0:0:
139,172,69800,2,0,L|159:66,1,106.5,2|8,3:2|2:3,0:0:0:0:
231,25,70295,2,0,L|241:77,1,53.2500000000001,2|2,2:0|2:0,0:0:0:0:
249,102,70542,1,0,0:0:0:0:
249,102,70624,2,0,P|275:106|301:112,1,53.2500000000001,2|2,2:0|2:0,0:0:0:0:
384,86,70954,5,14,0:2:0:0:
384,86,71119,2,0,L|404:190,1,106.5,8|0,0:2|2:0,0:0:0:0:
431,269,71613,2,0,P|466:286|506:285,2,79.8750000000002,2|4|8,2:3|0:3|2:3,0:0:0:0:
356,313,72273,6,0,P|303:311|254:332,1,106.5,14|4,2:0|0:3,0:0:0:0:
178,381,72767,1,4,0:3:0:0:
178,381,72932,2,0,L|165:318,1,53.2500000000001,2|12,2:0|2:3,0:0:0:0:
150,248,73262,1,8,2:0:0:0:
82,305,73426,5,2,2:0:0:0:
82,305,73591,2,0,P|38:296|35:193,1,159.75,14|2,2:0|2:0,0:0:0:0:
78,123,74251,2,0,P|91:85|93:45,2,79.8750000000002,2|4|4,2:3|2:3|2:3,0:0:0:0:
151,160,74910,6,0,P|177:157|202:150,1,53.2500000000001,12|0,2:0|2:0,2:0:0:0:
222,129,75157,2,0,P|248:131|273:138,1,53.2500000000001,12|0,2:0|2:0,2:0:0:0:
292,159,75404,1,12,2:0:0:0:
491,98,75734,6,0,B|467:110|467:110|446:141|429:220,1,133.125,2|0,2:1|0:0,2:0:0:0:
438,228,76229,1,12,2:0:0:0:
97,384,81503,5,14,2:0:0:0:
98,384,81668,2,0,P|90:356|86:328,1,56.8,0|4,0:0|2:3,0:0:0:0:
17,280,81998,2,0,P|22:223|38:169,1,113.6,2|8,2:0|2:0,2:0:0:0:
116,208,82492,2,0,P|144:206|171:197,1,56.8,2|0,2:0|0:0,2:0:0:0:
218,123,82822,5,8,2:0:0:0:
218,123,82987,2,0,L|343:147,1,113.6,2|0,2:0|2:0,2:0:0:0:
403,98,83481,2,0,P|412:124|413:153,1,56.8,2|8,2:0|2:0,2:0:0:0:
414,182,83729,1,0,0:0:0:0:
414,182,83811,1,8,2:3:0:0:
368,273,83976,5,8,2:3:0:0:
368,273,84058,1,8,2:3:0:0:
368,273,84141,2,0,P|269:280|1:371,1,369.2,14|0,2:0|0:0,0:0:0:0:
0,100,86119,6,0,P|68:117|139:127,1,142,2|2,2:0|2:0,2:0:0:0:
256,192,86943,12,2,89086,2:0:0:0:
507,123,89415,5,14,2:0:0:0:
507,123,89580,2,0,B|422:108|460:162|362:149,1,142,0|0,0:0|2:0,0:0:0:0:
290,91,90075,1,0,2:0:0:0:
290,91,90240,2,0,P|274:59|274:24,1,71,0|2,2:0|2:0,0:0:0:0:
381,53,90569,1,10,2:0:0:0:
357,156,90734,6,0,P|335:231|322:307,1,142,10|2,2:0|2:0,2:0:0:0:
264,381,91229,1,2,2:0:0:0:
225,286,91393,2,0,P|193:270|158:271,1,71,2|0,2:0|2:0,2:0:0:0:
111,363,91723,2,0,P|79:378|44:377,1,71,8|0,2:0|1:0,0:0:0:0:
21,362,91970,5,0,1:0:0:0:
21,362,92053,1,14,2:0:0:0:
72,274,92218,1,10,2:0:0:0:
0,209,92383,2,0,L|13:139,1,71,0|0,2:0|2:0,2:0:0:0:
47,42,92712,2,0,P|79:29|115:29,1,71,0|0,2:0|2:0,2:0:0:0:
198,98,93042,1,2,2:0:0:0:
198,98,93207,1,10,2:0:0:0:
100,129,93372,6,0,P|102:164|113:197,1,71,10|2,2:0|2:0,0:0:0:0:
199,262,93701,2,0,P|269:271|338:289,1,142,2|0,2:0|2:0,0:0:0:0:
492,129,94361,5,8,2:0:0:0:
492,129,94443,1,0,1:0:0:0:
492,129,94525,1,0,1:0:0:0:
492,129,94608,1,0,1:0:0:0:
492,129,94690,2,0,P|438:149|408:249,1,142,14|0,2:0|2:0,2:0:0:0:
322,161,95185,2,0,P|252:148|182:133,1,142,2|0,2:0|2:0,2:0:0:0:
154,37,95679,1,2,2:0:0:0:
154,37,95844,1,10,2:0:0:0:
90,117,96009,6,0,P|87:152|101:184,1,71,10|0,2:0|0:0,2:0:0:0:
192,234,96339,2,0,P|262:245|331:261,1,142,2|0,2:0|2:0,2:0:0:0:
402,330,96833,1,0,2:0:0:0:
466,255,96998,2,0,P|470:237|472:220,3,35.5,8|0|0|0,2:0|0:0|2:0|0:0,2:0:0:0:
476,198,97328,5,10,2:0:0:0:
434,104,97492,2,0,P|382:90|301:149,1,142,10|2,2:0|2:0,0:0:0:0:
249,47,97987,2,0,P|213:43|179:33,1,71,2|10,2:0|2:0,0:0:0:0:
71,0,98317,2,0,P|80:34|84:69,1,71,6|2,2:0|2:0,0:0:0:0:
30,149,98646,6,0,P|20:183|16:218,1,71,10|4,2:3|2:3,0:0:0:0:
14,243,98893,1,4,2:3:0:0:
14,243,98976,1,8,2:3:0:0:
37,345,99141,1,10,2:3:0:0:
102,265,99306,2,0,P|136:262|167:279,1,71,4|2,2:3|2:3,0:0:0:0:
232,363,99635,1,8,2:0:0:0:
274,273,99800,5,0,1:0:0:0:
274,273,99883,1,0,1:0:0:0:
274,273,99965,2,0,P|258:203|246:133,1,142,12|0,2:0|1:2,2:0:0:0:
146,113,100459,1,0,1:2:0:0:
146,113,100542,1,0,1:0:0:0:
146,113,100624,1,0,1:0:0:0:
228,42,100789,2,0,P|263:39|295:53,1,71,8|10,2:0|2:3,0:0:0:0:
347,133,101119,1,10,2:0:0:0:
440,110,101284,6,0,P|412:123|387:247,1,142,10|2,2:3|1:2,2:0:0:0:
438,310,101778,1,0,1:2:0:0:
438,310,101861,1,0,1:2:0:0:
438,310,101943,2,0,P|402:312|368:323,1,71,2|8,1:2|2:0,0:0:0:0:
285,369,102273,1,2,1:2:0:0:
285,369,102355,1,0,0:0:0:0:
285,369,102437,1,8,2:0:0:0:
213,281,102602,6,0,P|225:229|233:176,1,106.5,14|0,2:0|2:0,2:0:0:0:
250,162,102932,2,0,P|245:126|236:92,1,71,2|0,1:2|1:0,2:0:0:0:
162,25,103262,2,0,P|127:16|92:11,1,71,2|8,1:2|2:0,2:0:0:0:
4,73,103591,1,2,1:2:0:0:
4,73,103756,1,10,1:2:0:0:
88,131,103921,6,0,P|103:200|115:270,1,142,10|2,1:2|1:2,2:0:0:0:
70,369,104415,1,0,1:0:0:0:
171,353,104580,2,0,P|206:356|240:366,1,71,2|8,1:2|2:0,2:0:0:0:
320,306,104910,2,0,P|317:287|313:271,3,35.5,2|0|10|0,1:2|1:2|2:3|2:0,2:0:0:0:
326,326,105240,5,14,2:0:0:0:
224,190,105569,1,8,2:0:0:0:
392,221,105899,1,8,2:0:0:0:
480,73,106229,1,10,2:0:0:0:
480,73,106393,1,2,2:0:0:0:
408,10,106558,6,0,P|388:39|385:74,1,71,10|0,2:0|2:0,2:0:0:0:
441,149,106888,1,10,2:0:0:0:
392,221,107053,1,0,3:0:0:0:
392,221,107135,1,0,3:0:0:0:
392,221,107218,2,0,L|309:237,1,71,14|0,2:0|3:0,2:0:0:0:
300,260,107465,2,0,L|189:282,1,106.5,0|2,0:0|1:2,0:0:0:0:
89,348,107877,6,0,P|78:279|122:226,1,142,14|8,2:0|2:0,0:0:0:0:
191,151,108372,1,0,1:0:0:0:
88,139,108536,2,0,P|78:68|60:0,1,142,14|8,2:0|2:0,0:0:0:0:
170,36,109031,5,0,1:0:0:0:
170,36,109113,1,0,1:0:0:0:
170,36,109196,2,0,P|205:40|239:49,1,71,14|0,2:0|1:0,2:0:0:0:
325,0,109525,1,8,2:0:0:0:
325,0,109608,1,0,1:0:0:0:
325,0,109690,1,0,1:0:0:0:
325,101,109855,6,0,L|338:170,1,71,14|0,2:0|1:0,2:0:0:0:
333,199,110102,1,0,1:0:0:0:
333,199,110185,1,8,2:0:0:0:
418,252,110350,1,0,1:0:0:0:
418,252,110432,1,0,1:0:0:0:
418,252,110514,1,14,2:0:0:0:
