osu file format v14

[General]
AudioFilename: audio.ogg
AudioLeadIn: 0
PreviewTime: 61573
Countdown: 0
SampleSet: Soft
StackLeniency: 0.7
Mode: 3
LetterboxInBreaks: 0
SpecialStyle: 0
WidescreenStoryboard: 1

[Editor]
DistanceSpacing: 0.8
BeatDivisor: 4
GridSize: 4
TimelineZoom: 1.6

[Metadata]
Title:Sweet Surrender (TV Size)
TitleUnicode:Sweet Surrender (TV Size)
Artist:Hotaru (CV: Ohashi Ayaka)
ArtistUnicode:螢(CV: 大橋彩香)
Creator:ML-ysg
Version:Normal
Source:SHINE POST
Tags:Savageeeee pop j-pop jpop japanese idol anime シャインポスト ヤマダヒロシ yamada hiroshi 齋藤真也 saito shinya さいとう しんや insert song
BeatmapID:3745522
BeatmapSetID:1825116

[Difficulty]
HPDrainRate:7
CircleSize:4
OverallDifficulty:7
ApproachRate:5
SliderMultiplier:1.4
SliderTickRate:1

[Events]
//Background and Video events
0,0,"shine.jpg",0,0
//Break Periods
//Storyboard Layer 0 (Background)
//Storyboard Layer 1 (Fail)
//Storyboard Layer 2 (Pass)
//Storyboard Layer 3 (Foreground)
//Storyboard Layer 4 (Overlay)
//Storyboard Sound Samples
Sample,16842,0,"Hat Open.wav",20
Sample,17010,0,"Hat Open.wav",20
Sample,18190,0,"Hat Open.wav",20
Sample,18359,0,"Hat Open.wav",20
Sample,19523,0,"Hat Open.wav",20
Sample,19691,0,"Hat Open.wav",20
Sample,20871,0,"Hat Open.wav",20
Sample,22388,0,"Hat Open.wav",20
Sample,23568,0,"Hat Open.wav",20
Sample,23736,0,"Hat Open.wav",20
Sample,24916,0,"Hat Open.wav",20
Sample,25084,0,"Hat Open.wav",20
Sample,27613,0,"Hat Close.wav",50
Sample,27950,0,"Hat Close.wav",50
Sample,28287,0,"Hat Close.wav",50
Sample,28624,0,"Hat Close.wav",50
Sample,28961,0,"Hat Close.wav",50
Sample,29298,0,"Hat Close.wav",50
Sample,29635,0,"Hat Close.wav",50
Sample,29972,0,"Hat Close.wav",50
Sample,30309,0,"Hat Close.wav",50
Sample,30646,0,"Hat Close.wav",50
Sample,30983,0,"Hat Close.wav",50
Sample,31320,0,"Hat Close.wav",50
Sample,31657,0,"Hat Close.wav",50
Sample,31995,0,"Hat Close.wav",50
Sample,32669,0,"Hat Close.wav",50
Sample,33006,0,"Hat Close.wav",50
Sample,33343,0,"Hat Close.wav",50
Sample,33680,0,"Hat Close.wav",50
Sample,34017,0,"Hat Close.wav",50
Sample,34354,0,"Hat Close.wav",50
Sample,34691,0,"Hat Open.wav",20
Sample,35028,0,"Tom2.wav",50
Sample,35534,0,"Hat Open2.wav",35
Sample,35871,0,"Hat Open2.wav",35
Sample,38399,0,"Hat Close.wav",50
Sample,39073,0,"Hat Close.wav",50
Sample,39747,0,"Hat Close.wav",50
Sample,39916,0,"Hat Close.wav",50
Sample,40422,0,"Hat Close.wav",50
Sample,41096,0,"Hat Close.wav",50
Sample,41770,0,"Hat Close.wav",50
Sample,42444,0,"Hat Close.wav",50
Sample,42781,0,"Hat Open.wav",20
Sample,43961,0,"Hat Open.wav",20
Sample,46489,0,"Hat Open.wav",20
Sample,46657,0,"Hat Open.wav",20
Sample,47332,0,"Hat Open.wav",20
Sample,47669,0,"Hat Open.wav",10
Sample,48006,0,"Hat Open.wav",20
Sample,50534,0,"Ride.wav",30
Sample,51882,0,"Ride.wav",30
Sample,54579,0,"Ride.wav",30
Sample,59635,0,"Tom3.wav",50
Sample,59804,0,"Tom3.wav",50
Sample,59972,0,"Tom3.wav",50
Sample,60141,0,"Tom3.wav",50
Sample,62669,0,"Hat Open.wav",20
Sample,62837,0,"Hat Open.wav",20
Sample,64017,0,"Hat Open.wav",20
Sample,64186,0,"Hat Open.wav",20
Sample,65365,0,"Hat Open.wav",20
Sample,66714,0,"Hat Open.wav",20
Sample,66882,0,"Hat Open.wav",20
Sample,68062,0,"Hat Open.wav",20
Sample,69410,0,"Hat Open.wav",20
Sample,70759,0,"Hat Open.wav",20
Sample,70927,0,"Hat Open.wav",20
Sample,72107,0,"Tom2.wav",50
Sample,82051,0,"Hat Open.wav",20
Sample,83736,0,"Tom3.wav",50
Sample,83905,0,"Tom3.wav",50
Sample,84073,0,"Tom3.wav",50
Sample,84242,0,"Tom3.wav",50
Sample,84410,0,"Tom3.wav",50
Sample,84747,0,"Tom3.wav",50

[TimingPoints]
1352,337.078651685393,4,2,1,60,1,0
15500,324.324324324324,4,2,1,60,1,0
15500,-104.166666666667,4,2,1,60,0,0
16168,337.078651685393,4,2,1,60,1,0
18512,337.078651685393,4,2,1,60,1,0
18849,337.078651685393,4,2,1,60,1,0
61826,-100.0,4,2,1,60,0,1
84916,-100.0,4,2,1,60,0,0

[HitObjects]
192,192,1014,128,0,1352:0:0:0:0:
320,192,1352,128,0,2026:0:0:0:0:
64,192,2026,128,0,2700:0:0:0:0:
192,192,2531,1,0,0:0:0:0:
448,192,2700,128,0,3374:0:0:0:0:
320,192,3037,1,0,0:0:0:0:
64,192,3205,1,0,0:0:0:0:
192,192,3374,128,0,4048:0:0:0:0:
320,192,3543,1,0,0:0:0:0:
64,192,3880,1,0,0:0:0:0:
320,192,4048,128,0,4722:0:0:0:0:
448,192,4722,128,0,5396:0:0:0:0:
64,192,5059,1,0,0:0:0:0:
192,192,5396,128,0,6071:0:0:0:0:
320,192,5734,1,0,0:0:0:0:
448,192,5902,1,0,0:0:0:0:
64,192,6071,128,0,6745:0:0:0:0:
320,192,6239,1,0,0:0:0:0:
448,192,6576,1,0,0:0:0:0:
320,192,6745,128,0,7419:0:0:0:0:
192,192,7419,128,0,8093:0:0:0:0:
448,192,8093,128,0,8767:0:0:0:0:
64,192,8767,128,0,9441:0:0:0:0:
320,192,9441,128,0,13486:0:0:0:0:
64,192,10116,1,0,0:0:0:0:
192,192,10790,128,0,14835:0:0:0:0:
64,192,15500,1,2,0:0:0:0:
448,192,15500,1,0,0:0:0:50:Tom2.wav
320,192,15662,1,8,0:0:0:0:
64,192,15824,1,2,0:0:0:0:
192,192,15824,1,8,0:0:0:0:
320,192,15986,1,8,0:0:0:0:
192,192,16168,1,4,0:0:0:0:
448,192,16168,128,2,16505:0:0:0:0:
64,192,16505,128,8,16842:0:0:0:0:
320,192,16505,1,0,0:0:0:20:Hat Open.wav
192,192,16842,1,2,0:0:0:0:
320,192,17010,1,2,0:0:0:0:
64,192,17179,1,8,0:0:0:0:
448,192,17179,1,0,0:0:0:0:
192,192,17347,128,4,17684:0:0:0:0:
320,192,17347,1,2,0:0:0:0:
448,192,17684,1,2,0:0:0:0:
64,192,17853,1,8,0:0:0:0:
320,192,17853,1,0,0:0:0:20:Hat Open.wav
192,192,18190,1,2,0:0:0:0:
320,192,18359,1,2,0:0:0:0:
64,192,18512,1,8,0:0:0:0:
448,192,18512,1,0,0:0:0:0:
192,192,18680,1,2,0:0:0:0:
320,192,18680,128,4,19017:0:0:0:0:
64,192,19017,1,2,0:0:0:0:
192,192,19186,1,8,0:0:0:0:
448,192,19186,1,0,0:0:0:20:Hat Open.wav
320,192,19523,1,2,0:0:0:0:
64,192,19691,1,2,0:0:0:0:
320,192,19860,1,8,0:0:0:0:
448,192,19860,1,0,0:0:0:0:
64,192,20028,128,4,20365:0:0:0:0:
192,192,20028,1,2,0:0:0:0:
448,192,20365,1,2,0:0:0:0:
192,192,20534,1,8,0:0:0:0:
320,192,20534,1,0,0:0:0:20:Hat Open.wav
64,192,20702,1,0,0:0:0:0:
448,192,20871,1,2,0:0:0:0:
320,192,21040,1,2,0:0:0:0:
64,192,21208,1,8,0:0:0:0:
192,192,21208,1,0,0:0:0:20:Hat Open.wav
320,192,21377,1,8,0:0:0:0:
448,192,21377,1,0,0:0:0:0:
64,192,21545,1,2,0:0:0:0:
448,192,21545,1,4,0:0:0:0:
192,192,21882,128,10,22219:0:0:0:0:
320,192,21882,1,4,0:0:0:0:
448,192,22219,1,0,0:0:0:20:Hat Open.wav
64,192,22388,1,2,0:0:0:0:
192,192,22556,1,8,0:0:0:0:
320,192,22556,1,0,0:0:0:0:
64,192,22725,1,4,0:0:0:0:
448,192,22725,128,2,23062:0:0:0:0:
192,192,23062,1,2,0:0:0:0:
64,192,23231,1,8,0:0:0:0:
320,192,23231,1,0,0:0:0:20:Hat Open.wav
192,192,23568,1,2,0:0:0:0:
320,192,23736,1,2,0:0:0:0:
192,192,23905,1,8,0:0:0:0:
448,192,23905,1,0,0:0:0:0:
64,192,24073,128,4,24410:0:0:0:0:
320,192,24073,1,2,0:0:0:0:
448,192,24410,1,2,0:0:0:0:
192,192,24579,1,8,0:0:0:0:
320,192,24579,1,0,0:0:0:20:Hat Open.wav
64,192,24916,1,2,0:0:0:0:
192,192,25084,1,2,0:0:0:0:
320,192,25253,1,8,0:0:0:0:
448,192,25253,1,0,0:0:0:0:
64,192,25422,1,4,0:0:0:0:
192,192,25422,128,2,25759:0:0:0:0:
320,192,25759,1,2,0:0:0:0:
64,192,25927,1,4,0:0:0:0:
448,192,25927,1,8,0:0:0:0:
192,192,26096,1,2,0:0:0:0:
320,192,26264,1,8,0:0:0:0:
448,192,26264,1,0,0:0:0:50:Tom3.wav
64,192,26433,1,8,0:0:0:0:
192,192,26433,1,0,0:0:0:50:Tom3.wav
64,192,26938,128,4,27275:0:0:0:0:
448,192,26938,1,2,0:0:0:0:
320,192,27275,1,2,0:0:0:0:
192,192,27444,1,0,0:0:0:0:
448,192,27613,128,2,27950:0:0:0:0:
64,192,27950,1,2,0:0:0:0:
320,192,28118,1,0,0:0:0:30:Hat Close.wav
192,192,28287,128,2,28624:0:0:0:0:
448,192,28624,1,2,0:0:0:0:
64,192,28792,1,0,0:0:0:30:Hat Close.wav
320,192,28961,128,2,29129:0:0:0:0:
192,192,29298,1,2,0:0:0:0:
448,192,29466,1,0,0:0:0:30:Hat Close.wav
64,192,29635,128,2,29972:0:0:0:0:
320,192,29972,1,2,0:0:0:0:
192,192,30141,128,0,30309:0:0:0:30:Hat Close.wav
448,192,30309,1,2,0:0:0:0:
320,192,30478,128,0,30646:0:0:0:30:Hat Close.wav
64,192,30646,1,2,0:0:0:0:
448,192,30815,1,0,0:0:0:30:Hat Close.wav
192,192,30983,128,2,31657:0:0:0:0:
320,192,31320,1,2,0:0:0:0:
448,192,31657,1,2,0:0:0:0:
64,192,31995,1,2,0:0:0:0:
320,192,32163,1,0,0:0:0:30:Hat Close.wav
64,192,32332,128,2,32500:0:0:0:0:
192,192,32332,1,4,0:0:0:30:soft-hitfinish.wav
448,192,32669,1,2,0:0:0:0:
192,192,32837,128,0,33174:0:0:0:30:Hat Close.wav
320,192,33006,1,2,0:0:0:0:
448,192,33174,128,0,33343:0:0:0:30:Hat Close.wav
64,192,33343,1,2,0:0:0:0:
320,192,33511,128,0,34017:0:0:0:30:Hat Close.wav
192,192,33680,1,2,0:0:0:0:
64,192,34017,1,2,0:0:0:0:
448,192,34186,1,0,0:0:0:30:Hat Close.wav
192,192,34354,128,2,34691:0:0:0:0:
320,192,34691,1,2,0:0:0:0:
64,192,34860,1,0,0:0:0:0:
448,192,35028,128,2,35365:0:0:0:0:
192,192,35365,1,8,0:0:0:0:
320,192,35365,1,0,0:0:0:0:
64,192,35534,128,2,35702:0:0:0:0:
192,192,35871,128,2,36040:0:0:0:0:
64,192,36040,1,8,0:0:0:0:
448,192,36040,1,0,0:0:0:0:
192,192,36208,1,4,0:0:0:0:
320,192,36208,128,2,36545:0:0:0:0:
64,192,36545,1,2,0:0:0:0:
192,192,36714,1,8,0:0:0:0:
448,192,36714,1,0,0:0:0:20:Hat Open.wav
320,192,36882,1,2,0:0:0:0:
64,192,37051,1,4,0:0:0:0:
192,192,37051,1,8,0:0:0:0:
448,192,37219,1,2,0:0:0:0:
64,192,37388,1,8,0:0:0:0:
320,192,37388,1,0,0:0:0:0:
192,192,37556,1,8,0:0:0:0:
64,192,37725,128,4,38062:0:0:0:0:
448,192,37725,1,2,0:0:0:0:
320,192,38062,1,8,0:0:0:0:
448,192,38062,1,0,0:0:0:50:Hat Close.wav
192,192,38231,1,0,0:0:0:0:
320,192,38399,128,2,38736:0:0:0:0:
64,192,38568,1,2,0:0:0:0:
192,192,38736,1,8,0:0:0:0:
448,192,38736,1,0,0:0:0:50:Hat Close.wav
320,192,38905,1,0,0:0:0:0:
448,192,39073,128,2,39410:0:0:0:0:
64,192,39410,1,8,0:0:0:0:
192,192,39410,1,0,0:0:0:50:Hat Close.wav
320,192,39579,1,0,0:0:0:50:Hat Close.wav
192,192,39747,128,2,39916:0:0:0:0:
448,192,39916,1,2,0:0:0:0:
64,192,40084,1,8,0:0:0:0:
320,192,40084,1,0,0:0:0:50:Hat Close.wav
192,192,40253,1,0,0:0:0:50:Hat Close.wav
64,192,40422,128,2,40759:0:0:0:0:
192,192,40759,1,8,0:0:0:0:
320,192,40759,1,0,0:0:0:50:Hat Close.wav
448,192,40927,128,0,41096:0:0:0:50:Hat Close.wav
64,192,41096,1,2,0:0:0:0:
320,192,41264,128,2,41433:0:0:0:0:
64,192,41433,1,8,0:0:0:0:
192,192,41433,1,0,0:0:0:50:Hat Close.wav
448,192,41601,1,0,0:0:0:50:Hat Close.wav
192,192,41770,128,2,42107:0:0:0:0:
320,192,42107,128,8,42444:0:0:0:0:
448,192,42107,1,0,0:0:0:50:Hat Close.wav
64,192,42444,128,2,42781:0:0:0:0:
192,192,42613,1,2,0:0:0:0:
448,192,42781,128,8,43118:0:0:0:0:
320,192,42950,1,8,0:0:0:0:
64,192,43118,1,4,0:0:0:0:
192,192,43118,128,2,43455:0:0:0:0:
320,192,43455,128,8,43792:0:0:0:0:
448,192,43455,1,0,0:0:0:50:Hat Close.wav
64,192,43792,1,4,0:0:0:0:
192,192,43792,1,2,0:0:0:0:
448,192,43961,1,2,0:0:0:0:
192,192,44129,1,8,0:0:0:0:
320,192,44129,1,0,0:0:0:0:
64,192,44298,128,2,44635:0:0:0:0:
448,192,44298,1,4,0:0:0:0:
320,192,44635,1,2,0:0:0:0:
192,192,44804,1,8,0:0:0:0:
448,192,44804,1,0,0:0:0:0:
64,192,44972,1,4,0:0:0:0:
320,192,44972,128,2,45309:0:0:0:0:
192,192,45309,1,2,0:0:0:0:
64,192,45478,1,8,0:0:0:0:
448,192,45478,1,0,0:0:0:20:Hat Open.wav
320,192,45646,1,8,0:0:0:0:
64,192,45815,1,4,0:0:0:0:
192,192,45815,1,2,0:0:0:0:
320,192,45983,1,0,0:0:0:0:
192,192,46152,1,8,0:0:0:0:
448,192,46152,1,0,0:0:0:20:Hat Open.wav
64,192,46320,128,0,46657:0:0:0:0:
320,192,46489,1,2,0:0:0:0:
448,192,46657,1,2,0:0:0:0:
192,192,46826,1,8,0:0:0:0:
320,192,46826,1,0,0:0:0:0:
64,192,46995,1,4,0:0:0:0:
448,192,46995,128,2,47332:0:0:0:0:
192,192,47332,1,2,0:0:0:0:
64,192,47500,1,8,0:0:0:0:
320,192,47500,1,0,0:0:0:20:Hat Open.wav
448,192,47669,1,2,0:0:0:0:
64,192,47837,1,8,0:0:0:0:
192,192,47837,1,0,0:0:0:20:Hat Open.wav
320,192,48006,1,2,0:0:0:0:
192,192,48174,1,8,0:0:0:0:
448,192,48174,1,0,0:0:0:20:Hat Open.wav
64,192,48343,1,2,0:0:0:0:
320,192,48343,128,4,48680:0:0:0:0:
192,192,48680,1,2,0:0:0:0:
64,192,48848,1,8,0:0:0:0:
448,192,48848,1,0,0:0:0:20:Hat Open.wav
320,192,49017,1,2,0:0:0:0:
192,192,49186,1,0,0:0:0:50:Tom1.wav
320,192,49354,1,2,0:0:0:0:
64,192,49523,1,8,0:0:0:0:
448,192,49523,1,0,0:0:0:50:Tom3.wav
192,192,49691,1,8,0:0:0:0:
64,192,49860,128,4,50197:0:0:0:0:
320,192,49860,1,2,0:0:0:0:
192,192,50197,1,8,0:0:0:0:
448,192,50197,128,0,50534:0:0:0:30:Ride.wav
192,192,50534,128,2,50871:0:0:0:0:
320,192,50871,1,8,0:0:0:0:
448,192,50871,1,0,0:0:0:0:
64,192,51040,128,2,51377:0:0:0:0:
320,192,51377,1,2,0:0:0:0:
192,192,51545,1,8,0:0:0:0:
448,192,51545,128,0,51882:0:0:0:0:
320,192,51882,128,2,52219:0:0:0:0:
64,192,52219,1,8,0:0:0:0:
192,192,52219,1,0,0:0:0:0:
64,192,52556,1,4,0:0:0:0:
448,192,52556,128,2,52893:0:0:0:0:
192,192,52893,128,8,53231:0:0:0:0:
320,192,52893,1,0,0:0:0:30:Ride.wav
320,192,53231,128,2,53568:0:0:0:0:
64,192,53568,1,8,0:0:0:0:
192,192,53568,1,0,0:0:0:0:
448,192,53736,128,2,54073:0:0:0:0:
64,192,54073,1,2,0:0:0:0:
192,192,54242,128,8,54579:0:0:0:0:
320,192,54242,1,0,0:0:0:30:Ride.wav
64,192,54579,128,2,54916:0:0:0:0:
320,192,54916,1,8,0:0:0:0:
448,192,54916,1,4,0:0:0:0:
192,192,55253,128,4,55590:0:0:0:0:
320,192,55253,1,2,0:0:0:0:
448,192,55590,1,2,0:0:0:0:
64,192,55927,1,2,0:0:0:0:
320,192,55927,128,4,56264:0:0:0:0:
192,192,56264,1,2,0:0:0:0:
320,192,56601,1,2,0:0:0:0:
448,192,56601,1,4,0:0:0:0:
64,192,56770,1,8,0:0:0:0:
192,192,56770,1,0,0:0:0:0:
448,192,56938,1,2,0:0:0:0:
320,192,57107,1,0,0:0:0:50:Tom2.wav
64,192,57275,1,2,0:0:0:0:
192,192,57444,1,0,0:0:0:50:Tom3.wav
320,192,57613,1,8,0:0:0:0:
448,192,57613,1,4,0:0:0:0:
64,192,57950,1,4,0:0:0:0:
448,192,57950,1,8,0:0:0:0:
192,192,58118,1,2,0:0:0:0:
320,192,58287,1,2,0:0:0:0:
64,192,58455,1,8,0:0:0:0:
192,192,58455,1,0,0:0:0:50:Tom1.wav
448,192,58624,1,2,0:0:0:0:
320,192,58792,1,2,0:0:0:0:
64,192,58961,1,8,0:0:0:0:
448,192,58961,1,0,0:0:0:50:Tom2.wav
192,192,59129,1,2,0:0:0:0:
64,192,59298,1,8,0:0:0:0:
320,192,59298,1,4,0:0:0:0:
448,192,59466,1,0,0:0:0:50:Tom3.wav
64,192,59635,1,2,0:0:0:0:
192,192,59635,1,8,0:0:0:20:soft-hitclap.wav
192,192,59804,1,8,0:0:0:25:soft-hitclap.wav
320,192,59972,1,2,0:0:0:0:
448,192,59972,1,8,0:0:0:30:soft-hitclap.wav
320,192,60141,1,8,0:0:0:40:soft-hitclap.wav
64,192,60309,1,8,0:0:0:50:soft-hitclap.wav
192,192,60309,1,0,0:0:0:50:Tom3.wav
320,192,60478,1,8,0:0:0:0:
448,192,60478,1,0,0:0:0:50:Tom3.wav
192,192,60815,1,0,0:0:0:0:
192,192,60983,1,0,0:0:0:0:
448,192,61320,1,0,0:0:0:0:
448,192,61489,1,0,0:0:0:0:
64,192,61826,1,4,0:0:0:0:
320,192,61826,128,2,62163:0:0:0:0:
192,192,62163,1,2,0:0:0:0:
64,192,62332,1,8,0:0:0:0:
448,192,62332,1,0,0:0:0:0:
320,192,62669,1,2,0:0:0:0:
192,192,62837,1,2,0:0:0:0:
64,192,63006,1,8,0:0:0:0:
320,192,63006,1,0,0:0:0:0:
192,192,63174,1,4,0:0:0:0:
448,192,63174,128,2,63511:0:0:0:0:
64,192,63511,1,2,0:0:0:0:
192,192,63680,1,8,0:0:0:0:
320,192,63680,1,0,0:0:0:20:Hat Open.wav
448,192,63848,1,0,0:0:0:0:
64,192,64017,1,2,0:0:0:0:
192,192,64186,1,2,0:0:0:0:
320,192,64354,1,8,0:0:0:0:
448,192,64354,1,0,0:0:0:0:
64,192,64523,128,4,64860:0:0:0:0:
192,192,64523,1,2,0:0:0:0:
448,192,64860,1,2,0:0:0:0:
192,192,65028,1,8,0:0:0:0:
320,192,65028,1,0,0:0:0:20:Hat Open.wav
448,192,65365,1,2,0:0:0:0:
64,192,65534,1,2,0:0:0:0:
320,192,65702,1,8,0:0:0:0:
448,192,65702,1,0,0:0:0:20:Hat Open.wav
64,192,65871,1,4,0:0:0:0:
192,192,65871,128,2,66208:0:0:0:0:
320,192,66208,1,2,0:0:0:0:
64,192,66377,1,8,0:0:0:0:
448,192,66377,1,0,0:0:0:20:Hat Open.wav
192,192,66545,1,0,0:0:0:0:
448,192,66714,1,2,0:0:0:0:
320,192,66882,1,2,0:0:0:0:
64,192,67051,1,8,0:0:0:0:
192,192,67051,1,0,0:0:0:0:
320,192,67219,128,4,67556:0:0:0:0:
448,192,67219,1,2,0:0:0:0:
64,192,67556,1,2,0:0:0:0:
192,192,67725,1,8,0:0:0:0:
448,192,67725,1,0,0:0:0:20:Hat Open.wav
64,192,67893,128,0,68231:0:0:0:0:
320,192,68062,1,2,0:0:0:0:
448,192,68231,1,2,0:0:0:0:
192,192,68399,128,8,68736:0:0:0:0:
320,192,68399,1,0,0:0:0:20:Hat Open.wav
64,192,68736,1,4,0:0:0:0:
448,192,68736,128,2,69073:0:0:0:0:
64,192,69073,1,8,0:0:0:0:
192,192,69073,1,0,0:0:0:20:Hat Open.wav
320,192,69242,128,0,69579:0:0:0:0:
192,192,69410,1,2,0:0:0:0:
64,192,69579,1,2,0:0:0:0:
192,192,69747,1,8,0:0:0:0:
448,192,69747,1,4,0:0:0:0:
320,192,69916,1,8,0:0:0:0:
64,192,70084,128,4,70422:0:0:0:0:
192,192,70084,1,2,0:0:0:0:
320,192,70422,1,8,0:0:0:0:
448,192,70422,1,0,0:0:0:20:Hat Open.wav
192,192,70590,1,0,0:0:0:0:
448,192,70759,128,2,71096:0:0:0:0:
64,192,70927,1,2,0:0:0:0:
192,192,71096,1,8,0:0:0:0:
320,192,71096,1,0,0:0:0:0:
64,192,71264,128,4,71601:0:0:0:0:
448,192,71264,1,2,0:0:0:0:
320,192,71601,1,2,0:0:0:0:
192,192,71770,1,8,0:0:0:0:
448,192,71770,1,0,0:0:0:20:Hat Open.wav
64,192,71938,1,0,0:0:0:0:
320,192,72107,128,2,72444:0:0:0:0:
64,192,72444,1,8,0:0:0:0:
192,192,72444,128,2,72781:0:0:0:0:
320,192,72781,1,4,0:0:0:0:
448,192,72781,128,2,73792:0:0:0:0:
64,192,73118,1,10,0:0:0:0:
192,192,73455,1,2,0:0:0:0:
64,192,73792,1,8,0:0:0:0:
320,192,73792,1,2,0:0:0:0:
192,192,73961,1,0,0:0:0:20:Hat Open.wav
320,192,74129,128,2,74466:0:0:0:0:
64,192,74466,1,8,0:0:0:0:
448,192,74466,1,2,0:0:0:0:
192,192,74635,128,0,74804:0:0:0:20:Hat Open.wav
320,192,74804,1,2,0:0:0:0:
448,192,74972,128,0,75141:0:0:0:20:Hat Open.wav
64,192,75141,1,2,0:0:0:0:
192,192,75141,1,8,0:0:0:0:
320,192,75309,1,0,0:0:0:20:Hat Open.wav
64,192,75478,128,2,76152:0:0:0:0:
448,192,75815,1,10,0:0:0:0:
320,192,76152,1,2,0:0:0:0:
64,192,76489,1,8,0:0:0:0:
192,192,76489,128,2,76826:0:0:0:0:
448,192,76826,128,2,77163:0:0:0:0:
64,192,77163,1,8,0:0:0:0:
320,192,77163,1,2,0:0:0:0:
192,192,77332,128,0,77500:0:0:0:20:Hat Open.wav
448,192,77500,1,2,0:0:0:0:
64,192,77669,128,0,77837:0:0:0:20:Hat Open.wav
192,192,77837,1,2,0:0:0:0:
320,192,77837,1,8,0:0:0:0:
448,192,78006,1,0,0:0:0:20:Hat Open.wav
64,192,78174,1,2,0:0:0:0:
192,192,78174,128,4,78511:0:0:0:0:
320,192,78511,1,2,0:0:0:0:
448,192,78511,1,8,0:0:0:0:
64,192,78848,1,2,0:0:0:0:
320,192,78848,128,0,79523:0:0:0:0:
448,192,79186,1,10,0:0:0:0:
64,192,79523,1,2,0:0:0:0:
192,192,79523,128,0,80197:0:0:0:0:
448,192,79860,1,10,0:0:0:0:
64,192,80197,128,2,80534:0:0:0:0:
320,192,80197,1,0,0:0:0:0:
192,192,80534,1,2,0:0:0:0:
448,192,80534,1,8,0:0:0:0:
320,192,80871,1,2,0:0:0:0:
448,192,80871,128,0,82556:0:0:0:0:
64,192,81208,1,10,0:0:0:0:
192,192,81545,1,2,0:0:0:0:
320,192,81882,1,10,0:0:0:0:
64,192,82051,1,8,0:0:0:0:
192,192,82219,1,2,0:0:0:0:
64,192,82556,128,10,82893:0:0:0:0:
320,192,82556,1,4,0:0:0:0:
448,192,82893,1,2,0:0:0:0:
192,192,83231,1,2,0:0:0:0:
320,192,83399,1,8,0:0:0:0:
64,192,83568,1,4,0:0:0:0:
448,192,83568,1,2,0:0:0:0:
192,192,83736,1,8,0:0:0:20:soft-hitclap.wav
64,192,83905,1,2,0:0:0:0:
320,192,83905,1,8,0:0:0:25:soft-hitclap.wav
448,192,84073,1,8,0:0:0:30:soft-hitclap.wav
64,192,84242,1,2,0:0:0:0:
192,192,84242,1,8,0:0:0:40:soft-hitclap.wav
320,192,84410,1,8,0:0:0:50:soft-hitclap.wav
64,192,84579,1,8,0:0:0:0:
448,192,84579,1,0,0:0:0:50:Tom3.wav
192,192,84747,1,8,0:0:0:0:
320,192,84747,1,0,0:0:0:35:Hat Open2.wav
448,192,85422,1,0,0:0:0:0:
64,192,85590,1,0,0:0:0:0:
192,192,85969,1,0,0:0:0:0:
320,192,86138,1,0,0:0:0:0:
64,192,86475,128,0,88792:0:0:0:0:
