osu file format v14

[General]
AudioFilename: audio.mp3
AudioLeadIn: 0
PreviewTime: 214696
Countdown: 0
SampleSet: Soft
StackLeniency: 0.7
Mode: 0
LetterboxInBreaks: 0
WidescreenStoryboard: 1

[Editor]
Bookmarks: 214696,247167,348814
DistanceSpacing: 1.8
BeatDivisor: 8
GridSize: 4
TimelineZoom: 1

[Metadata]
Title:Overcome (This Time)
TitleUnicode:Overcome (This Time)
Artist:Hot Date! & Chrisson
ArtistUnicode:Hot Date! & Chrisson
Creator:DTM9 Nowa
Version:Exertion
Source:
Tags:dance drum and bass dnb d&b dubstep drumstep electro Monstercat 006 Embrace
BeatmapID:1407731
BeatmapSetID:656787

[Difficulty]
HPDrainRate:6
CircleSize:4
OverallDifficulty:8
ApproachRate:9.2
SliderMultiplier:1.6
SliderTickRate:1

[Events]
//Background and Video events
0,0,"eksdee.jpg",0,0
//Break Periods
//Storyboard Layer 0 (Background)
//Storyboard Layer 1 (Fail)
//Storyboard Layer 2 (Pass)
//Storyboard Layer 3 (Foreground)
//Storyboard Sound Samples

[TimingPoints]
1520,352.941176470588,4,2,1,50,1,0
12814,-200,4,2,1,50,0,0
45284,-133.333333333333,4,2,1,50,0,0
47402,-200,4,2,1,50,0,0
48108,-133.333333333333,4,2,1,50,0,0
50578,-200,4,2,1,50,0,0
50931,-133.333333333333,4,2,1,50,0,0
53402,-200,4,2,1,50,0,0
53755,-133.333333333333,4,2,1,50,0,0
59049,-200,4,2,1,50,0,0
59402,-133.333333333333,4,2,1,50,0,0
61872,-200,4,2,1,50,0,0
62225,-133.333333333333,4,2,1,50,0,0
64696,-200,4,2,1,50,0,0
65049,-133.333333333333,4,2,1,50,0,0
66461,-181.818181818182,4,2,1,50,0,0
67872,-181.818181818182,4,2,1,30,0,0
68402,-285.714285714286,4,2,1,50,0,0
69637,-200,4,2,3,50,0,0
73343,-100,4,2,3,40,0,0
74931,-100,4,2,3,30,0,0
79167,-83.3333333333333,4,2,1,70,0,0
90108,-66.6666666666667,4,2,1,70,0,0
90461,-83.3333333333333,4,2,1,70,0,0
98931,-111.111111111111,4,2,1,70,0,0
101049,-83.3333333333333,4,2,1,70,0,0
101755,-90.9090909090909,4,2,1,60,0,0
121519,-133.333333333333,4,2,1,60,0,0
129284,-83.3333333333333,4,2,1,60,0,0
129990,-133.333333333333,4,2,1,60,0,0
135284,-66.6666666666667,4,2,1,60,0,0
135637,-100,4,2,1,60,0,0
137755,-200,4,2,1,60,0,0
138461,-100,4,2,1,60,0,0
140578,-66.6666666666667,4,2,1,60,0,0
141284,-100,4,2,1,60,0,0
166696,-133.333333333333,4,2,1,60,0,0
168814,-100,4,2,1,60,0,0
169167,-133.333333333333,4,2,1,50,0,0
169519,-133.333333333333,4,2,1,25,0,0
170049,-133.333333333333,4,2,1,50,0,0
179402,-133.333333333333,4,2,69,50,0,0
180814,-133.333333333333,4,2,1,50,0,0
185578,-111.111111111111,4,2,1,50,0,0
186284,-133.333333333333,4,2,1,50,0,0
186990,-111.111111111111,4,2,1,50,0,0
187519,-133.333333333333,4,2,1,50,0,0
189284,-133.333333333333,4,2,1,60,0,0
191755,-200,4,2,1,60,0,0
192108,-66.6666666666667,4,2,11,70,0,1
192814,-90.9090909090909,4,2,1,70,0,1
194931,-166.666666666667,4,2,1,70,0,1
196343,-100,4,2,1,70,0,1
196696,-166.666666666667,4,2,1,70,0,1
197049,-50,4,2,1,70,0,1
197402,-66.6666666666667,4,2,1,70,0,1
197755,-166.666666666667,4,2,1,70,0,1
200578,-153.846153846153,4,2,1,70,0,1
202696,-100,4,2,1,70,0,1
203049,-66.6666666666667,4,2,1,70,0,1
203225,-50,4,2,1,70,0,1
203402,-66.6666666666667,4,2,1,70,0,1
204108,-90.9090909090909,4,2,1,70,0,1
205519,-100,4,2,1,70,0,1
207990,-200,4,2,1,70,0,1
208343,-50,4,2,1,70,0,1
208696,-66.6666666666667,4,2,1,70,0,1
209049,-166.666666666667,4,2,1,70,0,1
211872,-200,4,2,1,70,0,1
212578,-166.666666666667,4,2,1,70,0,1
213461,-133.333333333333,4,2,1,70,0,1
214696,-133.333333333333,4,2,1,50,0,0
217167,-200,4,2,1,50,0,0
217519,-133.333333333333,4,2,1,50,0,0
219990,-200,4,2,1,50,0,0
220343,-133.333333333333,4,2,1,50,0,0
222814,-200,4,2,1,50,0,0
223167,-133.333333333333,4,2,1,50,0,0
228461,-200,4,2,1,50,0,0
228814,-133.333333333333,4,2,1,50,0,0
231284,-200,4,2,1,50,0,0
231637,-133.333333333333,4,2,1,50,0,0
234108,-200,4,2,1,50,0,0
234461,-133.333333333333,4,2,1,50,0,0
235872,-181.818181818182,4,2,1,50,0,0
237284,-285.714285714286,4,2,1,30,0,0
237814,-285.714285714286,4,2,1,50,0,0
239049,-285.714285714286,4,2,3,50,0,0
240108,-181.818181818182,4,2,3,50,0,0
241519,-133.333333333333,4,2,3,50,0,0
242931,-100,4,2,3,50,0,0
244343,-100,4,2,3,40,0,0
245049,-100,4,2,3,30,0,0
247872,-133.333333333333,4,2,3,45,0,0
248402,-66.6666666666667,4,2,3,75,0,0
248578,-83.3333333333333,4,2,1,75,0,1
259519,-66.6666666666667,4,2,1,75,0,1
259872,-83.3333333333333,4,2,1,75,0,1
268343,-111.111111111111,4,2,1,75,0,1
269931,-200,4,2,1,75,0,1
270461,-83.3333333333333,4,2,1,75,0,1
271167,-90.9090909090909,4,2,1,60,0,0
282108,-133.333333333333,4,2,1,60,0,0
282461,-90.9090909090909,4,2,1,60,0,0
290931,-133.333333333333,4,2,1,60,0,0
298696,-83.3333333333333,4,2,1,60,0,0
299402,-133.333333333333,4,2,1,60,0,0
304696,-66.6666666666667,4,2,1,60,0,0
305049,-100,4,2,1,60,0,0
307167,-200,4,2,1,60,0,0
307872,-100,4,2,1,60,0,0
310343,-66.6666666666667,4,2,1,60,0,0
310696,-100,4,2,1,60,0,0
336108,-133.333333333333,4,2,1,60,0,0
338049,-133.333333333333,4,2,1,30,0,0
338225,-133.333333333333,4,2,1,50,0,0
338931,-133.333333333333,4,2,69,5,0,0
339461,-285.714285714286,4,2,2,40,0,0
339549,-285.714285714286,4,2,2,25,0,0
339814,-285.714285714286,4,2,2,22,0,0
340167,-285.714285714286,4,2,2,19,0,0
340519,-285.714285714286,4,2,2,16,0,0
340872,-285.714285714286,4,2,2,13,0,0
341225,-285.714285714286,4,2,2,27,0,0
341578,-285.714285714286,4,2,2,22,0,0
343343,-285.714285714286,4,2,2,20,0,0
343696,-285.714285714286,4,2,2,18,0,0
344049,-285.714285714286,4,2,2,17,0,0
344402,-285.714285714286,4,2,2,16,0,0
344755,-285.714285714286,4,2,2,13,0,0
346519,-285.714285714286,4,2,2,10,0,0
346872,-285.714285714286,4,2,2,9,0,0
347225,-285.714285714286,4,2,2,8,0,0
347578,-285.714285714286,4,2,2,7,0,0
347931,-285.714285714286,4,2,2,6,0,0
348725,-285.714285714286,4,2,69,5,0,0

[Colours]
Combo1 : 128,0,255
Combo2 : 128,255,255
Combo3 : 0,0,255

[HitObjects]
185,89,12814,5,2,0:0:0:0:
185,89,13167,2,0,L|200:217,1,120,2|0,0:0|0:0,0:0:0:0:
261,270,13872,2,0,P|333:224|375:226,1,120,2|0,0:0|0:0,0:0:0:0:
425,273,14578,1,2,0:0:0:0:
425,273,14755,2,0,L|434:311,2,40,2|0|0,0:0|0:0|0:0,0:0:0:0:
364,224,15284,1,2,0:0:0:0:
403,156,15461,1,2,0:0:0:0:
346,111,15637,5,2,0:0:0:0:
346,111,15990,2,0,B|306:122|306:122|214:113,1,120,2|0,0:0|0:0,0:0:0:0:
142,170,16696,1,2,0:0:0:0:
142,170,16872,2,0,L|187:175,2,40,2|0|0,0:0|0:0|0:0,0:0:0:0:
75,228,17402,1,2,0:0:0:0:
75,228,17578,2,0,L|30:223,2,40,2|0|0,0:0|0:0|0:0,0:0:0:0:
135,293,18108,5,2,0:0:0:0:
135,293,18284,2,0,P|141:328|141:349,2,40,2|0|0,0:0|0:0|0:0,0:0:0:0:
175,213,18814,1,2,0:0:0:0:
175,213,18990,2,0,P|176:193|181:173,2,40,2|0|0,0:0|0:0|0:0,0:0:0:0:
246,284,19519,1,2,0:0:0:0:
330,229,19696,1,2,0:0:0:0:
416,314,19872,1,0,0:0:0:0:
416,314,20225,5,2,0:0:0:0:
463,153,20402,1,2,0:0:0:0:
416,226,20578,1,0,0:0:0:0:
416,226,20931,5,2,0:0:0:0:
255,179,21108,1,2,0:0:0:0:
345,172,21284,1,0,0:0:0:0:
345,172,21637,5,2,0:0:0:0:
152,222,21814,1,2,0:0:0:0:
177,138,21990,1,0,0:0:0:0:
177,138,22343,5,2,0:0:0:0:
221,364,22519,1,2,0:0:0:0:
65,225,22696,1,4,0:0:0:0:
65,225,24108,6,0,P|61:251|57:268,1,40,2|0,0:0|0:0,0:0:0:0:
102,332,24461,2,0,P|162:308|215:318,1,120,2|0,0:0|0:0,0:0:0:0:
285,275,25167,2,0,P|356:304|435:279,1,160,2|0,0:0|0:0,0:0:0:0:
432,280,26931,6,0,P|426:256|413:229,1,40,2|0,0:0|0:0,0:0:0:0:
302,201,27284,2,0,P|296:220|284:330,1,120,2|0,0:0|0:0,0:0:0:0:
197,382,27990,2,0,P|177:329|50:344,1,200,2|0,0:0|0:0,0:0:0:0:
59,340,29402,1,2,0:0:0:0:
59,340,29578,6,0,B|66:275|54:219|54:219|66:239|86:254,1,160,2|0,0:0|0:0,0:0:0:0:
177,217,30461,2,0,P|180:188|178:165,1,40,2|0,0:0|0:0,0:0:0:0:
95,96,30814,2,0,P|94:115|97:135,1,40,2|0,0:0|0:0,0:0:0:0:
225,39,31167,2,0,B|108:21|108:21|134:30|151:44,2,160,2|2|0,0:0|0:0|0:0,0:0:0:0:
225,39,32931,5,2,0:0:0:0:
372,11,33108,1,2,0:0:0:0:
310,73,33284,1,0,0:0:0:0:
310,73,33637,5,2,0:0:0:0:
453,126,33814,1,2,0:0:0:0:
236,172,33990,1,4,0:0:0:0:
236,172,35402,6,0,P|239:193|239:217,1,40,2|0,0:0|0:0,0:0:0:0:
317,241,35755,2,0,P|319:196|329:161,1,80,2|0,0:0|0:0,0:0:0:0:
372,46,36461,2,0,P|265:67|180:32,1,200,2|0,0:0|0:0,0:0:0:0:
183,34,38225,6,0,P|163:14|152:-3,1,40,2|0,0:0|0:0,0:0:0:0:
77,29,38578,2,0,P|80:76|71:110,1,80,2|0,0:0|0:0,0:0:0:0:
24,259,39284,2,0,P|92:245|193:253,1,160,2|0,0:0|0:0,0:0:0:0:
271,274,40696,1,2,0:0:0:0:
270,285,40872,1,2,0:0:0:0:
246,185,41049,6,0,L|235:61,1,120,2|0,0:0|0:0,0:0:0:0:
311,21,41755,2,0,P|333:37|349:44,1,40,2|0,0:0|0:0,0:0:0:0:
152,34,42108,2,0,P|133:53|118:63,1,40,2|0,0:0|0:0,0:0:0:0:
246,185,42461,6,0,P|403:166|410:166,2,160,2|2|0,0:0|0:0|0:0,0:0:0:0:
111,138,44314,2,0,L|113:158,1,20,2|0,0:0|0:0,0:0:0:0:
176,197,44490,2,0,L|174:217,1,20,2|0,0:0|0:0,0:0:0:0:
120,291,44667,2,0,P|134:322|140:354,1,60,2|0,0:0|0:0,0:0:0:0:
281,257,45108,1,2,0:0:0:0:
120,291,45284,5,14,0:0:0:0:
120,291,45637,1,2,0:0:0:0:
51,214,45814,6,0,B|54:160|16:102|16:102|77:127|134:111|134:111|209:89|249:137|238:182|218:214|164:228|126:177,1,480.000018310548,2|0,0:0|0:0,0:0:0:0:
137,189,47402,1,2,0:0:0:0:
178,289,47755,6,0,P|181:310|178:339,1,40,14|0,0:0|0:0,0:0:0:0:
333,157,48108,6,0,B|401:180|501:190|540:102|493:32|432:27|366:52|369:112|426:178|426:178|490:276|432:356|432:356|402:327|421:283,1,675.000025749207,14|0,0:0|0:0,0:0:0:0:
410,280,50225,1,2,0:0:0:0:
302,344,50578,6,0,P|287:339|255:340,1,40,14|0,0:0|0:0,0:0:0:0:
35,334,50931,6,0,B|52:268|15:173|15:173|72:268|173:279|173:279|219:148|148:85|148:85|120:129|157:183,1,660.000025177003,14|0,0:0|0:0,0:0:0:0:
148,169,53049,1,2,0:0:0:0:
173,278,53402,6,0,P|168:297|161:316,1,40,14|0,0:0|0:0,0:0:0:0:
352,360,53755,6,0,B|298:265|282:188|302:91|394:71|454:93|484:153|459:205,1,420.000016021729,14|0,0:0|0:0,0:0:0:0:
228,225,55167,6,0,B|222:111|301:-17|461:9|522:90,1,420.000016021729,14|0,0:0|0:0,0:0:0:0:
512,240,56578,6,0,B|475:288|485:350|485:350|453:293|389:270|389:270|313:254|284:200|305:150|358:127|410:147|419:214|389:269|389:269|347:324|356:381,1,660.000025177003,14|0,0:0|0:0,0:0:0:0:
228,271,58696,2,0,P|227:256|223:241,1,30.0000011444092,2|0,0:0|0:0,0:0:0:0:
149,344,58872,2,0,P|145:358|144:373,1,30.0000011444092,2|0,0:0|0:0,0:0:0:0:
58,300,59049,6,0,P|40:307|20:310,1,40,14|0,0:0|0:0,0:0:0:0:
183,155,59402,6,0,B|205:100|181:33|122:2|122:2|65:54|73:139|129:207|129:207|164:258|149:343|149:343|174:283|238:269,1,660.000025177003,14|0,0:0|0:0,0:0:0:0:
339,320,61519,2,0,P|345:334|349:355,1,30.0000011444092,2|0,0:0|0:0,0:0:0:0:
370,229,61696,2,0,P|364:215|360:200,1,30.0000011444092,2|0,0:0|0:0,0:0:0:0:
480,317,61872,6,0,P|452:304|427:297,1,40,14|0,0:0|0:0,0:0:0:0:
228,271,62225,6,0,B|280:183|216:101|216:101|264:137|333:129|372:69|372:69|335:3|277:-6|215:24|215:24|155:43|100:22,1,660.000025177003,14|0,0:0|0:0,0:0:0:0:
3,97,64343,2,0,P|27:101|39:105,1,30.0000011444092
114,173,64519,2,0,P|99:176|84:178,1,30.0000011444092
217,101,64696,6,0,P|228:117|237:135,1,40,14|0,0:0|0:0,0:0:0:0:
291,305,65049,6,0,P|406:196|360:349,1,420.000016021729,14|0,0:0|0:0,0:0:0:0:
204,290,66461,6,0,P|250:152|442:122,1,352.000010742188,14|0,0:0|0:0,0:0:0:0:
435,119,68402,6,0,P|382:90|332:27,1,139.999995727539
333,28,69637,6,0,P|340:67|333:112,1,80,8|0,0:0|0:0,0:0:0:0:
304,125,70078,2,0,P|302:142|302:159,2,30,0|0|8,0:0|0:0|0:0,0:0:0:0:
242,4,70696,5,0,0:0:0:0:
164,62,71049,2,0,P|123:53|82:51,1,80,8|0,0:0|0:0,0:0:0:0:
61,63,71490,2,0,L|52:30,2,30,0|0|8,0:0|0:0|0:0,0:0:0:0:
102,212,72108,6,0,L|112:252,1,40
143,365,72461,1,8,0:0:0:0:
143,365,72814,1,0,0:0:0:0:
165,353,72902,1,0,0:0:0:0:
189,346,72990,1,0,0:0:0:0:
213,341,73078,1,0,0:0:0:0:
238,340,73167,2,0,P|270:344|282:347,1,40,8|0,0:0|0:0,0:0:0:0:
429,324,73520,5,2,0:0:0:0:
452,230,73697,1,0,0:0:0:0:
344,304,73873,5,10,0:0:0:0:
371,191,74050,1,0,0:0:0:0:
260,322,74226,6,0,L|251:267,1,40,2|0,0:0|0:0,0:0:0:0:
212,165,74403,2,0,L|221:220,1,40,2|0,0:0|0:0,0:0:0:0:
277,345,74579,5,10,0:0:0:0:
195,142,74756,1,0,0:0:0:0:
71,285,74932,5,2,0:0:0:0:
128,99,75109,1,0,0:0:0:0:
78,304,75285,5,10,0:0:0:0:
120,81,75462,1,0,0:0:0:0:
257,198,75638,6,0,L|201:206,1,40,2|0,0:0|0:0,0:0:0:0:
44,192,75814,2,0,L|108:182,1,40,2|0,0:0|0:0,0:0:0:0:
285,210,75991,5,10,0:0:0:0:
16,180,76167,1,0,0:0:0:0:
256,192,76343,12,0,78990,0:0:0:0:
170,304,79167,6,0,P|227:291|300:294,1,95.9999970703126,4|0,0:0|0:0,0:0:0:0:
464,362,79519,1,8,0:0:0:0:
405,157,79696,2,0,P|386:219|378:264,1,95.9999970703126,2|0,0:0|0:0,0:0:0:0:
313,56,80049,1,2,0:0:0:0:
380,249,80225,1,8,0:0:0:0:
497,145,80402,1,0,0:0:0:0:
296,173,80578,6,0,P|251:169|190:160,1,95.9999970703126,2|0,0:0|0:0,0:0:0:0:
34,58,80931,1,10,0:0:0:0:
63,249,81108,2,0,P|82:208|104:150,1,95.9999970703126,2|0,0:0|0:0,0:0:0:0:
136,6,81461,1,2,0:0:0:0:
2,160,81637,1,10,0:0:0:0:
160,231,81814,1,2,0:0:0:0:
272,79,81990,6,0,L|300:192,1,95.9999970703126,2|0,0:0|0:0,0:0:0:0:
179,345,82343,1,10,0:0:0:0:
64,223,82519,2,0,P|111:224|159:230,1,95.9999970703126,2|0,0:0|0:0,0:0:0:0:
311,291,82872,1,2,0:0:0:0:
272,79,83049,1,10,0:0:0:0:
233,214,83225,1,2,0:0:0:0:
372,180,83402,6,0,P|425:178|487:186,1,95.9999970703126,2|0,0:0|0:0,0:0:0:0:
173,135,83755,1,10,0:0:0:0:
242,310,83931,2,0,P|241:262|233:214,1,95.9999970703126,2|0,0:0|0:0,0:0:0:0:
83,92,84284,1,2,0:0:0:0:
100,304,84461,1,10,0:0:0:0:
0,194,84637,1,2,0:0:0:0:
137,219,84814,6,0,P|188:220|246:212,1,95.9999970703126,2|0,0:0|0:0,0:0:0:0:
387,96,85167,1,10,0:0:0:0:
345,282,85343,2,0,P|336:224|336:184,1,95.9999970703126,2|0,0:0|0:0,0:0:0:0:
442,205,85696,1,2,0:0:0:0:
232,214,85872,1,10,0:0:0:0:
287,105,86049,1,2,0:0:0:0:
345,282,86225,6,0,P|353:329|354:377,1,95.9999970703126,2|0,0:0|0:0,0:0:0:0:
109,261,86578,1,10,0:0:0:0:
232,214,86755,2,0,P|184:206|132:180,1,95.9999970703126,2|0,0:0|0:0,0:0:0:0:
64,87,87108,1,2,0:0:0:0:
109,261,87284,2,0,P|106:305|100:363,1,95.9999970703126,10|2,0:0|0:0,0:0:0:0:
232,214,87637,6,0,P|241:125|327:71,1,191.999994140625,2|8,0:0|0:0,0:0:0:0:
407,99,88167,1,0,0:0:0:0:
206,32,88343,2,0,P|147:25|96:10,1,95.9999970703126,2|0,0:0|0:0,0:0:0:0:
28,159,88696,2,0,P|74:147|122:142,1,95.9999970703126,10|0,0:0|0:0,0:0:0:0:
231,214,89049,6,0,P|157:269|152:362,1,191.999994140625,2|8,0:0|0:0,0:0:0:0:
252,320,89578,1,2,0:0:0:0:
39,251,89755,1,8,0:0:0:0:
54,255,89843,1,8,0:0:0:0:
68,260,89931,1,8,0:0:0:0:
231,214,90108,2,0,P|262:143|185:168,1,180.000006866455,10|0,0:0|0:0,0:0:0:0:
149,224,90461,6,0,L|161:336,1,95.9999970703126,2|0,0:0|0:0,0:0:0:0:
74,80,90814,1,10,0:0:0:0:
190,149,90990,2,0,P|237:153|302:128,1,95.9999970703126,2|0,0:0|0:0,0:0:0:0:
428,64,91343,1,2,0:0:0:0:
227,31,91519,1,10,0:0:0:0:
335,1,91696,1,2,0:0:0:0:
283,139,91872,6,0,P|276:194|276:242,1,95.9999970703126,2|0,0:0|0:0,0:0:0:0:
494,186,92225,1,10,0:0:0:0:
389,288,92402,2,0,P|382:233|382:185,1,95.9999970703126,2|0,0:0|0:0,0:0:0:0:
486,359,92755,1,2,0:0:0:0:
279,310,92931,1,10,0:0:0:0:
389,288,93108,1,2,0:0:0:0:
187,349,93284,6,0,P|150:328|96:313,1,95.9999970703126,2|0,0:0|0:0,0:0:0:0:
157,143,93637,1,10,0:0:0:0:
288,214,93814,2,0,P|338:207|381:192,1,95.9999970703126,2|0,0:0|0:0,0:0:0:0:
187,349,94167,1,2,0:0:0:0:
257,113,94343,1,10,0:0:0:0:
156,248,94519,1,2,0:0:0:0:
288,214,94696,6,0,P|338:218|382:231,1,95.9999970703126,2|0,0:0|0:0,0:0:0:0:
175,364,95049,1,10,0:0:0:0:
136,238,95225,2,0,P|142:184|159:137,1,95.9999970703126,2|0,0:0|0:0,0:0:0:0:
262,310,95578,1,2,0:0:0:0:
49,292,95755,1,10,0:0:0:0:
175,364,95931,1,2,0:0:0:0:
118,228,96108,6,0,P|126:174|146:128,1,95.9999970703126,2|0,0:0|0:0,0:0:0:0:
352,226,96461,1,10,0:0:0:0:
262,310,96637,2,0,P|246:258|242:208,1,95.9999970703126,2|0,0:0|0:0,0:0:0:0:
419,314,96990,1,2,0:0:0:0:
175,364,97167,1,10,0:0:0:0:
336,379,97343,1,2,0:0:0:0:
242,216,97519,6,0,L|262:310,1,95.9999970703126,2|0,0:0|0:0,0:0:0:0:
283,69,97872,1,10,0:0:0:0:
143,118,98049,2,0,P|90:123|38:121,1,95.9999970703126,2|0,0:0|0:0,0:0:0:0:
242,216,98402,1,2,0:0:0:0:
181,5,98578,1,10,0:0:0:0:
143,118,98755,1,2,0:0:0:0:
283,69,98931,6,0,L|427:81,1,143.999995605469,2|0,0:0|0:0,0:0:0:0:
430,90,99461,1,0,0:0:0:0:
324,285,99637,2,0,P|304:215|325:138,1,143.999995605469,10|0,0:0|0:0,0:0:0:0:
324,157,100167,1,2,0:0:0:0:
201,122,100343,6,0,P|224:96|261:74,1,71.9999978027344,2|0,0:0|0:0,0:0:0:0:
133,195,100696,2,0,P|119:162|115:120,1,71.9999978027344,2|0,0:0|0:0,0:0:0:0:
133,290,101049,6,0,P|84:272|51:239,1,95.9999970703126,8|0,0:0|0:0,0:0:0:0:
379,290,101402,2,0,P|428:272|461:239,1,95.9999970703126,8|0,0:0|0:0,0:0:0:0:
256,106,101755,6,0,L|256:197,1,88.000002685547,6|0,0:0|0:0,0:0:0:0:
320,2,102108,1,10,0:0:0:0:
163,47,102284,2,0,P|115:47|70:34,1,88.000002685547,2|0,0:0|0:0,0:0:0:0:
256,106,102637,1,0,0:0:0:0:
107,223,102814,1,10,0:0:0:0:
193,242,102990,1,2,0:0:0:0:
86,126,103167,6,0,L|-2:145,1,88.000002685547
61,306,103519,1,10,0:0:0:0:
193,242,103696,2,0,L|106:223,1,88.000002685547,2|0,0:0|0:0,0:0:0:0:
288,312,104049,1,2,0:0:0:0:
328,112,104225,1,10,0:0:0:0:
398,286,104402,1,2,0:0:0:0:
427,144,104578,6,0,P|428:102|409:53,1,88.000002685547,2|0,0:0|0:0,0:0:0:0:
226,137,104931,1,8,0:0:0:0:
315,195,105108,2,0,P|330:153|327:110,1,88.000002685547,2|0,0:0|0:0,0:0:0:0:
224,19,105461,1,0,0:0:0:0:
101,205,105637,1,10,0:0:0:0:
60,110,105814,1,2,0:0:0:0:
200,225,105990,6,0,P|210:274|209:330,1,88.000002685547
328,112,106343,1,10,0:0:0:0:
421,204,106519,2,0,P|470:211|528:213,1,88.000002685547,2|0,0:0|0:0,0:0:0:0:
315,281,106872,1,0,0:0:0:0:
410,117,107049,2,0,P|421:158|419:211,1,88.000002685547,10|2,0:0|0:0,0:0:0:0:
238,134,107402,6,0,P|237:90|248:47,1,88.000002685547,2|0,0:0|0:0,0:0:0:0:
315,281,107755,1,10,0:0:0:0:
112,232,107931,2,0,L|210:224,1,88.000002685547,2|0,0:0|0:0,0:0:0:0:
21,302,108284,1,0,0:0:0:0:
78,121,108461,1,10,0:0:0:0:
112,232,108638,1,2,0:0:0:0:
0,195,108814,6,0,P|-9:143|8:92,1,88.000002685547
103,313,109167,1,10,0:0:0:0:
199,224,109343,2,0,P|244:210|300:201,1,88.000002685547,2|0,0:0|0:0,0:0:0:0:
421,219,109696,1,2,0:0:0:0:
225,118,109872,1,10,0:0:0:0:
347,262,110049,1,2,0:0:0:0:
345,90,110225,6,0,P|356:43|375:5,1,88.000002685547
284,202,110578,1,10,0:0:0:0:
155,162,110755,2,0,P|108:156|43:154,1,88.000002685547,2|0,0:0|0:0,0:0:0:0:
196,274,111108,1,0,0:0:0:0:
241,86,111284,1,10,0:0:0:0:
284,202,111461,1,2,0:0:0:0:
145,67,111637,6,0,P|113:33|87:-4,1,88.000002685547,2|0,0:0|0:0,0:0:0:0:
155,162,111990,1,10,0:0:0:0:
241,86,112167,1,2,0:0:0:0:
56,142,112343,1,8,0:0:0:0:
56,142,112431,1,8,0:0:0:0:
56,142,112519,1,8,0:0:0:0:
49,229,112696,2,0,P|62:191|56:131,1,88.000002685547,10|2,0:0|0:0,0:0:0:0:
190,331,113049,6,0,P|226:306|269:297,1,88.000002685547,2|0,0:0|0:0,0:0:0:0:
49,229,113402,1,10,0:0:0:0:
101,375,113578,2,0,L|116:265,1,88.000002685547,2|0,0:0|0:0,0:0:0:0:
139,137,113931,1,0,0:0:0:0:
26,309,114108,1,10,0:0:0:0:
190,331,114284,1,2,0:0:0:0:
282,206,114461,6,0,P|238:212|196:224,1,88.000002685547
416,312,114814,1,10,0:0:0:0:
440,184,114990,2,0,L|429:85,1,88.000002685547,2|0,0:0|0:0,0:0:0:0:
511,272,115343,1,2,0:0:0:0:
332,370,115519,1,10,0:0:0:0:
492,345,115696,1,2,0:0:0:0:
289,285,115872,6,0,L|183:265,1,88.000002685547,2|0,0:0|0:0,0:0:0:0:
0,221,116225,1,10,0:0:0:0:
172,116,116402,2,0,P|170:174|150:224,1,88.000002685547,2|0,0:0|0:0,0:0:0:0:
83,283,116755,1,0,0:0:0:0:
16,61,116931,1,10,0:0:0:0:
172,116,117108,1,2,0:0:0:0:
358,22,117284,6,0,P|336:60|332:104,1,88.000002685547,2|0,0:0|0:0,0:0:0:0:
412,315,117637,1,10,0:0:0:0:
512,228,117814,2,0,P|480:199|439:182,1,88.000002685547,2|0,0:0|0:0,0:0:0:0:
308,319,118167,1,0,0:0:0:0:
215,146,118343,1,10,0:0:0:0:
215,146,118519,2,0,L|219:192,1,44.0000013427735,2|0,0:0|0:0,0:0:0:0:
308,319,118696,6,0,L|320:229,1,88.000002685547,2|2,0:0|0:0,0:0:0:0:
97,262,119049,1,10,0:0:0:0:
192,334,119225,1,2,0:0:0:0:
192,334,119314,1,2,0:0:0:0:
192,334,119402,1,2,0:0:0:0:
219,190,119578,1,2,0:0:0:0:
82,380,119755,1,10,0:0:0:0:
209,205,119931,1,2,0:0:0:0:
192,334,120108,5,2,0:0:0:0:
124,174,120284,1,2,0:0:0:0:
284,330,120461,1,10,0:0:0:0:
82,380,120637,1,2,0:0:0:0:
82,380,120725,1,2,0:0:0:0:
82,380,120814,1,2,0:0:0:0:
284,330,120990,1,2,0:0:0:0:
1,252,121167,1,10,0:0:0:0:
209,205,121343,1,2,0:0:0:0:
209,205,121431,1,2,0:0:0:0:
209,205,121519,6,0,L|406:227,1,180.000006866455,2|2,0:0|0:0,0:0:0:0:
387,224,122225,1,8,0:0:0:0:
60,192,122755,1,2,0:0:0:0:
60,192,123108,2,0,P|66:147|61:113,2,60.0000022888184
111,288,123637,1,8,0:0:0:0:
111,288,123990,1,8,0:0:0:0:
227,214,124343,6,0,P|280:198|358:181,1,120.000004577637
343,183,124872,1,0,0:0:0:0:
163,132,125049,2,0,P|104:118|46:101,1,120.000004577637,8|0,0:0|0:0,0:0:0:0:
47,101,125578,1,0,0:0:0:0:
176,45,125755,1,0,0:0:0:0:
176,45,125931,2,0,P|229:29|307:12,1,120.000004577637
427,115,126461,6,0,L|418:154,1,30.0000011444092,10|0,0:0|0:0,0:0:0:0:
430,257,126637,2,0,L|421:218,1,30.0000011444092,2|0,0:0|0:0,0:0:0:0:
359,93,126814,2,0,L|350:132,1,30.0000011444092,2|0,0:0|0:0,0:0:0:0:
362,279,126990,2,0,L|353:240,1,30.0000011444092,2|0,0:0|0:0,0:0:0:0:
277,188,127167,6,0,P|223:172|146:155,1,120.000004577637
160,157,127696,1,0,0:0:0:0:
74,323,127873,2,0,P|132:309|190:292,1,120.000004577637,8|0,0:0|0:0,0:0:0:0:
189,292,128402,1,0,0:0:0:0:
14,161,128578,1,0,0:0:0:0:
14,161,128755,2,0,P|5:220|0:280,1,120.000004577637
196,343,129284,6,0,P|197:325|188:280,1,47.9999985351563,10|0,0:0|0:0,0:0:0:0:
306,180,129461,1,2,0:0:0:0:
300,209,129549,1,2,0:0:0:0:
300,239,129637,2,0,P|302:262|309:285,1,47.9999985351563,10|0,0:0|0:0,0:0:0:0:
177,112,129814,2,0,P|178:94|169:49,1,47.9999985351563,2|0,0:0|0:0,0:0:0:0:
282,0,129990,6,0,P|344:12|412:17,1,120.000004577637
400,16,130519,1,0,0:0:0:0:
498,104,130696,2,8,P|456:151|418:208,1,120.000004577637,8|0,0:0|0:0,0:0:0:0:
424,198,131225,1,0,0:0:0:0:
300,239,131402,1,0,0:0:0:0:
300,239,131578,2,0,P|279:179|249:117,1,120.000004577637
178,15,132108,5,10,0:0:0:0:
162,118,132284,2,0,L|154:161,4,40.000001525879
143,104,132814,6,0,P|86:100|15:89,1,120.000004577637
23,90,133343,1,0,0:0:0:0:
151,235,133519,2,0,P|210:226|270:221,1,120.000004577637,8|0,0:0|0:0,0:0:0:0:
270,220,134048,1,0,0:0:0:0:
350,317,134225,5,0,0:0:0:0:
256,307,134402,1,0,0:0:0:0:
256,307,134931,5,10,0:0:0:0:
423,258,135108,1,2,0:0:0:0:
431,282,135196,1,2,0:0:0:0:
436,306,135284,2,0,L|423:371,1,60.0000022888184,10|0,0:0|0:0,0:0:0:0:
316,191,135461,2,0,L|303:125,1,60.0000022888184,10|0,0:0|0:0,0:0:0:0:
454,10,135637,6,0,B|417:27|392:75|392:75|369:45|317:24,1,160,4|0,0:0|0:0,0:0:0:0:
338,33,136167,1,0,0:0:0:0:
475,213,136343,2,0,B|493:150|473:95|473:95|461:116|471:148,1,160,8|0,0:0|0:0,0:0:0:0:
475,213,136872,1,0,0:0:0:0:
304,132,137049,1,0,0:0:0:0:
304,132,137225,2,0,B|260:114|260:114|127:137,1,160
10,280,137755,5,10,0:0:0:0:
114,311,137931,2,0,L|120:346,4,26.6666666666667,0|0|2|0|0,0:0|0:0|0:0|0:0|0:0,0:0:0:0:
108,288,138461,6,0,P|136:211|224:184,1,160
203,182,138990,1,0,0:0:0:0:
360,283,139167,2,0,B|308:298|308:298|204:281,1,160,8|0,0:0|0:0,0:0:0:0:
203,280,139696,1,0,0:0:0:0:
311,174,139872,1,0,0:0:0:0:
311,174,140049,2,0,B|303:221|303:221|273:100,1,160
207,284,140578,5,8,0:0:0:0:
122,112,140755,1,2,0:0:0:0:
110,150,140843,1,2,0:0:0:0:
97,188,140931,2,0,L|82:229,6,30.0000011444092,10|0|0|0|0|0|0,0:0|0:0|0:0|0:0|0:0|0:0|0:0,0:0:0:0:
46,290,141284,6,0,P|23:200|-2:132,1,160
0,137,141814,1,0,0:0:0:0:
217,205,141990,2,0,B|298:226|298:226|385:210,1,160,8|0,0:0|0:0,0:0:0:0:
373,212,142519,1,0,0:0:0:0:
476,85,142696,1,0,0:0:0:0:
476,85,142872,2,0,P|483:131|511:243,1,160
286,235,143402,5,10,0:0:0:0:
337,325,143578,2,0,L|348:382,4,53.3333333333333
320,306,144108,6,0,P|234:331|148:307,1,160
166,316,144637,1,0,0:0:0:0:
213,97,144814,2,0,B|242:142|242:142|229:265,1,160,8|0,0:0|0:0,0:0:0:0:
124,175,145343,1,0,0:0:0:0:
395,199,145519,5,8,0:0:0:0:
231,248,145696,1,0,0:0:0:0:
350,93,145872,1,8,0:0:0:0:
348,307,146049,1,0,0:0:0:0:
341,281,146137,1,0,0:0:0:0:
332,255,146225,1,8,0:0:0:0:
512,121,146402,1,0,0:0:0:0:
505,147,146490,1,0,0:0:0:0:
496,173,146578,1,8,0:0:0:0:
256,64,146755,1,8,0:0:0:0:
435,0,146931,6,0,P|445:41|451:105,1,80,6|0,0:0|0:0,0:0:0:0:
292,205,147284,1,10,0:0:0:0:
189,107,147461,2,0,P|226:78|283:59,1,80,2|0,0:0|0:0,0:0:0:0:
155,246,147814,1,0,0:0:0:0:
69,57,147990,1,10,0:0:0:0:
189,107,148167,1,2,0:0:0:0:
23,171,148343,6,0,P|65:157|110:150,1,80
239,274,148696,1,10,0:0:0:0:
275,115,148872,2,0,P|262:152|252:191,1,80,2|0,0:0|0:0,0:0:0:0:
402,105,149225,1,0,0:0:0:0:
189,23,149402,1,10,0:0:0:0:
275,115,149578,1,2,0:0:0:0:
392,26,149755,6,0,P|432:16|471:14,1,80
345,205,150108,1,10,0:0:0:0:
183,143,150284,2,0,P|140:134|87:128,1,80,2|0,0:0|0:0,0:0:0:0:
335,71,150637,1,0,0:0:0:0:
235,250,150814,1,10,0:0:0:0:
104,129,150990,1,2,0:0:0:0:
82,322,151167,6,0,P|104:282|114:249,1,80
0,78,151519,1,10,0:0:0:0:
104,129,151696,2,0,P|148:128|215:113,1,80,2|0,0:0|0:0,0:0:0:0:
315,47,152049,1,0,0:0:0:0:
119,11,152225,1,10,0:0:0:0:
183,122,152402,1,2,0:0:0:0:
315,47,152578,6,0,P|301:91|294:130,1,80
346,313,152931,1,10,0:0:0:0:
461,250,153108,2,0,P|416:237|356:242,1,80,2|0,0:0|0:0,0:0:0:0:
226,293,153461,1,0,0:0:0:0:
419,145,153637,1,10,0:0:0:0:
294,124,153814,1,2,0:0:0:0:
226,293,153990,6,0,P|213:254|197:218,1,80
52,331,154343,1,10,0:0:0:0:
17,228,154519,2,0,P|23:188|37:150,1,80,2|0,0:0|0:0,0:0:0:0:
159,351,154872,1,0,0:0:0:0:
333,235,155049,1,10,0:0:0:0:
293,358,155225,1,2,0:0:0:0:
198,219,155402,6,0,P|200:170|214:122,1,80
159,351,155755,1,10,0:0:0:0:
86,267,155931,2,0,P|44:239|-2:222,1,80,2|0,0:0|0:0,0:0:0:0:
159,351,156284,1,0,0:0:0:0:
271,191,156461,1,10,0:0:0:0:
354,310,156637,1,2,0:0:0:0:
488,254,156814,6,0,L|408:243,1,80
309,90,157167,1,10,0:0:0:0:
415,72,157343,1,2,0:0:0:0:
271,191,157519,1,8,0:0:0:0:
271,191,157608,1,8,0:0:0:0:
271,191,157696,1,8,0:0:0:0:
185,17,157872,1,10,0:0:0:0:
293,4,158049,1,2,0:0:0:0:
89,171,158225,6,0,P|94:131|104:92,1,80
170,276,158578,1,10,0:0:0:0:
271,191,158755,2,0,P|325:182|358:183,1,80,2|0,0:0|0:0,0:0:0:0:
180,117,159108,1,0,0:0:0:0:
271,292,159284,1,10,0:0:0:0:
350,182,159461,1,2,0:0:0:0:
170,276,159637,6,0,P|127:276|68:263,1,80
322,364,159990,1,10,0:0:0:0:
350,182,160167,1,2,0:0:0:0:
350,182,160343,2,0,P|356:226|379:283,1,80
180,117,160696,2,0,P|192:78|197:39,1,80,10|2,0:0|0:0,0:0:0:0:
37,136,161049,6,0,P|41:175|54:213,1,80
197,39,161402,1,10,0:0:0:0:
327,87,161578,2,0,P|364:82|419:79,1,80,2|0,0:0|0:0,0:0:0:0:
213,186,161931,1,0,0:0:0:0:
293,1,162108,1,10,0:0:0:0:
406,79,162284,1,2,0:0:0:0:
344,218,162461,6,0,P|336:260|333:318,1,80
246,91,162814,1,10,0:0:0:0:
132,200,162990,1,2,0:0:0:0:
1,73,163167,2,0,P|40:73|78:86,1,80
29,272,163519,2,0,L|20:193,1,80,10|2,0:0|0:0,0:0:0:0:
147,349,163872,6,0,P|150:309|161:270,1,80
246,91,164225,1,10,0:0:0:0:
312,189,164402,2,0,P|326:226|334:265,1,80,2|0,0:0|0:0,0:0:0:0:
364,83,164755,1,0,0:0:0:0:
194,197,164931,1,10,0:0:0:0:
334,265,165108,1,2,0:0:0:0:
176,303,165284,6,0,P|130:318|84:341,1,80
334,265,165637,1,10,0:0:0:0:
194,197,165814,1,2,0:0:0:0:
398,158,165990,2,0,P|437:155|477:156,1,80
194,197,166343,2,0,P|154:198|114:194,1,80,10|2,0:0|0:0,0:0:0:0:
274,57,166696,6,0,P|286:115|293:175,1,120.000004577637,8|0,0:0|0:0,0:0:0:0:
294,176,167225,1,0,0:0:0:0:
38,227,167402,2,0,P|49:144|61:95,1,120.000004577637,8|0,0:0|0:0,0:0:0:0:
58,109,167931,1,0,0:0:0:0:
176,303,168108,1,0,0:0:0:0:
176,303,168284,2,0,P|176:340|169:375,2,60.0000022888184
294,176,168814,6,0,P|300:220|311:254,1,80,8|0,0:0|0:0,0:0:0:0:
79,35,169167,2,0,B|76:78|56:111|56:111|47:143|46:167,1,120.000004577637,8|0,0:0|0:0,0:0:0:0:
256,192,170049,12,0,179402,0:0:0:0:
146,233,180814,6,0,B|172:160|131:85|131:85|179:142|261:118|261:118|333:94|383:129,1,420.000016021729
403,284,182225,1,2,0:0:0:0:
464,134,182578,2,0,B|411:146|375:124|375:124|337:103|281:111,1,180.000006866455,2|0,0:0|0:0,0:0:0:0:
146,231,183284,2,0,B|173:162|131:85|131:85|159:119|211:126,1,240.000009155274,2|0,0:0|0:0,0:0:0:0:
325,267,184167,6,0,P|258:273|205:299,1,120.000004577637,2|2,0:0|0:0,0:0:0:0:
131,370,184696,1,2,0:0:0:0:
62,255,184872,2,0,B|63:219|81:195|81:195|67:169|71:135,1,120.000004577637,2|0,0:0|0:0,0:0:0:0:
208,61,185402,1,2,0:0:0:0:
208,61,185578,2,0,B|146:81|102:64|102:64|123:74|139:92,1,143.999995605469,2|2,0:0|0:0,0:0:0:0:
206,235,186108,1,2,0:0:0:0:
311,109,186284,2,0,B|438:130|438:130|409:131|386:150,1,180.000006866455,2|0,0:0|0:0,0:0:0:0:
317,270,186990,6,0,B|299:212|264:171|264:171|280:184|302:190,1,143.999995605469,2|2,0:0|0:0,0:0:0:0:
119,305,187519,1,2,0:0:0:0:
4,182,187696,2,0,P|84:143|173:145,1,180.000006866455,2|2,0:0|0:0,0:0:0:0:
49,253,188402,2,0,P|99:224|158:228,1,120.000004577637,2|2,0:0|0:0,0:0:0:0:
119,305,188931,1,2,0:0:0:0:
86,143,189108,1,2,0:0:0:0:
245,211,189284,5,0,0:0:0:0:
241,219,189372,1,0,0:0:0:0:
237,227,189461,1,0,0:0:0:0:
321,156,189637,5,0,0:0:0:0:
325,164,189725,1,0,0:0:0:0:
329,172,189814,1,0,0:0:0:0:
178,134,189990,5,0,0:0:0:0:
174,142,190078,1,0,0:0:0:0:
170,150,190167,1,0,0:0:0:0:
254,79,190343,5,0,0:0:0:0:
258,87,190431,1,0,0:0:0:0:
262,95,190520,1,0,0:0:0:0:
111,57,190695,5,0,0:0:0:0:
107,65,190783,1,0,0:0:0:0:
103,73,190872,1,0,0:0:0:0:
18,176,191049,5,8,0:0:0:0:
32,202,191137,1,0,0:0:0:0:
40,231,191225,1,0,0:0:0:0:
43,260,191313,1,0,0:0:0:0:
40,290,191402,2,0,L|32:328,2,30.0000011444092,0|0|0,0:0|0:0|0:0,0:0:0:0:
115,231,191667,5,0,0:0:0:0:
132,224,191755,2,0,P|159:221|178:222,1,40,8|0,0:0|0:0,0:0:0:0:
283,329,192108,6,0,B|403:377|483:237|379:165|379:165|341:185|341:237,1,360.000013732911,6|0,0:0|0:0,0:0:0:0:
487,322,192814,2,0,P|503:280|502:231,2,88.000002685547,10|2|2,0:0|0:0|0:0,0:0:0:0:
342,215,193343,1,2,0:0:0:0:
490,133,193520,5,2,0:0:0:0:
483,152,193608,1,0,0:0:0:0:
480,171,193696,1,2,0:0:0:0:
483,192,193785,1,0,0:0:0:0:
505,237,193873,5,0,0:0:0:0:
505,266,193961,1,0,0:0:0:0:
499,295,194049,1,0,0:0:0:0:
487,321,194137,1,0,0:0:0:0:
448,363,194225,5,10,0:0:0:0:
400,356,194313,1,0,0:0:0:0:
352,349,194402,1,2,0:0:0:0:
305,342,194490,1,0,0:0:0:0:
262,304,194579,5,2,0:0:0:0:
197,313,194666,1,0,0:0:0:0:
131,323,194754,1,2,0:0:0:0:
68,333,194842,1,0,0:0:0:0:
51,349,194931,6,0,P|39:302|13:262,1,95.9999970703126,2|0,0:0|0:0,0:0:0:0:
33,16,195637,2,0,P|44:62|70:102,1,95.9999970703126,10|0,0:0|0:0,0:0:0:0:
163,164,196167,1,0,0:0:0:0:
274,58,196343,6,0,L|269:111,1,40,2|0,0:0|0:0,0:0:0:0:
356,206,196519,2,0,L|359:166,1,40,2|0,0:0|0:0,0:0:0:0:
217,254,196696,6,0,L|209:331,1,71.9999978027344,2|0,0:0|0:0,0:0:0:0:
193,359,197049,6,0,P|190:313|177:266,1,80,8|0,0:0|0:0,0:0:0:0:
123,188,197225,1,2,0:0:0:0:
123,188,197313,1,2,0:0:0:0:
123,188,197402,2,0,B|123:162|106:141|106:141|137:109|137:109|105:70|117:29,1,180.000006866455,10|0,0:0|0:0,0:0:0:0:
214,85,197755,5,0,0:0:0:0:
286,47,197931,1,2,0:0:0:0:
197,162,198108,5,0,0:0:0:0:
214,85,198284,1,2,0:0:0:0:
245,226,198461,5,10,0:0:0:0:
197,162,198637,1,2,0:0:0:0:
325,228,198814,5,2,0:0:0:0:
197,309,198990,1,0,0:0:0:0:
197,309,199078,1,0,0:0:0:0:
197,309,199167,1,2,0:0:0:0:
328,232,199343,5,2,0:0:0:0:
328,232,199696,1,2,0:0:0:0:
167,231,199872,5,10,0:0:0:0:
146,240,199960,1,0,0:0:0:0:
159,205,200049,1,2,0:0:0:0:
136,207,200137,1,0,0:0:0:0:
157,177,200226,1,2,0:0:0:0:
134,172,200314,1,0,0:0:0:0:
162,149,200402,1,2,0:0:0:0:
141,137,200490,1,0,0:0:0:0:
165,117,200578,6,0,P|145:190|173:274,1,155.999992858887,2|0,0:0|0:0,0:0:0:0:
358,110,201284,2,0,P|305:95|254:109,1,103.999995239258,10|0,0:0|0:0,0:0:0:0:
373,247,201814,1,0,0:0:0:0:
500,166,201990,1,2,0:0:0:0:
500,166,202167,1,0,0:0:0:0:
500,166,202696,6,0,L|493:120,1,40,10|0,0:0|0:0,0:0:0:0:
395,42,202872,5,2,0:0:0:0:
395,42,202961,1,2,0:0:0:0:
395,42,203049,2,0,B|389:64|389:64|395:72|395:72|388:101,1,60.0000022888184,10|0,0:0|0:0,0:0:0:0:
273,237,203225,6,0,B|265:205|265:205|274:193|274:193|264:153,1,80,10|0,0:0|0:0,0:0:0:0:
170,71,203402,6,0,B|104:14|-8:75|10:190|85:223|85:223|113:201|117:156,1,360.000013732911
0,259,204108,2,0,P|26:283|76:304,2,88.000002685547,10|2|2,0:0|0:0|0:0,0:0:0:0:
114,172,204637,1,2,0:0:0:0:
177,354,204814,5,2,0:0:0:0:
209,340,204902,1,0,0:0:0:0:
244,338,204990,1,2,0:0:0:0:
278,346,205078,1,0,0:0:0:0:
329,349,205167,5,2,0:0:0:0:
366,364,205255,1,0,0:0:0:0:
406,367,205343,1,2,0:0:0:0:
445,358,205431,1,0,0:0:0:0:
484,313,205519,6,0,L|490:257,1,40,10|0,0:0|0:0,0:0:0:0:
480,101,205696,2,0,L|484:140,1,40,2|0,0:0|0:0,0:0:0:0:
394,284,205872,6,0,L|400:228,1,40,2|0,0:0|0:0,0:0:0:0:
390,72,206049,2,0,L|394:111,1,40,2|0,0:0|0:0,0:0:0:0:
270,174,206225,6,0,B|190:193|190:193|109:166,1,160,2|0,0:0|0:0,0:0:0:0:
116,168,206755,1,0,0:0:0:0:
410,256,206931,2,0,P|426:170|392:83,1,160,10|0,0:0|0:0,0:0:0:0:
310,23,207461,1,2,0:0:0:0:
211,94,207637,6,0,L|169:90,1,40,2|0,0:0|0:0,0:0:0:0:
10,147,207814,2,0,L|49:143,1,40,2|0,0:0|0:0,0:0:0:0:
140,268,207990,6,0,P|165:281|192:310,1,60,2|0,0:0|0:0,0:0:0:0:
207,345,208343,6,0,B|213:316|213:316|209:289|209:289|215:248,1,80,10|0,0:0|0:0,0:0:0:0:
265,144,208519,1,2,0:0:0:0:
265,144,208608,1,2,0:0:0:0:
265,144,208696,2,0,B|300:144|320:165|320:165|343:136|343:136|375:165|438:150,1,180.000006866455,10|0,0:0|0:0,0:0:0:0:
512,117,209049,5,2,0:0:0:0:
498,196,209225,1,0,0:0:0:0:
461,56,209402,5,2,0:0:0:0:
512,117,209578,1,0,0:0:0:0:
381,55,209755,5,10,0:0:0:0:
461,56,209931,1,0,0:0:0:0:
329,116,210108,5,2,0:0:0:0:
314,0,210284,1,0,0:0:0:0:
314,0,210372,1,0,0:0:0:0:
314,0,210461,1,2,0:0:0:0:
333,120,210637,5,2,0:0:0:0:
333,120,210990,1,2,0:0:0:0:
202,214,211167,5,10,0:0:0:0:
195,232,211255,1,0,0:0:0:0:
226,220,211343,1,2,0:0:0:0:
224,239,211431,1,0,0:0:0:0:
251,220,211519,1,2,0:0:0:0:
254,238,211607,1,0,0:0:0:0:
275,213,211696,1,2,0:0:0:0:
283,231,211784,1,0,0:0:0:0:
298,211,211872,6,0,P|356:199|425:217,1,120,2|0,0:0|0:0,0:0:0:0:
488,371,212578,2,0,P|490:325|472:266,1,95.9999970703126,8|0,0:0|0:0,0:0:0:0:
373,341,213108,1,0,0:0:0:0:
254,238,213284,1,2,0:0:0:0:
254,238,213461,2,0,B|234:198|260:163|260:163|302:226|261:300|197:327|221:384|292:401|298:346|280:317,1,360.000013732911
171,164,214696,6,0,B|186:88|263:61|315:96|315:96|355:134|439:139|464:44|409:-4|312:2|327:109|327:109|370:192|346:270,1,660.000025177003,14|0,0:0|0:0,0:0:0:0:
346,269,216814,1,2,0:0:0:0:
325,384,217167,6,0,P|323:364|325:344,1,40,14|0,0:0|0:0,0:0:0:0:
188,158,217519,6,0,B|248:185|255:318|255:318|292:117|327:55|327:55|356:12|399:7|443:37|456:69|430:115|391:119,1,660.000025177003,14|0,0:0|0:0,0:0:0:0:
399,117,219637,1,2,0:0:0:0:
231,89,219990,6,0,P|208:88|185:79,1,40,14|0,0:0|0:0,0:0:0:0:
335,245,220343,6,0,B|375:211|364:174|351:137|308:126|272:138|248:156|239:191|251:223|251:223|277:316|201:367|201:367|256:329|322:351|322:351|386:375|448:352,1,660.000025177003,14|0,0:0|0:0,0:0:0:0:
438,355,222461,1,2,0:0:0:0:
500,289,222814,6,0,P|499:267|495:243,1,40,10|0,0:0|0:0,0:0:0:0:
376,91,223167,6,0,B|311:178|247:224|150:246|94:170|90:106|133:54|190:56,1,420.000016021729,14|0,0:0|0:0,0:0:0:0:
302,258,224578,6,0,B|200:309|51:289|9:132|63:43,1,420.000016021729,14|0,0:0|0:0,0:0:0:0:
246,185,225990,6,0,B|307:158|336:37|336:37|386:98|399:205|399:205|507:151|470:37|470:37|442:76|464:141,1,660.000025177003,14|0,0:0|0:0,0:0:0:0:
512,235,228108,6,0,P|509:249|505:264,1,30.0000011444092,2|0,0:0|0:0,0:0:0:0:
450,367,228284,2,0,P|447:352|443:337,1,30.0000011444092,2|0,0:0|0:0,0:0:0:0:
280,316,228461,6,0,P|303:309|331:310,1,40,14|0,0:0|0:0,0:0:0:0:
435,231,228814,6,0,B|378:140|450:69|450:69|390:115|313:78|313:78|237:46|158:78|183:164|236:200|307:161|307:161|275:142|243:160,1,660.000025177003,14|0,0:0|0:0,0:0:0:0:
219,330,230931,2,0,P|214:313|203:296,1,30.0000011444092,2|0,0:0|0:0,0:0:0:0:
111,235,231108,2,0,P|99:247|89:265,1,30.0000011444092,2|0,0:0|0:0,0:0:0:0:
83,376,231284,6,0,P|101:380|123:379,1,40,14|0,0:0|0:0,0:0:0:0:
257,193,231637,6,0,B|213:151|136:173|111:234|111:234|145:149|115:78|115:78|95:12|182:-16|228:52|201:106|127:107|127:107|73:108|37:137,1,660.000025177003,14|0,0:0|0:0,0:0:0:0:
4,237,233755,2,0,P|0:222|0:207,1,30.0000011444092,2|0,0:0|0:0,0:0:0:0:
19,323,233931,2,0,P|17:338|14:353,1,30.0000011444092,2|0,0:0|0:0,0:0:0:0:
119,274,234108,6,0,P|112:255|111:235,1,40,14|0,0:0|0:0,0:0:0:0:
216,319,234461,6,0,B|310:332|334:237|334:237|321:310|385:350|385:350|438:313|413:229,1,420.000016021729,14|0,0:0|0:0,0:0:0:0:
254,118,235872,6,0,B|222:163|240:228|240:228|197:172|218:117|218:117|240:64|215:-1,1,352.000010742188,14|0,0:0|0:0,0:0:0:0:
303,59,237814,6,0,P|376:88|433:72,1,139.999995727539,2|2,0:0|0:0,0:0:0:0:
495,28,239049,1,8,0:0:0:0:
495,28,239402,1,0,0:0:0:0:
496,42,239490,1,0,0:0:0:0:
500,55,239578,1,0,0:0:0:0:
505,68,239666,1,0,0:0:0:0:
511,81,239754,1,8,0:0:0:0:
467,227,240108,6,0,P|464:201|454:179,1,44.0000013427735,2|0,0:0|0:0,0:0:0:0:
356,304,240461,1,8,0:0:0:0:
356,304,240814,1,0,0:0:0:0:
376,312,240902,1,0,0:0:0:0:
397,318,240990,1,0,0:0:0:0:
419,321,241078,1,0,0:0:0:0:
441,321,241167,2,0,P|473:314|496:306,1,44.0000013427735,8|0,0:0|0:0,0:0:0:0:
326,180,241519,6,0,P|314:208|314:246,1,60.0000022888184,2|0,0:0|0:0,0:0:0:0:
194,371,241872,1,8,0:0:0:0:
194,371,242225,1,0,0:0:0:0:
190,341,242313,1,0,0:0:0:0:
185,311,242401,1,0,0:0:0:0:
180,282,242489,1,0,0:0:0:0:
173,253,242578,2,0,P|153:198|144:178,1,60.0000022888184,8|0,0:0|0:0,0:0:0:0:
72,36,242931,5,2,0:0:0:0:
49,130,243108,1,0,0:0:0:0:
168,58,243284,5,10,0:0:0:0:
141,171,243461,1,0,0:0:0:0:
255,38,243637,6,0,L|264:93,1,40,2|0,0:0|0:0,0:0:0:0:
303,195,243814,2,0,L|294:140,1,40,2|0,0:0|0:0,0:0:0:0:
238,15,243990,5,10,0:0:0:0:
320,218,244167,1,0,0:0:0:0:
449,114,244343,5,2,0:0:0:0:
381,300,244520,1,0,0:0:0:0:
442,95,244696,5,10,0:0:0:0:
389,318,244873,1,0,0:0:0:0:
263,201,245049,6,0,L|327:191,1,40,2|0,0:0|0:0,0:0:0:0:
484,215,245225,2,0,L|420:225,1,40,2|0,0:0|0:0,0:0:0:0:
235,189,245402,5,10,0:0:0:0:
512,227,245578,1,0,0:0:0:0:
305,310,245755,5,2,0:0:0:0:
282,114,245931,1,0,0:0:0:0:
292,302,246108,1,2,0:0:0:0:
272,125,246284,1,0,0:0:0:0:
191,336,246461,5,2,0:0:0:0:
219,191,246637,1,0,0:0:0:0:
183,324,246814,1,2,0:0:0:0:
207,197,246990,1,0,0:0:0:0:
70,320,247167,5,2,0:0:0:0:
114,221,247343,1,0,0:0:0:0:
64,310,247520,1,2,0:0:0:0:
103,225,247696,1,0,0:0:0:0:
183,324,247872,6,0,P|224:307|278:305,1,90.0000034332277,2|0,0:0|0:0,0:0:0:0:
299,320,248225,1,2,0:0:0:0:
432,233,248402,6,0,P|418:197|415:158,1,60.0000022888184,2|0,0:0|0:0,0:0:0:0:
492,22,248578,6,0,P|489:69|474:115,1,95.9999970703126,6|0,0:0|0:0,0:0:0:0:
247,34,248931,1,10,0:0:0:0:
320,170,249108,2,0,P|353:136|378:95,1,95.9999970703126,2|0,0:0|0:0,0:0:0:0:
192,150,249461,1,2,0:0:0:0:
299,320,249637,1,10,0:0:0:0:
320,170,249814,1,2,0:0:0:0:
171,282,249990,6,0,P|119:298|68:302,1,95.9999970703126
355,252,250343,1,10,0:0:0:0:
192,151,250519,2,0,L|89:88,1,95.9999970703126,2|0,0:0|0:0,0:0:0:0:
355,253,250872,5,2,0:0:0:0:
114,113,251049,1,10,0:0:0:0:
280,283,251225,1,2,0:0:0:0:
422,146,251402,6,0,P|476:136|517:133,1,95.9999970703126,2|0,0:0|0:0,0:0:0:0:
280,283,251755,1,10,0:0:0:0:
192,151,251931,2,0,P|191:92|214:42,1,95.9999970703126,2|0,0:0|0:0,0:0:0:0:
19,143,252284,1,2,0:0:0:0:
187,307,252461,1,10,0:0:0:0:
53,270,252637,1,2,0:0:0:0:
192,151,252814,6,0,L|297:163,1,95.9999970703126,2|0,0:0|0:0,0:0:0:0:
53,270,253167,1,10,0:0:0:0:
90,92,253343,2,0,P|104:137|111:184,1,95.9999970703126,2|0,0:0|0:0,0:0:0:0:
0,15,253696,1,2,0:0:0:0:
207,74,253872,1,10,0:0:0:0:
12,192,254049,2,0,P|4:169|1:145,1,47.9999985351563,2|0,0:0|0:0,0:0:0:0:
53,270,254225,6,0,P|53:317|44:365,1,95.9999970703126,2|0,0:0|0:0,0:0:0:0:
192,151,254578,1,10,0:0:0:0:
335,230,254755,2,0,P|399:239|451:239,1,95.9999970703126,2|0,0:0|0:0,0:0:0:0:
245,300,255108,1,2,0:0:0:0:
284,79,255284,1,10,0:0:0:0:
335,230,255461,1,2,0:0:0:0:
191,150,255637,6,0,P|144:143|96:143,1,95.9999970703126
335,230,255990,1,10,0:0:0:0:
448,79,256167,2,0,P|454:126|463:173,1,95.9999970703126,2|0,0:0|0:0,0:0:0:0:
309,65,256519,1,2,0:0:0:0:
435,286,256696,1,10,0:0:0:0:
266,187,256872,1,2,0:0:0:0:
463,173,257049,6,0,P|431:261|409:377,1,191.999994140625,2|8,0:0|0:0,0:0:0:0:
509,347,257578,1,0,0:0:0:0:
299,300,257755,2,0,P|236:294|184:295,1,95.9999970703126,2|0,0:0|0:0,0:0:0:0:
367,178,258108,2,0,P|414:177|462:172,1,95.9999970703126,10|0,0:0|0:0,0:0:0:0:
217,48,258461,6,0,P|161:122|68:126,1,191.999994140625,2|8,0:0|0:0,0:0:0:0:
110,27,258990,1,0,0:0:0:0:
179,240,259167,1,8,0:0:0:0:
175,224,259255,1,8,0:0:0:0:
170,210,259343,1,8,0:0:0:0:
217,48,259519,2,0,P|288:16|263:94,1,180.000006866455,10|0,0:0|0:0,0:0:0:0:
207,129,259873,6,0,L|94:117,1,95.9999970703126,2|2,0:0|0:0,0:0:0:0:
309,225,260225,1,10,0:0:0:0:
422,107,260402,2,0,P|406:176|413:235,1,95.9999970703126,2|0,0:0|0:0,0:0:0:0:
469,348,260755,1,2,0:0:0:0:
221,321,260931,1,10,0:0:0:0:
367,311,261108,1,2,0:0:0:0:
123,367,261284,6,0,P|100:322|67:275,1,95.9999970703126,2|2,0:0|0:0,0:0:0:0:
206,84,261637,1,10,0:0:0:0:
193,231,261814,1,2,0:0:0:0:
74,146,261990,1,2,0:0:0:0:
267,163,262167,1,2,0:0:0:0:
0,214,262343,1,10,0:0:0:0:
32,59,262519,1,2,0:0:0:0:
32,59,262608,1,2,0:0:0:0:
32,59,262696,6,0,P|59:108|75:150,1,95.9999970703126,2|0,0:0|0:0,0:0:0:0:
285,23,263049,1,10,0:0:0:0:
395,141,263225,2,0,P|398:93|409:46,1,95.9999970703126,2|0,0:0|0:0,0:0:0:0:
444,278,263578,1,2,0:0:0:0:
226,192,263755,1,10,0:0:0:0:
306,306,263931,1,2,0:0:0:0:
395,141,264108,6,0,P|405:94|409:46,1,95.9999970703126
306,306,264461,1,10,0:0:0:0:
137,237,264637,2,0,P|69:231|23:234,1,95.9999970703126,2|0,0:0|0:0,0:0:0:0:
183,366,264990,1,2,0:0:0:0:
247,133,265167,1,10,0:0:0:0:
196,351,265343,1,2,0:0:0:0:
114,137,265519,6,0,P|104:86|101:36,1,95.9999970703126
229,253,265872,1,10,0:0:0:0:
381,196,266049,2,0,P|433:190|492:195,1,95.9999970703126,2|0,0:0|0:0,0:0:0:0:
247,133,266402,1,2,0:0:0:0:
352,345,266578,1,10,0:0:0:0:
381,196,266755,1,2,0:0:0:0:
209,268,266931,6,0,P|156:278|108:280,1,95.9999970703126,2|0,0:0|0:0,0:0:0:0:
196,56,267284,1,10,0:0:0:0:
330,129,267461,2,0,L|440:110,1,95.9999970703126,2|0,0:0|0:0,0:0:0:0:
288,293,267814,1,2,0:0:0:0:
196,56,267990,1,10,0:0:0:0:
330,129,268167,2,0,L|322:201,1,47.9999985351563,2|0,0:0|0:0,0:0:0:0:
221,197,268343,6,0,L|194:48,1,143.999995605469,2|0,0:0|0:0,0:0:0:0:
207,66,268873,1,0,0:0:0:0:
357,249,269049,2,0,P|407:196|484:176,1,143.999995605469,10|0,0:0|0:0,0:0:0:0:
491,178,269578,2,0,P|431:164|403:149,1,71.9999978027344,0|2,0:0|0:0,0:0:0:0:
353,15,269931,6,0,P|353:53|363:99,1,80,2|0,0:0|0:0,0:0:0:0:
278,362,270461,6,0,P|276:312|259:268,1,95.9999970703126,8|0,0:0|0:0,0:0:0:0:
55,41,270814,2,0,P|38:85|36:133,1,95.9999970703126,8|0,0:0|0:0,0:0:0:0:
313,195,271167,6,0,L|419:179,1,88.000002685547,2|0,0:0|0:0,0:0:0:0:
188,332,271519,1,10,0:0:0:0:
159,160,271696,2,0,P|192:193|213:236,1,88.000002685547,2|0,0:0|0:0,0:0:0:0:
37,134,272049,1,0,0:0:0:0:
261,49,272225,1,10,0:0:0:0:
139,23,272402,1,2,0:0:0:0:
323,148,272578,6,0,P|351:116|368:75,1,88.000002685547
429,307,272931,1,10,0:0:0:0:
305,277,273108,2,0,L|193:284,1,88.000002685547,2|0,0:0|0:0,0:0:0:0:
480,218,273461,1,0,0:0:0:0:
254,366,273637,1,10,0:0:0:0:
429,307,273814,1,2,0:0:0:0:
274,207,273990,6,0,P|199:198|147:199,1,88.000002685547,2|0,0:0|0:0,0:0:0:0:
429,307,274343,1,10,0:0:0:0:
435,141,274519,2,0,P|423:94|403:47,1,88.000002685547,2|0,0:0|0:0,0:0:0:0:
274,207,274872,1,0,0:0:0:0:
512,245,275049,1,10,0:0:0:0:
344,118,275225,1,2,0:0:0:0:
167,280,275402,6,0,P|167:236|160:193,1,88.000002685547
87,70,275755,1,10,0:0:0:0:
344,118,275931,2,0,P|300:124|257:123,1,88.000002685547,2|0,0:0|0:0,0:0:0:0:
76,159,276284,1,0,0:0:0:0:
268,35,276461,1,10,0:0:0:0:
359,211,276637,1,2,0:0:0:0:
512,41,276814,6,0,P|505:84|506:128,1,88.000002685547,2|0,0:0|0:0,0:0:0:0:
443,336,277167,1,10,0:0:0:0:
359,211,277343,2,0,P|331:177|284:141,1,88.000002685547,2|0,0:0|0:0,0:0:0:0:
114,113,277696,1,0,0:0:0:0:
360,68,277872,1,10,0:0:0:0:
275,221,278049,1,2,0:0:0:0:
190,39,278225,6,0,P|210:85|218:142,1,88.000002685547
146,335,278578,1,10,0:0:0:0:
0,232,278755,2,0,L|115:262,1,88.000002685547,2|0,0:0|0:0,0:0:0:0:
275,221,279108,1,2,0:0:0:0:
31,342,279284,1,10,0:0:0:0:
173,201,279461,1,2,0:0:0:0:
315,324,279637,6,0,P|272:318|231:301,1,88.000002685547
464,201,279990,1,10,0:0:0:0:
444,384,280167,2,0,L|418:287,1,88.000002685547,2|0,0:0|0:0,0:0:0:0:
372,121,280519,1,0,0:0:0:0:
315,324,280696,1,10,0:0:0:0:
464,201,280872,1,2,0:0:0:0:
254,147,281049,6,0,L|168:126,1,88.000002685547
385,257,281402,1,10,0:0:0:0:
470,102,281578,1,2,0:0:0:0:
334,195,281755,1,8,0:0:0:0:
334,195,281843,1,8,0:0:0:0:
334,195,281931,1,8,0:0:0:0:
476,327,282108,6,0,L|488:244,1,60.0000022888184,10|2,0:0|0:0,0:0:0:0:
347,108,282461,6,0,P|338:151|333:206,1,88.000002685547,2|0,0:0|0:0,0:0:0:0:
183,365,282814,1,10,0:0:0:0:
50,238,282990,2,0,P|91:250|134:260,1,88.000002685547,2|0,0:0|0:0,0:0:0:0:
333,194,283343,1,0,0:0:0:0:
183,365,283519,1,10,0:0:0:0:
232,203,283696,1,2,0:0:0:0:
392,277,283872,6,0,P|441:283|494:283,1,88.000002685547
183,365,284225,1,10,0:0:0:0:
232,203,284402,2,0,P|251:253|261:301,1,88.000002685547,2|0,0:0|0:0,0:0:0:0:
53,190,284755,1,2,0:0:0:0:
277,105,284931,1,10,0:0:0:0:
136,232,285107,1,2,0:0:0:0:
152,1,285284,6,0,L|147:100,1,88.000002685547,2|0,0:0|0:0,0:0:0:0:
258,286,285637,1,10,0:0:0:0:
429,190,285814,2,0,P|384:194|322:211,1,88.000002685547,2|0,0:0|0:0,0:0:0:0:
452,362,286167,1,0,0:0:0:0:
499,121,286343,1,10,0:0:0:0:
512,297,286519,1,2,0:0:0:0:
342,203,286696,6,0,P|281:192|239:191,1,88.000002685547,2|0,0:0|0:0,0:0:0:0:
86,347,287049,1,10,0:0:0:0:
104,167,287225,2,0,P|123:210|137:273,1,88.000002685547,2|0,0:0|0:0,0:0:0:0:
21,105,287578,1,0,0:0:0:0:
255,190,287755,1,10,0:0:0:0:
215,30,287931,2,0,L|212:87,1,44.0000013427735,2|0,0:0|0:0,0:0:0:0:
339,111,288108,6,0,P|392:96|455:94,1,88.000002685547,2|2,0:0|0:0,0:0:0:0:
323,299,288461,1,10,0:0:0:0:
255,190,288637,1,2,0:0:0:0:
255,190,288725,1,2,0:0:0:0:
255,190,288814,1,2,0:0:0:0:
423,284,288990,1,2,0:0:0:0:
174,349,289167,1,10,0:0:0:0:
353,212,289343,1,2,0:0:0:0:
174,349,289519,5,2,0:0:0:0:
89,195,289696,1,2,0:0:0:0:
330,374,289872,1,10,0:0:0:0:
66,307,290049,1,2,0:0:0:0:
66,307,290137,1,2,0:0:0:0:
66,307,290225,1,2,0:0:0:0:
276,242,290402,1,2,0:0:0:0:
21,166,290578,1,10,0:0:0:0:
185,360,290755,1,2,0:0:0:0:
185,360,290843,1,2,0:0:0:0:
185,360,290931,6,0,P|176:265|160:173,1,180.000006866455,2|2,0:0|0:0,0:0:0:0:
161,181,291637,1,8,0:0:0:0:
307,306,292167,1,2,0:0:0:0:
307,306,292520,2,0,P|341:296|385:295,2,60.0000022888184,2|0|0,0:0|0:0|0:0,0:0:0:0:
180,376,293049,1,8,0:0:0:0:
180,376,293402,1,8,0:0:0:0:
118,269,293755,6,0,P|65:253|-13:236,1,120.000004577637
2,238,294284,1,0,0:0:0:0:
190,183,294461,2,0,P|243:167|321:150,1,120.000004577637,8|0,0:0|0:0,0:0:0:0:
306,152,294990,1,0,0:0:0:0:
118,98,295167,1,0,0:0:0:0:
118,98,295343,2,0,P|64:85|-11:61,1,120.000004577637
243,83,295873,6,0,L|282:74,1,30.0000011444092,10|0,0:0|0:0,0:0:0:0:
385,86,296049,2,0,L|346:77,1,30.0000011444092,2|0,0:0|0:0,0:0:0:0:
221,15,296226,2,0,L|260:6,1,30.0000011444092,2|0,0:0|0:0,0:0:0:0:
407,18,296402,2,0,L|368:9,1,30.0000011444092,2|0,0:0|0:0,0:0:0:0:
157,71,296579,6,0,P|102:84|24:97,1,120.000004577637
38,95,297108,1,0,0:0:0:0:
192,199,297284,2,0,P|251:209|309:223,1,120.000004577637,8|0,0:0|0:0,0:0:0:0:
309,223,297814,1,0,0:0:0:0:
99,296,297990,1,0,0:0:0:0:
99,296,298167,2,0,P|90:237|85:177,1,120.000004577637
179,25,298696,6,0,P|180:43|171:88,1,47.9999985351563,10|0,0:0|0:0,0:0:0:0:
234,236,298873,1,2,0:0:0:0:
228,207,298961,1,2,0:0:0:0:
228,177,299049,2,0,P|230:154|237:131,1,47.9999985351563,10|0,0:0|0:0,0:0:0:0:
379,18,299225,2,0,P|376:41|369:64,1,47.9999985351563,10|0,0:0|0:0,0:0:0:0:
394,205,299402,6,0,P|456:193|524:188,1,120.000004577637
512,189,299931,1,0,0:0:0:0:
438,316,300108,2,0,P|378:310|319:299,1,120.000004577637,8|0,0:0|0:0,0:0:0:0:
320,300,300637,1,0,0:0:0:0:
242,204,300814,1,0,0:0:0:0:
242,204,300990,2,0,P|304:192|372:187,1,120.000004577637
168,283,301519,5,10,0:0:0:0:
135,184,301696,2,0,P|134:158|138:133,4,40.000001525879
143,203,302226,6,0,P|86:199|15:188,1,120.000004577637
23,189,302755,1,0,0:0:0:0:
112,61,302931,2,0,P|171:52|231:47,1,120.000004577637,8|0,0:0|0:0,0:0:0:0:
231,46,303460,1,0,0:0:0:0:
352,145,303637,5,0,0:0:0:0:
266,132,303814,1,0,0:0:0:0:
266,132,304343,5,10,0:0:0:0:
72,188,304520,1,2,0:0:0:0:
72,188,304608,1,2,0:0:0:0:
72,188,304696,2,0,P|101:183|154:194,1,60.0000022888184,10|0,0:0|0:0,0:0:0:0:
234,307,304872,2,0,P|205:312|152:301,1,60.0000022888184,10|0,0:0|0:0,0:0:0:0:
349,141,305049,6,0,B|389:166|400:214|400:214|427:188|469:182,1,160,4|0,0:0|0:0,0:0:0:0:
459,183,305579,1,0,0:0:0:0:
304,226,305755,2,0,P|219:225|141:208,1,160,8|0,0:0|0:0,0:0:0:0:
145,209,306284,1,0,0:0:0:0:
37,94,306461,1,0,0:0:0:0:
37,94,306637,2,0,B|55:138|55:138|37:259,1,160
164,75,307167,5,10,0:0:0:0:
154,197,307343,2,0,P|151:184|151:170,4,26.6666666666667
153,216,307872,6,0,P|215:261|292:246,1,160
292,246,308402,1,0,0:0:0:0:
413,129,308579,2,0,B|403:182|403:182|419:288,1,160,8|0,0:0|0:0,0:0:0:0:
418,287,309108,1,0,0:0:0:0:
282,351,309284,1,0,0:0:0:0:
282,351,309461,2,0,B|197:335|112:331,1,160
0,283,309990,5,10,0:0:0:0:
85,111,310167,1,2,0:0:0:0:
97,149,310255,1,2,0:0:0:0:
110,187,310343,2,0,L|125:228,6,30.0000011444092,10|0|0|0|0|0|0,0:0|0:0|0:0|0:0|0:0|0:0|0:0,0:0:0:0:
187,259,310696,6,0,P|210:169|235:101,1,160
233,106,311226,1,0,0:0:0:0:
333,9,311402,2,0,P|359:84|378:161,1,160,8|0,0:0|0:0,0:0:0:0:
378,161,311931,1,0,0:0:0:0:
447,309,312108,1,0,0:0:0:0:
447,309,312284,2,0,P|466:231|492:156,1,160
274,267,312814,5,10,0:0:0:0:
233,119,312990,2,0,P|247:89|253:58,4,53.3333333333333
227,146,313520,6,0,P|141:171|55:147,1,160
73,156,314049,1,0,0:0:0:0:
274,267,314225,2,0,P|360:242|446:266,1,160,8|0,0:0|0:0,0:0:0:0:
427,256,314755,1,0,0:0:0:0:
352,347,314931,5,8,0:0:0:0:
227,146,315108,1,0,0:0:0:0:
431,259,315284,1,8,0:0:0:0:
234,346,315461,1,0,0:0:0:0:
209,350,315549,1,0,0:0:0:0:
182,355,315637,1,8,0:0:0:0:
87,196,315814,1,0,0:0:0:0:
112,198,315902,1,0,0:0:0:0:
139,202,315990,1,8,0:0:0:0:
35,375,316167,1,8,0:0:0:0:
0,185,316343,6,0,P|5:145|16:103,1,80
209,264,316696,2,0,L|38:290,1,160,8|0,0:0|0:0,0:0:0:0:
50,288,317225,1,0,0:0:0:0:
238,169,317402,2,0,P|285:201|305:243,1,80,8|0,0:0|0:0,0:0:0:0:
357,344,317755,6,0,L|369:249,1,80
414,52,318108,2,0,L|429:184,1,120,8|0,0:0|0:0,0:0:0:0:
421,197,318461,2,0,P|381:180|318:179,1,80,2|0,0:0|0:0,0:0:0:0:
195,260,318814,2,0,P|235:277|298:278,1,80,8|0,0:0|0:0,0:0:0:0:
168,111,319167,6,0,P|151:147|145:186,1,80,2|0,0:0|0:0,0:0:0:0:
101,332,319519,2,0,P|87:254|55:168,1,160,8|0,0:0|0:0,0:0:0:0:
0,87,320049,1,0,0:0:0:0:
144,186,320225,2,0,P|185:195|223:195,1,80,8|0,0:0|0:0,0:0:0:0:
296,290,320578,6,0,P|275:324|263:362,1,80
512,361,320931,2,0,L|340:352,1,160,8|0,0:0|0:0,0:0:0:0:
356,353,321461,1,0,0:0:0:0:
416,166,321637,2,0,P|427:204|426:244,1,80,8|0,0:0|0:0,0:0:0:0:
231,167,321990,6,0,P|229:127|241:88,1,80
67,204,322343,2,0,P|91:285|88:371,1,160,8|0,0:0|0:0,0:0:0:0:
90,359,322872,1,0,0:0:0:0:
280,278,323049,2,0,P|319:273|367:282,1,80,8|0,0:0|0:0,0:0:0:0:
505,245,323402,6,0,P|466:250|418:241,1,80
366,44,323755,2,0,P|346:120|378:212,1,160,8|0,0:0|0:0,0:0:0:0:
367,196,324284,1,0,0:0:0:0:
188,145,324461,2,0,P|148:142|102:145,1,80,8|0,0:0|0:0,0:0:0:0:
6,235,324814,6,0,P|45:240|91:237,1,80
290,291,325167,2,0,P|210:284|132:300,1,160,8|0,0:0|0:0,0:0:0:0:
132,300,325696,1,0,0:0:0:0:
364,363,325872,2,0,P|410:364|449:355,1,80,8|0,0:0|0:0,0:0:0:0:
488,222,326225,6,0,P|495:261|494:301,1,80
330,103,326578,2,0,L|493:120,1,160,8|0,0:0|0:0,0:0:0:0:
505,133,327019,1,8,0:0:0:0:
505,133,327108,1,8,0:0:0:0:
196,160,327284,1,8,0:0:0:0:
196,160,327637,6,0,P|201:200|197:248,1,80
48,348,327990,2,0,P|129:321|216:328,1,160,8|0,0:0|0:0,0:0:0:0:
202,324,328519,1,0,0:0:0:0:
46,213,328696,2,0,P|34:174|30:135,1,80,8|0,0:0|0:0,0:0:0:0:
125,10,329049,6,0,L|116:92,1,80
203,222,329402,2,0,P|246:189|328:180,1,120,8|0,0:0|0:0,0:0:0:0:
341,164,329755,2,0,P|389:173|427:170,1,80,2|0,0:0|0:0,0:0:0:0:
498,340,330108,2,0,P|450:331|412:334,1,80,8|0,0:0|0:0,0:0:0:0:
310,376,330461,6,0,L|295:298,1,80,2|0,0:0|0:0,0:0:0:0:
174,127,330814,2,0,P|107:184|18:180,1,160,8|0,0:0|0:0,0:0:0:0:
38,186,331343,1,0,0:0:0:0:
52,0,331519,2,0,P|64:38|69:78,1,80,8|0,0:0|0:0,0:0:0:0:
174,127,331872,6,0,P|175:87|190:49,1,80
351,185,332225,2,0,P|288:202|207:185,1,120,8|0,0:0|0:0,0:0:0:0:
214,211,332578,2,0,P|230:256|233:300,1,80,2|0,0:0|0:0,0:0:0:0:
398,371,332931,2,0,P|403:331|417:294,2,80,10|0|0,0:0|0:0|0:0,0:0:0:0:
351,185,333461,5,0,0:0:0:0:
351,185,333637,2,0,P|288:202|185:172,1,160,8|0,0:0|0:0,0:0:0:0:
197,180,334167,1,0,0:0:0:0:
247,15,334343,2,0,P|256:59|254:100,1,80,8|0,0:0|0:0,0:0:0:0:
351,185,334696,6,0,P|350:145|358:106,1,80
414,277,335049,2,0,P|336:288|270:269,1,120,8|0,0:0|0:0,0:0:0:0:
266,294,335402,2,0,P|222:285|178:286,1,80,2|0,0:0|0:0,0:0:0:0:
30,334,335755,2,0,P|69:342|108:343,1,80,10|0,0:0|0:0,0:0:0:0:
91,138,336108,6,0,L|80:260,1,120.000004577637
80,257,336637,1,0,0:0:0:0:
222,364,336814,2,0,P|284:339|350:339,1,120.000004577637,8|0,0:0|0:0,0:0:0:0:
398,292,337343,2,0,P|461:294|520:268,2,120.000004577637
133,209,338225,6,0,P|120:179|101:156,1,60.0000022888184,12|0,0:0|0:0,0:0:0:0:
146,19,338578,2,0,P|154:74|203:113,1,120.000004577637,12|0,0:0|0:0,0:0:0:0:
317,36,339461,6,0,B|287:163|128:128|145:17|145:17|177:39|168:97|168:97|159:119|159:119|134:127|134:127|126:156|126:156|98:158|98:158|140:220|140:220|185:265|136:339|81:308|81:308|24:268|80:186|140:220|140:220|219:257|282:221|282:221|353:179|425:166|493:189|530:274|510:372|411:386|332:343|360:269,1,1483.99995471192,2|0,0:0|0:0,0:0:0:0:
