osu file format v14

[General]
AudioFilename: Overcome (This Time).mp3
AudioLeadIn: 0
PreviewTime: 192108
Countdown: 0
SampleSet: Normal
StackLeniency: 0.3
Mode: 0
LetterboxInBreaks: 1
WidescreenStoryboard: 1

[Editor]
Bookmarks: 12814,22696,33990,45284,63990,67872,79167,101755,124343,146931,169520,176225,192108,214696,237284,248578,270284,271167,293755,316343
DistanceSpacing: 2.7
BeatDivisor: 4
GridSize: 4
TimelineZoom: 1

[Metadata]
Title:Overcome (This Time)
TitleUnicode:Overcome (This Time)
Artist:Hot Date! & Chrisson
ArtistUnicode:Hot Date! & Chrisson
Creator:Asonate
Version:Million Miles OLD
Source:
Tags:drum and bass drumstep dubstep vocals monstercat
BeatmapID:1009268
BeatmapSetID:472296

[Difficulty]
HPDrainRate:6
CircleSize:4
OverallDifficulty:8
ApproachRate:9
SliderMultiplier:1.4
SliderTickRate:1

[Events]
//Background and Video events
0,0,"BG.jpg",0,0
//Break Periods
//Storyboard Layer 0 (Background)
//Storyboard Layer 1 (Fail)
//Storyboard Layer 2 (Pass)
//Storyboard Layer 3 (Foreground)
//Storyboard Sound Samples

[TimingPoints]
1520,352.941176470588,4,1,1,100,1,0
12814,-133.333333333333,4,2,1,40,0,0
45284,-100,4,1,1,45,0,0
67872,-200,4,1,1,22,0,0
68578,-166.666666666667,4,1,1,25,0,0
69284,-142.857142857143,4,1,1,28,0,0
69990,-125,4,1,1,31,0,0
70696,-111.111111111111,4,1,1,34,0,0
71402,-100,4,1,1,37,0,0
72108,-90.9090909090909,4,1,1,40,0,0
72814,-83.3333333333333,4,1,1,43,0,0
73519,-76.9230769230769,4,1,1,46,0,0
74225,-71.4285714285714,4,1,1,49,0,0
74931,-66.6666666666667,4,1,1,52,0,0
75637,-62.5,4,1,1,55,0,0
76343,-58.8235294117647,4,1,1,58,0,0
77049,-55.5555555555556,4,1,1,61,0,0
77755,-52.6315789473684,4,1,1,64,0,0
78461,-50,4,1,1,67,0,0
79167,-66.6666666666667,4,1,1,70,0,1
79255,-66.6666666666667,4,1,1,45,0,0
98931,-133.333333333333,4,1,1,45,0,0
99284,-133.333333333333,4,3,1,15,0,0
99461,-133.333333333333,4,1,1,45,0,0
99990,-133.333333333333,4,3,1,15,0,0
100167,-133.333333333333,4,1,1,45,0,0
100343,-133.333333333333,4,3,1,15,0,0
100519,-133.333333333333,4,1,1,45,0,0
100872,-133.333333333333,4,3,1,15,0,0
101049,-133.333333333333,4,1,1,45,0,0
101225,-133.333333333333,4,3,1,15,0,0
101402,-133.333333333333,4,1,1,45,0,0
101578,-133.333333333333,4,3,1,15,0,0
101755,-66.6666666666667,4,1,1,45,0,0
121519,-133.333333333333,4,1,1,45,0,0
121872,-133.333333333333,4,3,1,15,0,0
122049,-133.333333333333,4,1,1,45,0,0
122578,-133.333333333333,4,3,1,15,0,0
122755,-133.333333333333,4,1,1,45,0,0
122931,-133.333333333333,4,3,1,15,0,0
123108,-133.333333333333,4,1,1,45,0,0
123461,-133.333333333333,4,1,1,15,0,0
123637,-133.333333333333,4,1,1,45,0,0
123814,-133.333333333333,4,3,1,15,0,0
123990,-133.333333333333,4,1,1,45,0,0
124167,-133.333333333333,4,3,1,15,0,0
124343,-200,4,3,1,60,0,1
124696,-200,4,3,1,15,0,1
124872,-200,4,3,1,60,0,1
125402,-200,4,3,1,15,0,1
125578,-200,4,3,1,60,0,1
125755,-200,4,3,1,15,0,1
125931,-200,4,3,1,60,0,1
126284,-200,4,3,1,15,0,1
126461,-200,4,3,1,60,0,1
127519,-200,4,3,1,15,0,1
127696,-200,4,3,1,60,0,1
128225,-200,4,3,1,15,0,1
128402,-200,4,3,1,60,0,1
130343,-200,4,3,1,15,0,1
130519,-200,4,3,1,60,0,1
131049,-200,4,3,1,15,0,1
131225,-200,4,3,1,60,0,1
131402,-200,4,3,1,15,0,1
131578,-200,4,3,1,60,0,1
131931,-200,4,3,1,15,0,1
132108,-200,4,3,1,60,0,1
133167,-200,4,3,1,15,0,1
133343,-200,4,3,1,60,0,1
133872,-200,4,3,1,15,0,1
134049,-200,4,3,1,60,0,1
134225,-200,4,3,1,15,0,1
134402,-200,4,3,1,60,0,1
134755,-200,4,3,1,15,0,1
134931,-200,4,3,1,60,0,1
135990,-200,4,3,1,15,0,1
136167,-200,4,3,1,60,0,1
136696,-200,4,3,1,15,0,1
136872,-200,4,3,1,60,0,1
137049,-200,4,3,1,15,0,1
137225,-200,4,3,1,60,0,1
137578,-200,4,3,1,15,0,1
137755,-200,4,3,1,60,0,1
138814,-200,4,3,1,15,0,1
138990,-200,4,3,1,60,0,1
139519,-200,4,3,1,15,0,1
139696,-200,4,3,1,60,0,1
141637,-200,4,3,1,15,0,1
141814,-200,4,3,1,60,0,1
142343,-200,4,3,1,15,0,1
142519,-200,4,3,1,60,0,1
142696,-200,4,3,1,15,0,1
142872,-200,4,3,1,60,0,1
143225,-200,4,3,1,15,0,1
143402,-200,4,3,1,60,0,1
144461,-200,4,3,1,15,0,1
144637,-200,4,3,1,60,0,1
145167,-200,4,3,1,15,0,1
145343,-200,4,3,1,60,0,1
146931,-66.6666666666667,4,1,1,45,0,0
166696,-133.333333333333,4,1,1,45,0,0
167049,-133.333333333333,4,3,1,15,0,0
167225,-133.333333333333,4,1,1,45,0,0
167755,-133.333333333333,4,3,1,15,0,0
167931,-133.333333333333,4,1,1,45,0,0
168108,-133.333333333333,4,3,1,15,0,0
168284,-133.333333333333,4,1,1,45,0,0
168637,-133.333333333333,4,3,1,15,0,0
168814,-133.333333333333,4,1,1,45,0,0
168990,-133.333333333333,4,3,1,15,0,0
169167,-133.333333333333,4,1,1,45,0,0
169343,-133.333333333333,4,3,1,15,0,0
169519,-133.333333333333,4,2,1,30,0,0
172167,-133.333333333333,4,2,1,5,0,0
172343,-133.333333333333,4,2,1,30,0,0
174990,-133.333333333333,4,2,1,5,0,0
175167,-133.333333333333,4,2,1,30,0,0
177814,-133.333333333333,4,2,1,5,0,0
177990,-133.333333333333,4,2,1,30,0,0
178343,-133.333333333333,4,2,1,5,0,0
178519,-133.333333333333,4,2,1,30,0,0
179049,-133.333333333333,4,2,1,5,0,0
179225,-133.333333333333,4,2,1,30,0,0
179755,-133.333333333333,4,2,1,5,0,0
179931,-133.333333333333,4,2,1,30,0,0
180284,-133.333333333333,4,2,1,5,0,0
180461,-133.333333333333,4,2,1,30,0,0
180637,-133.333333333333,4,2,1,5,0,0
180814,-133.333333333333,4,2,1,30,0,0
192108,-200,4,3,1,60,0,1
192461,-200,4,3,1,15,0,1
192637,-200,4,3,1,60,0,1
195284,-200,4,3,1,15,0,1
195461,-200,4,3,1,60,0,1
195990,-200,4,3,1,15,0,1
196167,-200,4,3,1,60,0,1
200931,-200,4,3,1,15,0,1
201108,-200,4,3,1,60,0,1
201637,-200,4,3,1,15,0,1
201814,-200,4,3,1,60,0,1
201990,-200,4,3,1,15,0,1
202167,-200,4,3,1,60,0,1
202519,-200,4,3,1,15,0,1
202696,-200,4,3,1,60,0,1
203755,-200,4,3,1,15,0,1
203931,-200,4,3,1,60,0,1
205519,-100,4,3,1,60,0,1
206225,-200,4,3,1,60,0,1
206578,-200,4,3,1,15,0,1
206755,-200,4,3,1,60,0,1
207284,-200,4,3,1,15,0,1
207461,-200,4,3,1,60,0,1
212225,-200,4,3,1,15,0,1
212402,-200,4,3,1,60,0,1
212931,-200,4,3,1,15,0,1
213108,-200,4,3,1,60,0,1
213284,-200,4,3,1,15,0,1
213461,-500,4,3,1,60,0,1
214608,-500,4,3,1,15,0,1
214696,-133.333333333333,4,1,1,45,0,0
237284,-200,4,1,1,22,0,0
237990,-166.666666666667,4,1,1,25,0,0
238696,-142.857142857143,4,1,1,28,0,0
239402,-125,4,1,1,31,0,0
240108,-111.111111111111,4,1,1,34,0,0
240814,-100,4,1,1,37,0,0
241520,-90.9090909090909,4,1,1,40,0,0
242226,-83.3333333333333,4,1,1,43,0,0
242931,-76.9230769230769,4,1,1,46,0,0
243637,-71.4285714285714,4,1,1,49,0,0
244343,-66.6666666666667,4,1,1,52,0,0
245049,-62.5,4,1,1,55,0,0
245755,-58.8235294117647,4,1,1,58,0,0
246461,-55.5555555555556,4,1,1,61,0,0
247167,-52.6315789473684,4,1,1,64,0,0
247873,-50,4,1,1,67,0,0
248578,-50,4,1,1,70,0,1
248667,-50,4,1,1,45,0,0
249108,-66.6666666666667,4,1,1,45,0,0
268343,-133.333333333333,4,1,1,45,0,0
268696,-133.333333333333,4,3,1,15,0,0
268873,-133.333333333333,4,1,1,45,0,0
269402,-133.333333333333,4,3,1,15,0,0
269579,-133.333333333333,4,1,1,45,0,0
269755,-133.333333333333,4,3,1,15,0,0
269931,-133.333333333333,4,1,1,45,0,0
270284,-133.333333333333,4,3,1,15,0,0
270461,-133.333333333333,4,1,1,45,0,0
270637,-133.333333333333,4,3,1,15,0,0
270814,-133.333333333333,4,1,1,45,0,0
270990,-133.333333333333,4,3,1,15,0,0
271167,-66.6666666666667,4,1,1,45,0,0
290931,-133.333333333333,4,1,1,45,0,0
291284,-133.333333333333,4,3,1,15,0,0
291461,-133.333333333333,4,1,1,45,0,0
291990,-133.333333333333,4,3,1,15,0,0
292167,-133.333333333333,4,1,1,45,0,0
292343,-133.333333333333,4,3,1,15,0,0
292520,-133.333333333333,4,1,1,45,0,0
292873,-133.333333333333,4,1,1,15,0,0
293049,-133.333333333333,4,1,1,45,0,0
293226,-133.333333333333,4,3,1,15,0,0
293402,-133.333333333333,4,1,1,45,0,0
293579,-133.333333333333,4,3,1,15,0,0
293755,-200,4,3,1,60,0,1
294108,-200,4,3,1,15,0,1
294284,-200,4,3,1,60,0,1
294814,-200,4,3,1,15,0,1
294990,-200,4,3,1,60,0,1
295167,-200,4,3,1,15,0,1
295343,-200,4,3,1,60,0,1
295696,-200,4,3,1,15,0,1
295873,-200,4,3,1,60,0,1
296931,-200,4,3,1,15,0,1
297108,-200,4,3,1,60,0,1
297637,-200,4,3,1,15,0,1
297814,-200,4,3,1,60,0,1
299755,-200,4,3,1,15,0,1
299931,-200,4,3,1,60,0,1
300461,-200,4,3,1,15,0,1
300637,-200,4,3,1,60,0,1
300814,-200,4,3,1,15,0,1
300990,-200,4,3,1,60,0,1
301343,-200,4,3,1,15,0,1
301520,-200,4,3,1,60,0,1
302579,-200,4,3,1,15,0,1
302755,-200,4,3,1,60,0,1
303284,-200,4,3,1,15,0,1
303461,-200,4,3,1,60,0,1
303637,-200,4,3,1,15,0,1
303814,-200,4,3,1,60,0,1
304167,-200,4,3,1,15,0,1
304343,-200,4,3,1,60,0,1
305402,-200,4,3,1,15,0,1
305579,-200,4,3,1,60,0,1
306108,-200,4,3,1,15,0,1
306284,-200,4,3,1,60,0,1
306461,-200,4,3,1,15,0,1
306637,-200,4,3,1,60,0,1
306990,-200,4,3,1,15,0,1
307167,-200,4,3,1,60,0,1
308225,-200,4,3,1,15,0,1
308402,-200,4,3,1,60,0,1
308931,-200,4,3,1,15,0,1
309108,-200,4,3,1,60,0,1
311049,-200,4,3,1,15,0,1
311226,-200,4,3,1,60,0,1
311755,-200,4,3,1,15,0,1
311931,-200,4,3,1,60,0,1
312108,-200,4,3,1,15,0,1
312284,-200,4,3,1,60,0,1
312637,-200,4,3,1,15,0,1
312814,-200,4,3,1,60,0,1
313873,-200,4,3,1,15,0,1
314049,-200,4,3,1,60,0,1
314579,-200,4,3,1,15,0,1
314755,-200,4,3,1,60,0,1
316343,-66.6666666666667,4,1,1,45,0,0
336108,-133.333333333333,4,1,1,45,0,0
336461,-133.333333333333,4,3,1,15,0,0
336637,-133.333333333333,4,1,1,45,0,0
337167,-133.333333333333,4,3,1,15,0,0
337343,-133.333333333333,4,1,1,45,0,0
337519,-133.333333333333,4,3,1,15,0,0
337696,-133.333333333333,4,1,1,45,0,0
338049,-133.333333333333,4,3,1,15,0,0
338225,-133.333333333333,4,1,1,45,0,0
338402,-133.333333333333,4,3,1,15,0,0
338578,-133.333333333333,4,1,1,45,0,0
338755,-133.333333333333,4,3,1,15,0,0
338931,-200,4,2,1,10,0,0
348108,-200,4,2,1,5,0,0

[Colours]
Combo1 : 231,5,225
Combo2 : 213,216,219
Combo3 : 252,244,150
Combo4 : 255,85,85
Combo5 : 63,138,252
Combo6 : 255,0,0
Combo7 : 0,0,255

[HitObjects]
256,192,12814,5,2,0:0:0:0:
348,156,13167,2,0,B|364:220|324:260|324:260|332:328,1,157.500006008148,2|0,0:0|0:0,0:0:0:0:
182,305,13872,2,0,B|188:260|188:260|148:220|164:156,1,157.500006008148,2|0,0:0|0:0,0:0:0:0:
296,92,14578,6,0,P|308:72|320:40,2,52.5000020027161,0|2|0,0:0|0:0|0:0,0:0:0:0:
256,164,15108,1,0,0:0:0:0:
216,92,15284,2,0,P|204:72|192:40,2,52.5000020027161,0|2|0,0:0|0:0|0:0,0:0:0:0:
256,164,15814,1,0,0:0:0:0:
176,164,15990,86,0,B|157:214|157:214|197:310,1,157.500006008148,2|0,0:0|0:0,0:0:0:0:
315,310,16696,2,0,B|355:214|355:214|336:164,1,157.500006008148,2|0,0:0|0:0,0:0:0:0:
160,216,17402,6,0,L|104:208,2,52.5000020027161,0|2|0,0:0|0:0|0:0,0:0:0:0:
256,164,17931,1,0,0:0:0:0:
354,215,18108,2,0,L|410:207,2,52.5000020027161,0|2|0,0:0|0:0|0:0,0:0:0:0:
256,164,18637,85,0,0:0:0:0:
210,276,18814,2,0,L|165:310,2,52.5000020027161,0|2|0,0:0|0:0|0:0,0:0:0:0:
256,164,19343,1,0,0:0:0:0:
301,276,19519,2,0,L|346:310,1,52.5000020027161
436,116,19872,6,0,L|320:132,1,105.000004005432,2|0,0:0|0:0,0:0:0:0:
420,204,20402,1,0,0:0:0:0:
384,44,20578,2,0,L|323:52,1,52.5000020027161,2|0,0:0|0:0,0:0:0:0:
331,130,20931,1,0,0:0:0:0:
420,204,21108,1,0,0:0:0:0:
296,280,21284,86,0,L|180:264,1,105.000004005432,2|0,0:0|0:0,0:0:0:0:
276,196,21814,1,0,0:0:0:0:
260,360,21990,2,0,L|201:352,1,52.5000020027161,2|0,0:0|0:0,0:0:0:0:
196,168,22343,1,0,0:0:0:0:
296,280,22519,1,0,0:0:0:0:
80,244,22696,6,0,L|88:172,1,52.5000020027161,10|0,0:0|0:0,0:0:0:0:
164,320,23049,2,0,L|156:248,1,52.5000020027161,2|0,0:0|0:0,0:0:0:0:
80,252,23402,86,0,L|88:180,1,52.5000020027161,2|0,0:0|0:0,0:0:0:0:
164,328,23755,2,0,L|156:256,1,52.5000020027161,2|0,0:0|0:0,0:0:0:0:
80,260,24108,5,0,0:0:0:0:
196,168,24284,1,0,0:0:0:0:
56,112,24461,2,0,L|64:40,1,52.5000020027161
196,168,24814,1,2,0:0:0:0:
143,43,24990,1,0,0:0:0:0:
204,153,25167,1,0,0:0:0:0:
184,18,25343,1,0,0:0:0:0:
216,141,25519,86,0,P|256:153|272:149,1,52.5000020027161,2|0,0:0|0:0,0:0:0:0:
243,227,25872,2,0,P|269:232|294:224,1,52.5000020027161
296,304,26225,2,0,P|336:294|348:282,1,52.5000020027161,2|0,0:0|0:0,0:0:0:0:
364,363,26578,2,0,P|389:353|407:334,1,52.5000020027161
244,228,26931,6,0,L|201:258,1,52.5000020027161,2|0,0:0|0:0,0:0:0:0:
258,109,27284,2,0,L|212:142,1,52.5000020027161
296,304,27637,1,2,0:0:0:0:
376,208,27814,1,0,0:0:0:0:
264,314,27990,1,0,0:0:0:0:
367,238,28167,1,0,0:0:0:0:
232,312,28343,86,0,L|168:308,2,52.5000020027161,2|0|0,0:0|0:0|0:0,0:0:0:0:
296,380,28872,1,2,0:0:0:0:
296,224,29049,2,0,L|231:228,1,52.5000020027161
376,300,29402,1,2,0:0:0:0:
498,165,29578,1,0,0:0:0:0:
500,288,29755,6,0,L|509:166,1,105.000004005432,2|2,0:0|0:0,0:0:0:0:
376,300,30284,1,0,0:0:0:0:
364,104,30461,1,2,0:0:0:0:
296,224,30637,1,0,0:0:0:0:
383,134,30814,1,0,0:0:0:0:
240,128,30990,1,0,0:0:0:0:
393,169,31167,86,0,L|499:159,1,105.000004005432,2|0,0:0|0:0,0:0:0:0:
436,244,31696,1,0,0:0:0:0:
424,88,31872,2,0,L|495:81,1,52.5000020027161,2|0,0:0|0:0,0:0:0:0:
392,168,32225,1,0,0:0:0:0:
256,84,32402,1,0,0:0:0:0:
119,169,32578,6,0,L|12:159,1,105.000004005432,2|0,0:0|0:0,0:0:0:0:
76,244,33108,1,0,0:0:0:0:
88,88,33284,2,0,L|16:81,1,52.5000020027161
120,168,33637,1,2,0:0:0:0:
256,84,33814,1,0,0:0:0:0:
260,244,33990,86,0,L|200:248,1,52.5000020027161,10|0,0:0|0:0,0:0:0:0:
360,168,34343,2,0,L|300:164,1,52.5000020027161,2|0,0:0|0:0,0:0:0:0:
268,244,34696,6,0,L|208:248,1,52.5000020027161,2|0,0:0|0:0,0:0:0:0:
368,168,35049,2,0,L|308:164,1,52.5000020027161,2|0,0:0|0:0,0:0:0:0:
276,244,35402,85,2,0:0:0:0:
264,72,35578,1,0,0:0:0:0:
120,168,35755,2,0,L|60:164,1,52.5000020027161
156,288,36108,1,2,0:0:0:0:
219,162,36284,1,0,0:0:0:0:
184,310,36461,1,0,0:0:0:0:
212,172,36637,1,0,0:0:0:0:
217,325,36814,6,0,L|280:320,1,52.5000020027161,2|0,0:0|0:0,0:0:0:0:
276,244,37167,2,0,L|338:238,1,52.5000020027161
340,164,37519,2,0,L|402:158,1,52.5000020027161,2|0,0:0|0:0,0:0:0:0:
398,82,37872,2,0,L|460:76,1,52.5000020027161
276,244,38225,86,0,L|213:249,1,52.5000020027161,2|0,0:0|0:0,0:0:0:0:
217,325,38578,2,0,L|154:330,1,52.5000020027161
316,336,38931,1,2,0:0:0:0:
392,220,39108,1,0,0:0:0:0:
350,340,39284,1,0,0:0:0:0:
393,208,39461,1,0,0:0:0:0:
386,334,39637,6,0,P|420:328|452:332,2,52.5000020027161,2|0|0,0:0|0:0|0:0,0:0:0:0:
356,256,40167,1,2,0:0:0:0:
440,164,40343,2,0,P|458:183|470:206,1,52.5000020027161
276,252,40696,1,0,0:0:0:0:
192,136,40872,1,0,0:0:0:0:
253,243,41049,86,0,P|212:211|192:164,1,105.000004005432,2|0,0:0|0:0,0:0:0:0:
136,264,41578,1,0,0:0:0:0:
344,304,41755,1,2,0:0:0:0:
228,340,41931,1,0,0:0:0:0:
312,322,42108,1,0,0:0:0:0:
190,327,42284,1,0,0:0:0:0:
244,216,42461,6,0,L|272:96,1,105.000004005432,2|0,0:0|0:0,0:0:0:0:
176,160,42990,1,0,0:0:0:0:
328,196,43167,2,0,L|342:134,1,52.5000020027161,2|0,0:0|0:0,0:0:0:0:
267,113,43519,1,0,0:0:0:0:
424,236,43696,1,0,0:0:0:0:
228,296,43872,86,0,L|108:304,1,105.000004005432,2|0,0:0|0:0,0:0:0:0:
216,376,44402,1,0,0:0:0:0:
244,216,44578,2,0,L|124:224,1,105.000004005432,2|0,0:0|0:0,0:0:0:0:
216,376,45108,1,0,0:0:0:0:
232,136,45284,22,0,L|135:141,1,70,12|0,0:0|0:0,0:0:0:0:
228,296,45637,1,0,0:0:0:0:
139,222,45814,2,0,P|100:200|76:152,1,70
232,136,46167,1,0,0:0:0:0:
112,100,46343,1,0,0:0:0:0:
296,236,46519,6,0,B|364:216|364:216|396:152,1,140
420,288,47049,1,0,0:0:0:0:
452,204,47225,2,0,L|413:277,1,70
300,140,47578,1,0,0:0:0:0:
485,301,47755,2,0,P|445:317|413:305,1,70,12|0,0:0|0:0,0:0:0:0:
150,102,48108,86,0,P|190:86|222:98,1,70,12|0,0:0|0:0,0:0:0:0:
120,192,48461,1,0,0:0:0:0:
214,290,48637,2,0,P|180:297|149:281,1,70
252,192,48990,1,0,0:0:0:0:
320,276,49167,1,0,0:0:0:0:
150,282,49343,6,0,B|98:286|98:286|70:302|70:302|10:306,1,140
40,208,49872,1,0,0:0:0:0:
14,305,50049,2,0,L|12:216,1,70
124,364,50402,1,0,0:0:0:0:
320,276,50578,2,0,L|332:204,1,70,12|0,0:0|0:0,0:0:0:0:
24,36,50931,86,0,L|12:108,1,70,12|0,0:0|0:0,0:0:0:0:
40,208,51284,1,0,0:0:0:0:
136,96,51461,2,0,L|148:168,1,70
12,324,51814,1,0,0:0:0:0:
40,208,51990,1,0,0:0:0:0:
128,292,52167,6,0,P|191:303|253:231,1,140
156,136,52696,1,0,0:0:0:0:
172,224,52872,2,0,L|148:152,1,70
61,274,53225,1,0,0:0:0:0:
272,360,53402,2,0,L|352:352,1,70,12|0,0:0|0:0,0:0:0:0:
480,36,53755,86,0,L|400:28,1,70,12|0,0:0|0:0,0:0:0:0:
320,116,54108,1,0,0:0:0:0:
416,204,54284,2,0,P|440:172|444:124,1,70
308,228,54637,1,0,0:0:0:0:
356,312,54814,1,0,0:0:0:0:
272,360,54990,1,0,0:0:0:0:
40,96,55167,6,0,P|24:128|24:176,1,70,12|0,0:0|0:0,0:0:0:0:
188,184,55519,1,0,0:0:0:0:
104,152,55696,2,0,L|184:172,1,70
56,268,56049,1,0,0:0:0:0:
164,272,56225,1,0,0:0:0:0:
128,376,56402,1,0,0:0:0:0:
308,88,56578,86,0,L|232:96,1,70,12|0,0:0|0:0,0:0:0:0:
280,168,56931,1,0,0:0:0:0:
264,16,57108,2,0,L|188:24,1,70
280,168,57461,1,0,0:0:0:0:
164,272,57637,1,0,0:0:0:0:
312,320,57814,6,0,B|376:320|376:320|400:304|400:304|456:304,1,140
392,160,58343,1,0,0:0:0:0:
352,240,58519,2,0,L|348:164,1,70
472,212,58872,1,0,0:0:0:0:
312,320,59049,2,0,L|308:244,1,70,12|0,0:0|0:0,0:0:0:0:
32,32,59402,86,0,L|36:108,1,70,12|0,0:0|0:0,0:0:0:0:
108,184,59755,1,0,0:0:0:0:
96,296,59931,2,0,P|72:292|32:264,1,70
200,252,60284,1,0,0:0:0:0:
188,364,60461,1,0,0:0:0:0:
108,184,60637,6,0,P|160:144|248:148,1,140
292,288,61167,1,0,0:0:0:0:
200,252,61343,2,0,L|276:264,1,70
188,364,61696,1,0,0:0:0:0:
108,184,61872,2,0,L|112:104,1,70,12|0,0:0|0:0,0:0:0:0:
452,216,62225,86,0,L|448:296,1,70,12|0,0:0|0:0,0:0:0:0:
288,180,62578,1,0,0:0:0:0:
364,313,62755,2,0,L|368:244,1,70
256,316,63108,1,0,0:0:0:0:
256,316,63196,1,0,0:0:0:0:
256,316,63284,1,0,0:0:0:0:
372,152,63461,6,0,B|384:128|380:96|380:96|388:76|388:76|376:48|388:16,1,140
469,117,63990,1,0,0:0:0:0:
292,111,64167,2,0,P|283:145|288:180,1,70
352,240,64519,2,0,L|344:308,1,35
222,104,64696,2,0,L|294:112,1,70,12|0,0:0|0:0,0:0:0:0:
52,372,65049,85,12,0:0:0:0:
256,192,65137,12,0,66108,0:0:0:0:
460,12,66461,5,12,0:0:0:0:
256,192,66549,12,0,67519,0:0:0:0:
52,264,67872,54,0,L|56:192,1,70,4|0,0:0|0:0,0:0:0:0:
52,110,68578,6,0,L|57:203,1,83.9999974365235,4|0,0:0|0:0,0:0:0:0:
138,291,69284,86,0,L|143:194,1,97.9999970092774,4|0,0:0|0:0,0:0:0:0:
138,82,69990,6,0,L|144:193,1,112,4|0,0:0|0:0,0:0:0:0:
237,255,70696,86,0,L|233:192,1,62.9999980773926,4|0,0:0|0:0,0:0:0:0:
328,317,71049,1,4,0:0:0:0:
322,190,71225,1,0,0:0:0:0:
237,122,71402,6,0,L|233:191,1,70,4|0,0:0|0:0,0:0:0:0:
329,51,71755,1,4,0:0:0:0:
322,190,71931,1,0,0:0:0:0:
148,270,72108,86,0,L|143:193,1,77.0000023498536,4|0,0:0|0:0,0:0:0:0:
240,346,72461,1,4,0:0:0:0:
233,191,72637,1,0,0:0:0:0:
149,109,72814,6,0,L|144:192,1,83.9999974365235,4|0,0:0|0:0,0:0:0:0:
242,24,73167,1,4,0:0:0:0:
233,191,73343,1,0,0:0:0:0:
57,270,73519,86,0,L|156:269,1,90.9999958343508,4|0,0:0|0:0,0:0:0:0:
14,326,73872,1,4,0:0:0:0:
194,324,74049,1,0,0:0:0:0:
58,108,74225,6,0,L|157:109,1,97.9999970092774,4|0,0:0|0:0,0:0:0:0:
14,54,74578,1,4,0:0:0:0:
202,56,74755,1,0,0:0:0:0:
332,272,74931,86,0,L|452:270,1,105.000004005432,4|0,0:0|0:0,0:0:0:0:
286,330,75284,1,4,0:0:0:0:
484,327,75461,1,0,0:0:0:0:
333,110,75637,6,0,L|450:111,1,112,4|0,0:0|0:0,0:0:0:0:
288,54,75990,1,4,0:0:0:0:
486,54,76167,1,0,0:0:0:0:
256,192,76343,5,4,0:0:0:0:
80,176,76519,1,4,0:0:0:0:
156,336,76696,1,4,0:0:0:0:
176,116,76872,1,4,0:0:0:0:
240,288,77049,5,4,0:0:0:0:
80,176,77225,1,4,0:0:0:0:
256,112,77402,1,4,0:0:0:0:
156,240,77578,1,4,0:0:0:0:
356,240,77755,5,4,0:0:0:0:
256,112,77931,1,4,0:0:0:0:
431,176,78108,1,4,0:0:0:0:
272,288,78284,1,4,0:0:0:0:
336,116,78461,5,4,0:0:0:0:
356,336,78637,1,4,0:0:0:0:
431,176,78814,1,4,0:0:0:0:
256,192,78990,1,4,0:0:0:0:
443,324,79167,54,0,P|519:288|442:253,1,210.000008010865,12|4,0:0|0:0,0:0:0:0:
356,336,79696,2,0,P|308:360|240:348,1,105.000004005432
97,278,80049,1,8,0:0:0:0:
292,264,80225,1,4,0:0:0:0:
180,336,80402,1,0,0:0:0:0:
256,192,80578,6,0,L|248:80,1,105.000004005432,8|0,0:0|0:0,0:0:0:0:
292,264,80931,1,4,0:0:0:0:
164,128,81108,2,0,L|156:16,1,105.000004005432
344,88,81461,1,8,0:0:0:0:
292,264,81637,1,4,0:0:0:0:
265,160,81814,1,0,0:0:0:0:
380,196,81990,86,0,B|428:260|428:260|456:272|456:272|500:320|500:320|448:300,1,210.000008010865,8|4,0:0|0:0,0:0:0:0:
356,347,82519,2,0,L|291:263,1,105.000004005432
179,354,82872,1,8,0:0:0:0:
280,115,83049,1,4,0:0:0:0:
148,256,83225,1,0,0:0:0:0:
276,231,83402,6,0,L|384:211,1,105.000004005432,8|0,0:0|0:0,0:0:0:0:
187,161,83755,1,4,0:0:0:0:
340,300,83931,2,0,L|448:280,1,105.000004005432
187,161,84284,1,8,0:0:0:0:
264,344,84461,1,4,0:0:0:0:
276,231,84637,1,0,0:0:0:0:
85,194,84814,86,0,P|32:144|124:152,1,210.000008010865,8|4,0:0|0:0,0:0:0:0:
108,272,85343,2,0,P|52:272|0:244,1,105.000004005432
187,161,85696,1,8,0:0:0:0:
156,376,85872,1,4,0:0:0:0:
276,231,86049,1,0,0:0:0:0:
264,344,86225,6,0,P|208:324|172:276,1,105.000004005432,8|0,0:0|0:0,0:0:0:0:
364,296,86578,1,4,0:0:0:0:
276,231,86755,2,0,P|250:177|259:117,1,105.000004005432
364,296,87108,1,8,0:0:0:0:
84,260,87284,1,4,0:0:0:0:
212,196,87461,1,0,0:0:0:0:
256,60,87637,86,0,L|152:68,1,105.000004005432,8|0,0:0|0:0,0:0:0:0:
388,128,87990,2,0,L|284:136,1,105.000004005432,4|0,0:0|0:0,0:0:0:0:
340,56,88343,1,0,0:0:0:0:
472,124,88519,1,8,0:0:0:0:
344,204,88696,2,0,L|240:212,1,105.000004005432,4|0,0:0|0:0,0:0:0:0:
256,60,89049,6,0,L|152:68,1,105.000004005432,8|0,0:0|0:0,0:0:0:0:
448,216,89402,2,0,B|344:224|344:224|416:320,1,210.000008010865,4|0,0:0|0:0,0:0:0:0:
480,304,89843,37,8,0:0:0:0:
484,288,89931,1,8,0:0:0:0:
472,124,90108,2,0,B|504:104|504:104|504:188|504:188|448:220,1,157.500006008148,12|0,0:0|0:0,0:0:0:0:
408,172,90461,38,0,P|336:228|424:224,1,210.000008010865,8|4,0:0|0:0,0:0:0:0:
400,92,90990,2,0,P|352:92|288:132,1,105.000004005432
236,272,91343,1,8,0:0:0:0:
56,136,91519,1,4,0:0:0:0:
180,156,91696,1,0,0:0:0:0:
104,256,91872,6,0,L|112:368,1,105.000004005432,8|0,0:0|0:0,0:0:0:0:
32,216,92225,1,4,0:0:0:0:
180,156,92402,2,0,L|188:268,1,105.000004005432
56,136,92755,1,8,0:0:0:0:
268,68,92931,1,4,0:0:0:0:
128,72,93108,1,0,0:0:0:0:
276,164,93284,86,0,B|326:164|354:112|354:112|412:112|448:164,1,210.000008010865,8|4,0:0|0:0,0:0:0:0:
389,304,93814,2,0,P|359:263|363:212,1,105.000004005432
480,344,94167,1,8,0:0:0:0:
248,320,94343,1,4,0:0:0:0:
328,380,94519,1,0,0:0:0:0:
276,168,94696,6,0,B|256:152|256:152|168:160,1,105.000004005432,8|0,0:0|0:0,0:0:0:0:
320,256,95049,1,4,0:0:0:0:
248,76,95225,2,0,L|143:86,1,105.000004005432
276,168,95578,1,8,0:0:0:0:
336,32,95755,1,4,0:0:0:0:
424,152,95931,1,0,0:0:0:0:
248,76,96108,86,0,B|200:76|200:76|152:116|92:88|92:88|20:92,1,210.000008010865,8|4,0:0|0:0,0:0:0:0:
136,0,96637,2,0,P|168:40|172:108,1,105.000004005432
56,280,96990,1,8,0:0:0:0:
40,140,97167,1,4,0:0:0:0:
172,196,97343,1,0,0:0:0:0:
248,76,97519,6,0,L|356:124,1,105.000004005432,8|0,0:0|0:0,0:0:0:0:
284,212,97872,1,4,0:0:0:0:
415,68,98049,2,0,L|523:116,1,105.000004005432
248,76,98402,1,8,0:0:0:0:
383,202,98578,1,4,0:0:0:0:
332,121,98755,1,0,0:0:0:0:
296,311,98931,54,0,B|276:264|276:264|284:212,1,105.000004005432,8|0,0:0|0:0,0:0:0:0:
444,344,99461,1,8,0:0:0:0:
375,250,99637,2,0,B|383:198|383:198|355:134,1,105.000004005432,4|0,0:0|0:0,0:0:0:0:
232,199,100167,2,0,L|300:215,1,52.5000020027161,8|0,0:0|0:0,0:0:0:0:
147,215,100519,2,0,L|249:239,1,105.000004005432,8|0,0:0|0:0,0:0:0:0:
132,132,101049,2,0,P|96:148|76:176,1,52.5000020027161,4|0,0:0|0:0,0:0:0:0:
264,320,101402,2,0,P|300:304|320:276,1,52.5000020027161,4|0,0:0|0:0,0:0:0:0:
36,336,101755,22,0,L|160:344,1,105.000004005432,8|0,0:0|0:0,0:0:0:0:
251,208,102108,2,0,L|127:216,1,105.000004005432,4|0,0:0|0:0,0:0:0:0:
264,320,102461,1,0,0:0:0:0:
356,348,102637,1,8,0:0:0:0:
447,168,102814,1,4,0:0:0:0:
355,196,102990,1,0,0:0:0:0:
492,44,103167,6,0,L|384:32,1,105.000004005432,8|0,0:0|0:0,0:0:0:0:
251,208,103519,2,0,L|359:196,1,105.000004005432,4|0,0:0|0:0,0:0:0:0:
244,44,103872,1,0,0:0:0:0:
156,220,104049,1,8,0:0:0:0:
296,136,104225,1,4,0:0:0:0:
124,96,104402,1,0,0:0:0:0:
252,208,104578,86,0,P|244:260|204:304,1,105.000004005432,8|0,0:0|0:0,0:0:0:0:
196,136,104931,2,0,B|208:136|208:136|236:120|268:120|296:136|296:136|336:132|336:132|360:136|360:136|348:120|308:112,1,210.000008010865,4|0,0:0|0:0,0:0:0:0:
332,228,105461,1,8,0:0:0:0:
211,299,105637,2,0,L|103:291,1,105.000004005432,4|0,0:0|0:0,0:0:0:0:
324,356,105990,6,0,L|432:348,1,105.000004005432,8|0,0:0|0:0,0:0:0:0:
332,228,106343,2,0,P|316:164|440:128,1,210.000008010865,4|0,0:0|0:0,0:0:0:0:
505,330,106872,1,8,0:0:0:0:
388,180,107049,1,4,0:0:0:0:
512,202,107225,1,0,0:0:0:0:
392,324,107402,86,0,P|336:340|264:316,1,105.000004005432,8|0,0:0|0:0,0:0:0:0:
160,165,107755,2,0,B|212:172|232:236|232:236|276:208|332:228,1,210.000008010865,4|0,0:0|0:0,0:0:0:0:
290,331,108284,1,8,0:0:0:0:
136,256,108461,2,0,L|28:264,1,105.000004005432,4|0,0:0|0:0,0:0:0:0:
264,172,108814,6,0,L|159:164,1,105.000004005432,8|0,0:0|0:0,0:0:0:0:
31,263,109167,1,4,0:0:0:0:
181,368,109343,1,0,0:0:0:0:
136,256,109519,1,0,0:0:0:0:
285,317,109696,1,8,0:0:0:0:
264,157,109872,1,4,0:0:0:0:
411,197,110049,1,0,0:0:0:0:
212,240,110225,86,0,P|176:200|172:128,1,105.000004005432,8|0,0:0|0:0,0:0:0:0:
375,139,110578,2,0,B|380:204|336:244|336:244|380:248|412:196,1,210.000008010865,4|0,0:0|0:0,0:0:0:0:
264,157,111108,1,8,0:0:0:0:
299,339,111284,2,0,L|407:331,1,105.000004005432,4|0,0:0|0:0,0:0:0:0:
212,240,111637,6,0,L|104:232,1,105.000004005432,8|0,0:0|0:0,0:0:0:0:
264,75,111990,2,0,B|272:116|272:116|264:156|264:156|332:216|296:288,1,210.000008010865,4|8,0:0|0:0,0:0:0:0:
212,240,112431,37,8,0:0:0:0:
200,216,112519,1,8,0:0:0:0:
376,160,112696,2,0,P|440:192|376:208,1,157.500006008148,4|0,0:0|0:0,0:0:0:0:
311,213,113049,38,0,P|259:218|212:240,1,105.000004005432,8|0,0:0|0:0,0:0:0:0:
86,335,113402,2,0,B|175:339|175:339|208:352|248:340|248:340|279:330|322:343,1,210.000008010865,4|0,0:0|0:0,0:0:0:0:
212,240,113931,1,8,0:0:0:0:
408,284,114108,2,0,P|456:264|484:204,1,105.000004005432,4|0,0:0|0:0,0:0:0:0:
316,116,114461,6,0,B|244:140|244:140|280:152,1,105.000004005432,8|0,0:0|0:0,0:0:0:0:
464,128,114814,2,0,P|480:40|416:108,1,210.000008010865,4|0,0:0|0:0,0:0:0:0:
404,200,115343,1,8,0:0:0:0:
193,198,115519,1,4,0:0:0:0:
298,16,115696,1,0,0:0:0:0:
296,296,115872,86,0,B|268:356|268:356|252:304,1,105.000004005432,8|0,0:0|0:0,0:0:0:0:
88,200,116225,2,0,B|148:176|196:200|196:200|244:228|300:200,1,210.000008010865,4|0,0:0|0:0,0:0:0:0:
147,50,116755,1,8,0:0:0:0:
144,300,116931,1,4,0:0:0:0:
248,124,117108,1,0,0:0:0:0:
45,121,117284,6,0,L|33:234,1,105.000004005432,8|0,0:0|0:0,0:0:0:0:
144,300,117637,2,0,B|132:196|132:196|140:80,1,210.000008010865,4|0,0:0|0:0,0:0:0:0:
228,196,118167,1,8,0:0:0:0:
60,316,118343,1,4,0:0:0:0:
200,348,118519,1,0,0:0:0:0:
132,188,118696,85,8,0:0:0:0:
304,208,118872,1,0,0:0:0:0:
60,316,119049,1,4,0:0:0:0:
328,336,119225,1,0,0:0:0:0:
328,336,119314,1,0,0:0:0:0:
328,336,119402,1,0,0:0:0:0:
228,196,119578,1,8,0:0:0:0:
412,168,119755,1,4,0:0:0:0:
244,292,119931,1,0,0:0:0:0:
220,84,120108,5,8,0:0:0:0:
352,264,120284,1,0,0:0:0:0:
332,88,120461,1,4,0:0:0:0:
244,292,120637,1,0,0:0:0:0:
244,292,120725,1,0,0:0:0:0:
244,292,120814,1,0,0:0:0:0:
412,168,120990,1,8,0:0:0:0:
156,196,121167,1,4,0:0:0:0:
352,264,121343,1,0,0:0:0:0:
352,264,121431,1,0,0:0:0:0:
352,264,121519,54,0,P|324:236|300:160,1,105.000004005432,8|0,0:0|0:0,0:0:0:0:
416,68,122049,1,8,0:0:0:0:
494,124,122225,2,0,B|464:168|464:168|412:168,1,105.000004005432,4|0,0:0|0:0,0:0:0:0:
296,116,122755,2,0,L|356:116,1,52.5000020027161,8|0,0:0|0:0,0:0:0:0:
268,192,123108,2,0,P|224:151|218:95,1,105.000004005432,8|0,0:0|0:0,0:0:0:0:
412,168,123637,2,0,L|416:224,1,52.5000020027161,4|0,0:0|0:0,0:0:0:0:
140,132,123990,2,0,L|144:76,1,52.5000020027161,4|0,0:0|0:0,0:0:0:0:
202,335,124343,54,0,B|220:344|240:340|240:340|248:352|264:344|264:344|280:352,1,70,8|0,0:0|0:0,0:0:0:0:
172,244,124872,1,8,0:0:0:0:
260,268,125049,2,0,B|278:277|298:273|298:273|306:285|322:277|322:277|338:285,1,70,4|0,0:0|0:0,0:0:0:0:
202,335,125578,2,0,L|198:371,1,35,8|0,0:0|0:0,0:0:0:0:
172,244,125931,2,0,L|180:317,1,70,8|0,0:0|0:0,0:0:0:0:
236,180,126461,5,4,0:0:0:0:
396,168,126637,2,0,L|400:136,1,17.5
320,216,126814,2,0,L|324:248,2,23.3333333333333,10|2|2,0:0|0:0|0:0,0:0:0:0:
422,348,127167,86,0,B|398:364|370:356|370:356|360:364|374:384,1,70,8|0,0:0|0:0,0:0:0:0:
510,293,127696,1,8,0:0:0:0:
378,261,127872,2,0,B|354:245|326:253|326:253|316:244|330:225,1,70,4|0,0:0|0:0,0:0:0:0:
398,150,128402,6,0,L|394:182,1,17.5,10|0,0:0|0:0,0:0:0:0:
322,233,128578,2,0,L|319:215,1,17.5,2|0,0:0|0:0,0:0:0:0:
320,108,128755,2,0,L|316:140,1,17.5,10|0,0:0|0:0,0:0:0:0:
240,180,128931,2,0,L|237:162,1,17.5,2|0,0:0|0:0,0:0:0:0:
259,45,129108,2,0,L|255:77,1,17.5,2|0,0:0|0:0,0:0:0:0:
154,140,129284,5,6,0:0:0:0:
330,181,129461,1,10,0:0:0:0:
322,233,129549,1,8,0:0:0:0:
350,297,129637,1,4,0:0:0:0:
346,313,129725,1,2,0:0:0:0:
342,329,129814,1,2,0:0:0:0:
264,112,129990,70,0,B|256:96|264:80|264:80|256:60|256:60|264:48|256:32,1,70,8|0,0:0|0:0,0:0:0:0:
154,140,130519,1,8,0:0:0:0:
344,136,130696,2,0,B|336:120|344:104|344:104|336:84|336:84|344:72|336:56,1,70,4|0,0:0|0:0,0:0:0:0:
232,220,131225,2,0,L|184:224,1,35,8|0,0:0|0:0,0:0:0:0:
336,252,131578,2,0,L|264:246,1,70,8|0,0:0|0:0,0:0:0:0:
344,136,132108,6,0,L|304:139,2,23.3333333333333,10|2|2,0:0|0:0|0:0,0:0:0:0:
404,200,132461,2,0,L|443:203,2,23.3333333333333,2|2|2,0:0|0:0|0:0,0:0:0:0:
336,252,132814,86,0,B|336:284|336:284|340:300|340:300|328:304|328:304|328:288,1,70,8|0,0:0|0:0,0:0:0:0:
344,136,133343,1,8,0:0:0:0:
248,224,133519,2,0,B|248:256|248:256|244:272|244:272|256:276|256:276|256:260,1,70,4|0,0:0|0:0,0:0:0:0:
240,108,134049,2,0,B|224:100|224:100|232:120,1,35,8|0,0:0|0:0,0:0:0:0:
168,56,134402,2,0,B|199:71|199:71|183:32,1,70,8|0,0:0|0:0,0:0:0:0:
152,152,134931,5,4,0:0:0:0:
56,212,135108,1,8,0:0:0:0:
48,260,135196,1,8,0:0:0:0:
80,320,135284,1,4,0:0:0:0:
262,297,135461,1,12,0:0:0:0:
56,212,135637,86,0,B|48:200|60:176|60:176|52:152|52:152|56:132,1,70,8|0,0:0|0:0,0:0:0:0:
152,152,136167,1,8,0:0:0:0:
160,284,136343,2,0,B|152:296|164:320|164:320|156:344|156:344|160:364,1,70,4|0,0:0|0:0,0:0:0:0:
262,297,136872,2,0,L|268:256,1,35,8|0,0:0|0:0,0:0:0:0:
316,384,137225,2,0,L|305:312,1,70,8|0,0:0|0:0,0:0:0:0:
160,284,137755,5,4,0:0:0:0:
240,160,137931,2,0,L|220:156,1,17.5,2|0,0:0|0:0,0:0:0:0:
184,84,138108,2,0,L|208:79,2,23.3333333333333,2|2|2,0:0|0:0|0:0,0:0:0:0:
240,160,138461,86,0,B|264:164|280:156|280:156|296:160|296:160|320:160,1,70,8|0,0:0|0:0,0:0:0:0:
160,284,138990,1,8,0:0:0:0:
296,240,139167,2,0,B|320:244|336:236|336:236|352:240|352:240|376:240,1,70,4|0,0:0|0:0,0:0:0:0:
240,160,139696,6,0,L|236:128,1,17.5,10|0,0:0|0:0,0:0:0:0:
348,116,139872,2,0,L|344:148,1,17.5,2|0,0:0|0:0,0:0:0:0:
296,240,140049,2,0,L|292:208,1,17.5,10|0,0:0|0:0,0:0:0:0:
416,164,140225,2,0,L|412:196,1,17.5,2|0,0:0|0:0,0:0:0:0:
380,288,140402,2,0,L|376:256,1,17.5,2|0,0:0|0:0,0:0:0:0:
496,188,140578,5,4,0:0:0:0:
240,160,140755,1,8,0:0:0:0:
192,152,140843,1,8,0:0:0:0:
132,184,140931,1,4,0:0:0:0:
116,180,141019,1,2,0:0:0:0:
100,176,141108,1,2,0:0:0:0:
233,95,141284,70,0,B|241:105|241:105|233:121|241:133|241:133|237:149|237:149|241:169,1,70,8|0,0:0|0:0,0:0:0:0:
348,116,141814,1,8,0:0:0:0:
296,240,141990,2,0,B|287:250|287:250|295:266|287:278|287:278|291:294|291:294|287:314,1,70,4|0,0:0|0:0,0:0:0:0:
384,204,142519,2,0,L|340:184,1,35,8|0,0:0|0:0,0:0:0:0:
480,252,142872,2,0,L|407:239,1,70,8|0,0:0|0:0,0:0:0:0:
428,336,143402,6,0,L|395:339,2,23.3333333333333,6|2|2,0:0|0:0|0:0,0:0:0:0:
348,284,143755,2,0,L|315:280,2,23.3333333333333,2|2|2,0:0|0:0|0:0,0:0:0:0:
260,320,144108,86,0,B|240:324|228:312|228:312|208:316|208:316|188:312,1,70,8|0,0:0|0:0,0:0:0:0:
272,224,144637,1,8,0:0:0:0:
176,208,144814,2,0,B|156:204|144:216|144:216|124:212|124:212|104:216,1,70,4|0,0:0|0:0,0:0:0:0:
352,88,145343,5,8,0:0:0:0:
380,320,145519,1,4,0:0:0:0:
160,88,145696,85,8,0:0:0:0:
132,320,145872,1,4,0:0:0:0:
400,148,146049,5,8,0:0:0:0:
423,198,146137,1,8,0:0:0:0:
416,252,146225,1,4,0:0:0:0:
112,148,146402,85,8,0:0:0:0:
89,198,146490,1,8,0:0:0:0:
96,252,146578,1,4,0:0:0:0:
256,192,146755,1,12,0:0:0:0:
69,324,146931,70,0,P|-7:288|69:253,1,210.000008010865,12|4,0:0|0:0,0:0:0:0:
232,344,147461,2,0,P|276:348|340:324,1,105.000004005432
256,192,147814,1,8,0:0:0:0:
96,252,147990,2,0,L|200:260,1,105.000004005432,4|0,0:0|0:0,0:0:0:0:
124,88,148343,6,0,L|20:96,1,105.000004005432,8|0,0:0|0:0,0:0:0:0:
256,192,148696,2,0,P|320:196|388:76,1,210.000008010865,4|0,0:0|0:0,0:0:0:0:
184,36,149225,1,8,0:0:0:0:
296,104,149402,1,4,0:0:0:0:
276,12,149578,1,0,0:0:0:0:
164,176,149755,86,0,P|100:180|32:60,1,210.000008010865,8|4,0:0|0:0,0:0:0:0:
256,192,150284,2,0,P|248:244|204:288,1,105.000004005432
124,87,150637,1,8,0:0:0:0:
276,12,150814,2,0,L|392:24,1,105.000004005432,4|0,0:0|0:0,0:0:0:0:
124,87,151167,6,0,L|240:75,1,105.000004005432,8|0,0:0|0:0,0:0:0:0:
464,213,151519,2,0,L|240:189,1,210.000008010865,4|0,0:0|0:0,0:0:0:0:
88,252,152049,1,8,0:0:0:0:
124,87,152225,1,4,0:0:0:0:
164,180,152402,1,0,0:0:0:0:
200,15,152578,86,0,B|288:32|288:32|320:28|320:28|428:48,1,210.000008010865,8|4,0:0|0:0,0:0:0:0:
300,244,153108,2,0,P|256:184|256:128,1,105.000004005432
428,184,153461,1,8,0:0:0:0:
200,344,153637,2,0,L|80:332,1,105.000004005432,4|0,0:0|0:0,0:0:0:0:
360,340,153990,6,0,L|480:328,1,105.000004005432,8|0,0:0|0:0,0:0:0:0:
220,252,154343,2,0,B|160:164|160:164|264:172,1,210.000008010865,4|0,0:0|0:0,0:0:0:0:
392,248,154872,1,8,0:0:0:0:
272,324,155049,1,4,0:0:0:0:
360,340,155225,1,0,0:0:0:0:
128,332,155402,86,0,B|56:280|92:200|92:200|56:204|40:248,1,210.000008010865,8|4,0:0|0:0,0:0:0:0:
176,248,155931,2,0,P|228:220|252:176,1,105.000004005432
136,132,156284,1,8,0:0:0:0:
224,332,156461,2,0,B|276:344|276:344|340:328,1,105.000004005432,4|0,0:0|0:0,0:0:0:0:
408,112,156814,6,0,B|356:100|356:100|292:116,1,105.000004005432,8|0,0:0|0:0,0:0:0:0:
412,208,157167,2,0,P|472:184|480:48,1,210.000008010865,4|0,0:0|0:0,0:0:0:0:
408,112,157608,37,8,0:0:0:0:
392,116,157696,1,8,0:0:0:0:
476,284,157872,2,0,B|452:360|452:360|388:296,1,157.500006008148,4|0,0:0|0:0,0:0:0:0:
412,208,158225,38,0,P|328:184|312:64,1,210.000008010865,8|4,0:0|0:0,0:0:0:0:
508,188,158755,2,0,P|503:240|476:284,1,105.000004005432
312,320,159108,1,8,0:0:0:0:
412,208,159284,2,0,L|300:192,1,105.000004005432,4|0,0:0|0:0,0:0:0:0:
396,56,159637,6,0,L|508:40,1,105.000004005432,8|0,0:0|0:0,0:0:0:0:
336,112,159990,2,0,B|288:116|256:92|256:92|220:104|220:104|180:96|180:96|144:104|108:88,1,210.000008010865,4|0,0:0|0:0,0:0:0:0:
12,24,160519,1,8,0:0:0:0:
120,208,160696,1,4,0:0:0:0:
4,152,160872,1,0,0:0:0:0:
248,176,161049,86,0,P|232:280|140:340,1,210.000008010865,8|4,0:0|0:0,0:0:0:0:
37,265,161578,2,0,B|71:224|71:224|119:207,1,105.000004005432
288,360,161931,1,8,0:0:0:0:
408,272,162108,2,0,B|374:230|374:230|325:214,1,105.000004005432,4|0,0:0|0:0,0:0:0:0:
476,364,162461,6,0,B|480:308|480:308|496:272|484:236,1,105.000004005432,8|0,0:0|0:0,0:0:0:0:
385,80,162814,2,0,P|360:180|407:271,1,210.000008010865,4|0,0:0|0:0,0:0:0:0:
500,164,163343,1,8,0:0:0:0:
404,280,163519,1,4,0:0:0:0:
464,184,163696,1,0,0:0:0:0:
400,288,163872,86,0,P|344:316|360:220,1,210.000008010865,8|4,0:0|0:0,0:0:0:0:
480,264,164402,2,0,P|488:316|472:372,1,105.000004005432
392,200,164755,1,8,0:0:0:0:
336,348,164931,2,0,L|220:356,1,105.000004005432,4|0,0:0|0:0,0:0:0:0:
305,142,165284,6,0,B|312:224|312:224|328:256|328:256|336:348,1,210.000008010865,8|4,0:0|0:0,0:0:0:0:
392,200,165814,2,0,L|384:88,1,105.000004005432
240,284,166167,1,8,0:0:0:0:
400,288,166343,1,4,0:0:0:0:
336,348,166519,1,0,0:0:0:0:
468,244,166696,54,0,P|488:216|444:224,1,105.000004005432,8|0,0:0|0:0,0:0:0:0:
496,352,167225,1,8,0:0:0:0:
400,288,167402,2,0,P|372:256|372:188,1,105.000004005432,4|0,0:0|0:0,0:0:0:0:
479,202,167931,2,0,P|486:226|468:243,1,52.5000020027161,8|0,0:0|0:0,0:0:0:0:
428,124,168284,2,0,B|424:84|424:84|432:56|432:56|428:8,1,105.000004005432,8|0,0:0|0:0,0:0:0:0:
508,92,168814,2,0,L|510:147,1,52.5000020027161,4|0,0:0|0:0,0:0:0:0:
304,224,169167,2,0,L|301:168,1,52.5000020027161,4|0,0:0|0:0,0:0:0:0:
383,306,169519,6,0,B|373:323|336:348|284:364|236:340|200:308|184:268|176:232|188:184|212:155|212:155|135:207|64:144|64:144|41:232|98:283|98:283|171:279|227:336,1,787.500030040742,2|0,0:0|0:0,0:0:0:0:
383,306,172343,86,0,B|459:342|495:258|471:210|407:190|375:226|375:226|335:238|291:218|291:174|295:134|327:114|361:116|391:127|403:154|403:154|447:158|488:132|488:132|455:82|423:50|375:38|328:40|284:64,1,787.500030040742,2|0,0:0|0:0,0:0:0:0:
151,88,175167,6,0,B|144:48|180:28|224:40|240:72|236:112|208:144|164:142|59:92|59:92|87:154|70:204|70:204|20:207|-18:241|-29:300|-16:351|28:391|106:392|148:351|155:295,1,787.500030040742,2|0,0:0|0:0,0:0:0:0:
75,285,177990,86,0,B|153:297|153:297|195:281,1,105.000004005432,2|0,0:0|0:0,0:0:0:0:
151,88,178519,2,0,B|109:155|109:155|147:231,1,157.500006008148,2|0,0:0|0:0,0:0:0:0:
373,169,179225,2,0,B|291:158|291:158|271:166|271:166|219:160,1,157.500006008148,2|0,0:0|0:0,0:0:0:0:
303,240,179931,2,0,L|410:254,1,105.000004005432,2|0,0:0|0:0,0:0:0:0:
219,160,180461,2,0,L|235:209,1,52.5000020027161,2|0,0:0|0:0,0:0:0:0:
299,61,180814,6,0,B|255:66|255:66|223:53|183:65,1,105.000004005432,2|0,0:0|0:0,0:0:0:0:
182,196,181343,2,0,P|204:182|219:161,1,52.5000020027161,2|0,0:0|0:0,0:0:0:0:
82,160,181696,1,2,0:0:0:0:
78,176,181872,1,2,0:0:0:0:
74,192,182049,1,2,0:0:0:0:
70,208,182225,86,0,P|78:248|94:264,1,52.5000020027161
182,196,182578,1,2,0:0:0:0:
186,180,182755,2,0,P|178:140|162:124,1,52.5000020027161,2|0,0:0|0:0,0:0:0:0:
176,288,183108,1,2,0:0:0:0:
192,292,183284,1,2,0:0:0:0:
208,292,183461,6,0,B|272:288|272:288|312:296|312:296|384:292,1,157.500006008148,2|0,0:0|0:0,0:0:0:0:
326,159,184167,2,0,L|320:212,1,52.5000020027161,2|0,0:0|0:0,0:0:0:0:
448,196,184519,1,2,0:0:0:0:
452,180,184696,1,2,0:0:0:0:
456,164,184872,1,2,0:0:0:0:
460,148,185049,86,0,B|468:116|456:72,1,52.5000020027161
326,159,185402,1,2,0:0:0:0:
322,175,185579,2,0,B|314:207|326:251,1,52.5000020027161,2|0,0:0|0:0,0:0:0:0:
384,64,185931,1,2,0:0:0:0:
376,52,186108,1,2,0:0:0:0:
368,40,186284,6,0,B|264:56|264:56|216:92,1,157.500006008148,2|0,0:0|0:0,0:0:0:0:
322,175,186990,2,0,L|292:120,1,52.5000020027161,2|0,0:0|0:0,0:0:0:0:
260,248,187343,1,2,0:0:0:0:
260,264,187519,1,2,0:0:0:0:
260,280,187696,1,2,0:0:0:0:
260,296,187872,86,0,L|196:320,1,52.5000020027161
156,224,188225,1,2,0:0:0:0:
156,208,188401,2,0,L|92:184,1,52.5000020027161,2|0,0:0|0:0,0:0:0:0:
244,136,188755,1,2,0:0:0:0:
248,120,188931,1,2,0:0:0:0:
252,104,189108,1,2,0:0:0:0:
156,196,189284,22,0,L|116:208,2,26.2500010013581,8|8|4,0:0|0:0|0:0,0:0:0:0:
108,112,189637,2,0,L|68:100,2,26.2500010013581,8|8|4,0:0|0:0|0:0,0:0:0:0:
56,224,189990,6,0,L|16:236,2,26.2500010013581,8|8|4,0:0|0:0|0:0,0:0:0:0:
148,280,190343,2,0,L|188:292,2,26.2500010013581,8|8|4,0:0|0:0|0:0,0:0:0:0:
56,324,190696,85,8,0:0:0:0:
30,331,190784,1,8,0:0:0:0:
4,340,190872,1,4,0:0:0:0:
216,324,191049,5,8,0:0:0:0:
228,352,191137,1,8,0:0:0:0:
251,329,191225,1,8,0:0:0:0:
270,353,191314,1,8,0:0:0:0:
287,326,191402,1,8,0:0:0:0:
311,344,191491,1,8,0:0:0:0:
321,313,191578,1,8,0:0:0:0:
349,324,191667,1,8,0:0:0:0:
350,292,191755,38,0,L|396:299,1,26.2500010013581,4|0,0:0|0:0,0:0:0:0:
444,176,191931,2,0,L|418:179,1,26.2500010013581,4|0,0:0|0:0,0:0:0:0:
260,204,192108,70,0,B|240:208|224:200|224:200|204:208|204:208|184:204,1,70,12|0,0:0|0:0,0:0:0:0:
344,128,192637,1,8,0:0:0:0:
208,36,192814,2,0,L|204:64,1,17.5,6|0,0:0|0:0,0:0:0:0:
248,128,192990,2,0,L|244:99,1,17.5,2|0,0:0|0:0,0:0:0:0:
169,53,193167,2,0,L|172:81,1,17.5,2|0,0:0|0:0,0:0:0:0:
231,132,193343,2,0,L|221:106,1,17.5,10|0,0:0|0:0,0:0:0:0:
88,126,193519,5,2,0:0:0:0:
68,155,193607,1,0,0:0:0:0:
60,189,193695,1,10,0:0:0:0:
63,223,193783,1,0,0:0:0:0:
44,262,193873,85,2,0:0:0:0:
63,290,193961,1,0,0:0:0:0:
72,324,194049,1,2,0:0:0:0:
68,359,194137,1,0,0:0:0:0:
101,344,194225,5,6,0:0:0:0:
144,356,194314,1,2,0:0:0:0:
184,334,194402,1,2,0:0:0:0:
226,349,194490,1,2,0:0:0:0:
269,328,194578,85,10,0:0:0:0:
309,347,194667,1,2,0:0:0:0:
353,318,194755,1,2,0:0:0:0:
391,341,194843,1,2,0:0:0:0:
436,320,194931,6,0,P|468:324|508:304,1,70,8|0,0:0|0:0,0:0:0:0:
368,152,195461,1,8,0:0:0:0:
456,236,195637,2,0,B|456:200|456:200|444:160,1,70,4|0,0:0|0:0,0:0:0:0:
392,263,196167,86,0,L|368:268,1,17.5,8|0,0:0|0:0,0:0:0:0:
406,347,196343,2,0,L|382:352,1,17.5
312,231,196519,2,0,L|288:236,1,17.5,4|0,0:0|0:0,0:0:0:0:
280,340,196696,2,0,P|256:332|244:320,1,35
312,214,197049,6,0,L|312:232,1,17.5,4|0,0:0|0:0,0:0:0:0:
180,220,197225,1,8,0:0:0:0:
172,180,197314,1,8,0:0:0:0:
188,124,197402,2,0,P|204:132|224:148,2,23.3333333333333,6|2|2,0:0|0:0|0:0,0:0:0:0:
104,128,197755,85,8,0:0:0:0:
256,176,197931,1,0,0:0:0:0:
84,300,198108,1,0,0:0:0:0:
172,180,198284,1,0,0:0:0:0:
0,200,198461,1,4,0:0:0:0:
88,228,198637,1,0,0:0:0:0:
20,120,198814,1,0,0:0:0:0:
8,280,198990,1,8,0:0:0:0:
8,280,199078,1,0,0:0:0:0:
8,280,199167,6,0,L|32:288,1,17.5,2|0,0:0|0:0,0:0:0:0:
105,232,199343,2,0,L|80:226,1,17.5,10|0,0:0|0:0,0:0:0:0:
27,321,199520,2,0,L|52:325,1,17.5,2|0,0:0|0:0,0:0:0:0:
114,257,199696,2,0,L|88:256,1,17.5,2|0,0:0|0:0,0:0:0:0:
160,360,199872,86,0,P|180:348|188:332,2,23.3333333333333,6|2|2,0:0|0:0|0:0,0:0:0:0:
59,355,200225,2,0,L|63:383,2,23.3333333333333,2|2|2,0:0|0:0|0:0,0:0:0:0:
192,276,200578,6,0,B|208:268|228:276|228:276|244:272|244:272|228:248,1,70,8|0,0:0|0:0,0:0:0:0:
116,160,201108,1,8,0:0:0:0:
244,176,201284,2,0,B|260:184|280:176|280:176|296:180|296:180|280:204,1,70,4|0,0:0|0:0,0:0:0:0:
110,194,201814,2,0,L|116:160,1,35,8|0,0:0|0:0,0:0:0:0:
88,296,202167,2,0,L|75:223,1,70,8|0,0:0|0:0,0:0:0:0:
236,348,202696,5,4,0:0:0:0:
356,188,202872,1,8,0:0:0:0:
376,144,202961,1,8,0:0:0:0:
368,76,203049,1,4,0:0:0:0:
377,328,203225,1,4,0:0:0:0:
224,212,203402,70,0,B|208:208|184:216|184:216|164:208|164:208|144:212,1,70,8|0,0:0|0:0,0:0:0:0:
304,260,203931,1,8,0:0:0:0:
152,280,204108,2,0,L|152:297,1,17.5,6|0,0:0|0:0,0:0:0:0:
236,348,204285,2,0,L|240:331,1,17.5,2|0,0:0|0:0,0:0:0:0:
160,288,204461,2,0,L|161:306,1,17.5,2|0,0:0|0:0,0:0:0:0:
249,349,204638,2,0,L|252:331,1,17.5,10|0,0:0|0:0,0:0:0:0:
162,384,204814,5,2,0:0:0:0:
127,381,204902,1,0,0:0:0:0:
92,378,204990,1,10,0:0:0:0:
57,375,205078,1,0,0:0:0:0:
16,360,205166,85,2,0:0:0:0:
28,312,205255,1,0,0:0:0:0:
20,264,205343,1,2,0:0:0:0:
31,215,205431,1,0,0:0:0:0:
20,168,205519,6,0,L|24:124,1,35,6|0,0:0|0:0,0:0:0:0:
284,72,205696,2,0,L|287:106,1,35,2|0,0:0|0:0,0:0:0:0:
44,29,205872,86,0,L|84:11,1,35,6|0,0:0|0:0,0:0:0:0:
259,210,206049,2,0,L|231:229,1,35,2|0,0:0|0:0,0:0:0:0:
348,24,206225,6,0,P|364:56|356:104,1,70,8|0,0:0|0:0,0:0:0:0:
168,28,206755,1,8,0:0:0:0:
284,72,206931,2,0,L|280:148,1,70,4|0,0:0|0:0,0:0:0:0:
232,222,207461,86,0,L|207:218,1,17.5,8|0,0:0|0:0,0:0:0:0:
139,243,207637,2,0,L|114:239,1,17.5
280,141,207814,2,0,L|255:137,1,17.5,4|0,0:0|0:0,0:0:0:0:
96,156,207990,2,0,P|92:136|88:108,1,35
154,254,208343,6,0,L|140:244,1,17.5,4|0,0:0|0:0,0:0:0:0:
320,212,208519,1,8,0:0:0:0:
328,256,208608,1,8,0:0:0:0:
304,312,208696,2,0,P|284:312|264:300,2,23.3333333333333,6|2|2,0:0|0:0|0:0,0:0:0:0:
424,212,209049,85,8,0:0:0:0:
232,212,209225,1,0,0:0:0:0:
372,128,209402,1,0,0:0:0:0:
328,256,209578,1,8,0:0:0:0:
252,84,209755,1,4,0:0:0:0:
228,224,209931,1,0,0:0:0:0:
376,116,210108,1,0,0:0:0:0:
428,224,210284,1,8,0:0:0:0:
428,224,210372,1,0,0:0:0:0:
428,224,210461,6,0,L|424:256,1,17.5,2|0,0:0|0:0,0:0:0:0:
328,256,210637,2,0,L|332:224,1,17.5,10|0,0:0|0:0,0:0:0:0:
415,250,210814,2,0,L|408:282,1,17.5,2|0,0:0|0:0,0:0:0:0:
313,274,210990,2,0,L|319:242,1,17.5,2|0,0:0|0:0,0:0:0:0:
403,275,211167,86,0,L|391:314,2,23.3333333333333,6|2|2,0:0|0:0|0:0,0:0:0:0:
360,180,211519,2,0,L|364:152,2,23.3333333333333,2|2|2,0:0|0:0|0:0,0:0:0:0:
264,184,211872,6,0,B|236:188|236:188|216:184|204:192|204:192|184:188,1,70,8|0,0:0|0:0,0:0:0:0:
322,262,212402,1,8,0:0:0:0:
228,288,212578,2,0,B|200:284|200:284|180:288|168:280|168:280|148:284,1,70,4|0,0:0|0:0,0:0:0:0:
260,149,213108,2,0,L|264:184,1,35,8|0,0:0|0:0,0:0:0:0:
292,24,213461,6,0,L|283:115,1,91,8|0,0:0|0:0,0:0:0:0:
260,149,214696,6,0,B|213:117|159:132|159:132|115:112|115:112|146:191|95:241|95:241|83:335|185:382|250:331|250:331|296:353|296:353|322:339|361:344,1,630.000024032594,12|0,0:0|0:0,0:0:0:0:
190,255,217167,2,0,L|255:235,1,52.5000020027161,12|0,0:0|0:0,0:0:0:0:
344,51,217519,6,0,B|396:95|388:167|388:167|424:135|480:138|529:175|545:263|480:307|420:307|386:280|369:245|369:245|327:246|311:287|311:287|339:336|377:345,1,630.000024032594,12|0,0:0|0:0,0:0:0:0:
260,149,219990,2,0,L|245:217,1,52.5000020027161,12|0,0:0|0:0,0:0:0:0:
149,336,220343,86,0,B|119:312|110:268|103:222|131:176|169:148|169:148|107:162|51:131|35:71|70:13|146:14|176:48|194:80|194:80|216:66|243:62|243:62|263:60|277:66|277:66|257:81|232:81,1,630.000024032594,12|0,0:0|0:0,0:0:0:0:
242,253,222814,2,0,L|307:242,1,52.5000020027161,12|0,0:0|0:0,0:0:0:0:
394,53,223167,6,0,B|402:88|389:128|357:152|357:152|398:179|422:230|415:296|379:343|303:357,1,367.500014019013,12|0,0:0|0:0,0:0:0:0:
190,352,224578,2,0,B|132:339|98:289|91:228|114:179|155:152|155:152|123:128|110:88|118:53,1,367.500014019013,12|0,0:0|0:0,0:0:0:0:
219,244,225990,86,0,B|270:271|322:261|379:231|389:158|374:111|374:111|398:154|448:168|448:168|512:162|548:132|534:77|506:62|453:63|440:97|448:168|448:168|451:198,1,630.000024032594,12|0,0:0|0:0,0:0:0:0:
268,145,228461,2,0,L|203:144,1,52.5000020027161,12|0,0:0|0:0,0:0:0:0:
29,47,228814,6,0,B|13:82|21:125|21:125|65:153|86:183|90:226|84:260|84:260|76:292|52:341|-4:332|-40:282|-10:236|22:217|60:238|84:260|84:260|110:281|154:293|198:286|238:259,1,630.000024032594,12|0,0:0|0:0,0:0:0:0:
228,88,231284,2,0,L|216:145,1,52.5000020027161,12|0,0:0|0:0,0:0:0:0:
371,239,231637,86,0,B|430:152|430:152|380:15|380:15|293:132|293:132|375:365,1,630.000024032594,12|0,0:0|0:0,0:0:0:0:
431,296,233931,2,0,L|454:263,1,26.2500010013581
257,295,234108,2,0,L|273:344,1,52.5000020027161,12|0,0:0|0:0,0:0:0:0:
460,372,234461,21,12,0:0:0:0:
256,192,234549,12,0,235519,0:0:0:0:
52,12,235872,5,12,0:0:0:0:
256,192,235961,12,0,236931,0:0:0:0:
255,96,237284,54,0,L|323:77,1,70,4|0,0:0|0:0,0:0:0:0:
257,288,237990,6,0,L|175:309,1,83.9999974365235,4|0,0:0|0:0,0:0:0:0:
303,108,238696,86,0,L|407:136,1,97.9999970092774,4|0,0:0|0:0,0:0:0:0:
208,275,239402,6,0,L|91:244,1,112,4|0,0:0|0:0,0:0:0:0:
339,143,240108,86,0,L|411:216,1,62.9999980773926,4|0,0:0|0:0,0:0:0:0:
212,148,240461,1,4,0:0:0:0:
299,236,240637,1,0,0:0:0:0:
173,240,240814,6,0,L|87:154,1,70,4|0,0:0|0:0,0:0:0:0:
304,240,241167,1,4,0:0:0:0:
207,144,241343,1,0,0:0:0:0:
365,187,241519,86,0,L|391:285,1,70,4|0,0:0|0:0,0:0:0:0:
236,124,241872,1,4,0:0:0:0:
272,258,242049,1,0,0:0:0:0:
148,200,242225,6,0,L|116:82,1,77.0000023498536,4|0,0:0|0:0,0:0:0:0:
275,266,242578,1,4,0:0:0:0:
235,116,242755,1,0,0:0:0:0:
336,46,242931,86,0,L|306:154,1,90.9999958343508,4|0,0:0|0:0,0:0:0:0:
400,16,243284,1,4,0:0:0:0:
351,191,243461,1,0,0:0:0:0:
177,42,243637,6,0,L|207:154,1,97.9999970092774,4|0,0:0|0:0,0:0:0:0:
110,12,243990,1,4,0:0:0:0:
160,193,244167,1,0,0:0:0:0:
351,191,244343,86,0,L|320:303,1,105.000004005432,4|0,0:0|0:0,0:0:0:0:
414,159,244696,1,4,0:0:0:0:
360,352,244873,1,0,0:0:0:0:
160,193,245049,6,0,L|190:307,1,112,4|0,0:0|0:0,0:0:0:0:
92,161,245402,1,4,0:0:0:0:
142,354,245579,1,0,0:0:0:0:
351,191,245755,5,4,0:0:0:0:
208,124,245931,1,4,0:0:0:0:
340,32,246108,1,4,0:0:0:0:
256,208,246284,1,4,0:0:0:0:
244,36,246461,5,4,0:0:0:0:
436,20,246637,1,4,0:0:0:0:
208,124,246814,1,4,0:0:0:0:
400,108,246990,1,4,0:0:0:0:
112,108,247167,5,4,0:0:0:0:
304,124,247343,1,4,0:0:0:0:
76,20,247520,1,4,0:0:0:0:
268,36,247696,1,4,0:0:0:0:
256,208,247873,5,4,0:0:0:0:
172,32,248049,1,4,0:0:0:0:
192,280,248226,1,14,0:0:0:0:
304,124,248402,1,10,0:0:0:0:
312,112,248490,1,10,0:0:0:0:
320,100,248578,6,0,B|372:80|440:112|440:112|468:124|500:112|516:72|496:36|456:24|428:44|420:60|432:80,1,280,12|4,0:0|0:0,0:0:0:0:
364,220,249108,38,0,P|364:280|392:320,1,105.000004005432
512,328,249461,1,8,0:0:0:0:
488,156,249637,1,4,0:0:0:0:
456,248,249814,1,0,0:0:0:0:
432,76,249990,6,0,B|352:76|352:76|320:96,1,105.000004005432,8|0,0:0|0:0,0:0:0:0:
488,156,250343,1,4,0:0:0:0:
324,4,250519,2,0,L|232:60,1,105.000004005432
332,254,250872,1,8,0:0:0:0:
187,148,251048,1,4,0:0:0:0:
403,183,251225,1,0,0:0:0:0:
232,238,251402,86,0,P|204:248|132:232,1,105.000004005432,8|0,0:0|0:0,0:0:0:0:
80,56,251755,1,4,0:0:0:0:
262,81,251931,2,0,P|248:107|186:147,1,105.000004005432
8,40,252284,1,8,0:0:0:0:
88,208,252461,1,4,0:0:0:0:
116,124,252637,1,0,0:0:0:0:
0,128,252814,6,0,B|12:208|12:208|0:260|0:260|16:352,1,210.000008010865,8|4,0:0|0:0,0:0:0:0:
116,222,253343,2,0,B|120:204|120:204|88:208|88:208|76:260,1,105.000004005432
192,344,253696,1,8,0:0:0:0:
340,236,253872,1,4,0:0:0:0:
172,160,254049,1,0,0:0:0:0:
304,344,254225,86,0,P|376:344|452:228,1,210.000008010865,8|4,0:0|0:0,0:0:0:0:
308,141,254755,2,0,P|310:193|340:236,1,105.000004005432
440,100,255108,1,8,0:0:0:0:
237,91,255284,1,4,0:0:0:0:
354,57,255461,1,0,0:0:0:0:
172,160,255637,6,0,P|84:144|168:108,1,210.000008010865,8|4,0:0|0:0,0:0:0:0:
244,196,256167,2,0,L|232:300,1,105.000004005432
92,280,256519,1,8,0:0:0:0:
28,152,256696,1,4,0:0:0:0:
172,160,256872,1,0,0:0:0:0:
12,240,257049,86,0,L|4:348,1,105.000004005432,8|0,0:0|0:0,0:0:0:0:
244,196,257402,2,0,L|236:88,1,105.000004005432,4|0,0:0|0:0,0:0:0:0:
212,320,257755,1,0,0:0:0:0:
340,284,257931,1,8,0:0:0:0:
244,196,258108,1,4,0:0:0:0:
292,360,258284,1,0,0:0:0:0:
92,280,258461,6,0,L|84:172,1,105.000004005432,8|0,0:0|0:0,0:0:0:0:
244,196,258814,2,0,P|191:282|91:279,1,210.000008010865,4|0,0:0|0:0,0:0:0:0:
142,190,259255,37,8,0:0:0:0:
138,159,259343,1,8,0:0:0:0:
244,196,259519,2,0,B|304:204|340:148|340:148|344:176|320:204,1,157.500006008148,4|0,0:0|0:0,0:0:0:0:
256,100,259872,38,0,P|216:52|160:28,1,105.000004005432,8|0,0:0|0:0,0:0:0:0:
12,176,260225,1,4,0:0:0:0:
138,159,260402,1,0,0:0:0:0:
60,56,260578,1,0,0:0:0:0:
84,240,260755,1,8,0:0:0:0:
180,92,260931,1,4,0:0:0:0:
155,275,261108,1,0,0:0:0:0:
12,176,261284,5,8,0:0:0:0:
228,192,261461,1,0,0:0:0:0:
68,244,261637,1,4,0:0:0:0:
196,88,261814,1,0,0:0:0:0:
188,304,261990,1,0,0:0:0:0:
271,120,262167,1,8,0:0:0:0:
104,156,262343,1,4,0:0:0:0:
280,276,262519,1,0,0:0:0:0:
296,272,262608,1,0,0:0:0:0:
312,268,262696,86,0,B|352:264|384:292|384:292|424:280|424:280|464:300|512:284,1,210.000008010865,8|4,0:0|0:0,0:0:0:0:
431,108,263225,2,0,P|403:152|396:204,1,105.000004005432
508,192,263578,1,8,0:0:0:0:
324,124,263755,1,4,0:0:0:0:
432,108,263931,1,0,0:0:0:0:
252,192,264108,6,0,L|144:216,1,105.000004005432,8|0,0:0|0:0,0:0:0:0:
232,96,264461,1,4,0:0:0:0:
312,268,264637,2,0,L|204:292,1,105.000004005432
129,93,264990,1,8,0:0:0:0:
110,270,265166,1,4,0:0:0:0:
230,95,265343,1,0,0:0:0:0:
72,177,265519,86,0,P|36:136|32:72,1,105.000004005432,8|0,0:0|0:0,0:0:0:0:
230,95,265872,1,4,0:0:0:0:
110,270,266049,2,0,P|92:276|0:248,1,105.000004005432
252,192,266402,1,8,0:0:0:0:
72,177,266578,1,4,0:0:0:0:
160,199,266755,1,0,0:0:0:0:
110,270,266931,6,0,P|116:344|188:284,1,210.000008010865,8|4,0:0|0:0,0:0:0:0:
10,257,267461,2,0,P|0:312|16:368,1,105.000004005432
164,156,267814,1,8,0:0:0:0:
40,164,267990,1,4,0:0:0:0:
110,270,268167,1,0,0:0:0:0:
96,80,268343,54,0,P|128:52|116:96,1,105.000004005432,8|0,0:0|0:0,0:0:0:0:
40,164,268872,1,8,0:0:0:0:
164,156,269049,2,0,P|204:116|212:56,1,105.000004005432,4|0,0:0|0:0,0:0:0:0:
35,29,269578,2,0,P|25:53|24:80,1,52.5000020027161,8|0,0:0|0:0,0:0:0:0:
156,259,269931,2,0,B|156:215|156:215|164:195|164:195|164:151,1,105.000004005432,8|0,0:0|0:0,0:0:0:0:
228,284,270461,2,0,L|228:221,1,52.5000020027161,4|0,0:0|0:0,0:0:0:0:
92,124,270814,2,0,L|92:187,1,52.5000020027161,4|0,0:0|0:0,0:0:0:0:
272,128,271167,22,0,L|400:112,1,105.000004005432,8|0,0:0|0:0,0:0:0:0:
228,231,271519,2,0,L|100:215,1,105.000004005432,4|0,0:0|0:0,0:0:0:0:
160,24,271872,1,0,0:0:0:0:
176,120,272049,1,8,0:0:0:0:
28,164,272225,1,4,0:0:0:0:
44,68,272402,1,0,0:0:0:0:
123,217,272578,6,0,L|228:231,1,105.000004005432,8|0,0:0|0:0,0:0:0:0:
264,10,272931,2,0,L|159:23,1,105.000004005432,4|0,0:0|0:0,0:0:0:0:
272,128,273284,1,0,0:0:0:0:
176,120,273461,1,8,0:0:0:0:
319,264,273637,1,4,0:0:0:0:
228,231,273814,1,0,0:0:0:0:
356,176,273990,86,0,P|396:144|400:76,1,105.000004005432,8|0,0:0|0:0,0:0:0:0:
176,120,274343,2,0,B|124:208|124:208|232:232,1,210.000008010865,4|0,0:0|0:0,0:0:0:0:
232,40,274872,1,8,0:0:0:0:
104,96,275049,1,4,0:0:0:0:
252,152,275225,1,0,0:0:0:0:
124,208,275402,6,0,L|116:312,1,105.000004005432,8|0,0:0|0:0,0:0:0:0:
356,176,275755,2,0,L|348:72,1,105.000004005432,4|0,0:0|0:0,0:0:0:0:
284,256,276108,1,0,0:0:0:0:
452,228,276284,1,8,0:0:0:0:
252,152,276461,2,0,L|244:48,1,105.000004005432,4|0,0:0|0:0,0:0:0:0:
124,208,276814,86,0,B|147:256|147:256|182:297,1,105.000004005432,8|0,0:0|0:0,0:0:0:0:
160,116,277167,2,0,B|91:35|91:35|60:144,1,210.000008010865,4|0,0:0|0:0,0:0:0:0:
208,215,277696,1,8,0:0:0:0:
99,315,277872,1,4,0:0:0:0:
240,357,278049,1,0,0:0:0:0:
104,212,278225,6,0,P|52:144|96:24,1,210.000008010865,8|4,0:0|0:0,0:0:0:0:
300,76,278755,1,0,0:0:0:0:
160,116,278931,1,0,0:0:0:0:
316,236,279108,1,8,0:0:0:0:
220,60,279284,1,4,0:0:0:0:
208,215,279461,1,0,0:0:0:0:
364,152,279637,86,0,P|404:196|412:252,1,105.000004005432,8|0,0:0|0:0,0:0:0:0:
240,140,279990,1,4,0:0:0:0:
316,236,280167,2,0,P|313:295|279:340,1,105.000004005432
96,280,280519,1,8,0:0:0:0:
240,140,280696,1,4,0:0:0:0:
184,228,280872,1,0,0:0:0:0:
80,120,281049,6,0,P|72:76|96:20,1,105.000004005432,8|0,0:0|0:0,0:0:0:0:
267,102,281402,2,0,B|308:132|308:132|240:140|240:140|168:84,1,210.000008010865,4|0,0:0|0:0,0:0:0:0:
230,29,281843,37,8,0:0:0:0:
246,25,281931,1,8,0:0:0:0:
240,140,282108,2,0,P|268:192|304:128,1,157.500006008148,4|0,0:0|0:0,0:0:0:0:
168,84,282461,38,0,P|152:136|164:208,1,105.000004005432,8|0,0:0|0:0,0:0:0:0:
288,341,282814,2,0,B|328:308|328:308|340:248|340:248|384:216|387:166,1,210.000008010865,4|0,0:0|0:0,0:0:0:0:
168,84,283343,1,8,0:0:0:0:
256,264,283519,1,4,0:0:0:0:
368,96,283696,1,0,0:0:0:0:
160,200,283872,6,0,P|136:196|64:132,1,105.000004005432,8|0,0:0|0:0,0:0:0:0:
244,99,284225,2,0,B|256:79|284:87|280:115|260:147|260:147|288:203|255:262,1,210.000008010865,4|0,0:0|0:0,0:0:0:0:
104,136,284755,1,8,0:0:0:0:
344,152,284931,1,4,0:0:0:0:
160,200,285108,1,0,0:0:0:0:
320,76,285284,86,0,P|372:76|416:120,1,105.000004005432,8|0,0:0|0:0,0:0:0:0:
370,353,285637,2,0,B|356:312|367:268|367:268|347:236|347:236|356:196|343:151,1,210.000008010865,4|0,0:0|0:0,0:0:0:0:
260,292,286167,1,8,0:0:0:0:
472,304,286343,1,4,0:0:0:0:
368,268,286519,1,0,0:0:0:0:
436,124,286696,6,0,P|472:96|528:104,1,105.000004005432,8|0,0:0|0:0,0:0:0:0:
360,176,287049,2,0,B|256:164|256:164|152:176,1,210.000008010865,4|0,0:0|0:0,0:0:0:0:
259,293,287578,1,8,0:0:0:0:
103,261,287754,1,4,0:0:0:0:
169,334,287930,1,0,0:0:0:0:
151,176,288108,85,8,0:0:0:0:
352,272,288284,1,0,0:0:0:0:
186,252,288461,1,4,0:0:0:0:
312,132,288637,1,0,0:0:0:0:
312,132,288725,1,0,0:0:0:0:
312,132,288814,1,0,0:0:0:0:
132,72,288990,1,8,0:0:0:0:
335,211,289167,1,4,0:0:0:0:
151,176,289343,1,0,0:0:0:0:
344,56,289519,5,8,0:0:0:0:
120,72,289695,1,0,0:0:0:0:
244,199,289872,1,4,0:0:0:0:
192,16,290049,1,0,0:0:0:0:
192,16,290137,1,0,0:0:0:0:
192,16,290225,1,0,0:0:0:0:
348,144,290402,1,8,0:0:0:0:
160,216,290578,1,4,0:0:0:0:
232,124,290755,1,0,0:0:0:0:
232,124,290843,1,0,0:0:0:0:
232,124,290931,54,0,B|274:157|274:157|244:200,1,105.000004005432,8|0,0:0|0:0,0:0:0:0:
152,136,291461,1,8,0:0:0:0:
264,52,291637,2,0,L|360:132,1,105.000004005432,4|0,0:0|0:0,0:0:0:0:
259,249,292167,2,0,P|247:213|243:189,1,52.5000020027161,8|0,0:0|0:0,0:0:0:0:
340,256,292519,2,0,B|324:308|324:308|264:336,1,105.000004005432,8|0,0:0|0:0,0:0:0:0:
420,248,293049,2,0,L|400:308,1,52.5000020027161,4|0,0:0|0:0,0:0:0:0:
212,272,293402,2,0,L|262:247,1,52.5000020027161,4|0,0:0|0:0,0:0:0:0:
176,376,293755,54,0,B|160:380|136:372|136:372|120:372|120:372|100:368,1,70,8|0,0:0|0:0,0:0:0:0:
212,272,294284,1,8,0:0:0:0:
112,280,294461,2,0,B|96:276|72:284|72:284|56:284|56:284|36:288,1,70,4|0,0:0|0:0,0:0:0:0:
152,153,294990,2,0,L|156:188,1,35,8|0,0:0|0:0,0:0:0:0:
144,48,295343,2,0,L|136:118,1,70,8|0,0:0|0:0,0:0:0:0:
240,92,295872,5,4,0:0:0:0:
240,188,296049,2,0,L|242:211,1,17.5,2|0,0:0|0:0,0:0:0:0:
324,140,296225,2,0,L|326:114,2,23.3333333333333,2|2|2,0:0|0:0|0:0,0:0:0:0:
388,212,296578,86,0,B|391:224|384:240|384:240|388:252|388:252|381:268|384:280,1,70,8|0,0:0|0:0,0:0:0:0:
240,188,297108,1,8,0:0:0:0:
304,260,297284,2,0,B|307:272|300:288|300:288|304:300|304:300|297:316|300:328,1,70,4|0,0:0|0:0,0:0:0:0:
156,236,297814,6,0,L|152:208,1,17.5,10|0,0:0|0:0,0:0:0:0:
84,100,297990,2,0,L|86:117,1,17.5,2|0,0:0|0:0,0:0:0:0:
72,216,298167,2,0,L|68:188,1,17.5,10|0,0:0|0:0,0:0:0:0:
168,120,298343,2,0,L|170:137,1,17.5,2|0,0:0|0:0,0:0:0:0:
4,148,298519,2,0,L|0:120,1,17.5,2|0,0:0|0:0,0:0:0:0:
96,300,298696,5,4,0:0:0:0:
240,188,298872,1,10,0:0:0:0:
292,176,298961,1,8,0:0:0:0:
360,192,299049,1,4,0:0:0:0:
380,188,299137,1,0,0:0:0:0:
400,184,299225,1,0,0:0:0:0:
292,288,299402,70,0,B|272:296|244:288|244:288|232:312|220:308,1,70,8|0,0:0|0:0,0:0:0:0:
344,112,299931,1,8,0:0:0:0:
240,188,300108,2,0,B|220:180|192:188|192:188|180:164|168:168,1,70,4|0,0:0|0:0,0:0:0:0:
196,308,300637,2,0,L|231:305,1,35,8|0,0:0|0:0,0:0:0:0:
96,320,300990,2,0,L|169:327,1,70,8|0,0:0|0:0,0:0:0:0:
179,193,301519,6,0,L|179:170,2,23.3333333333333,6|2|2,0:0|0:0|0:0,0:0:0:0:
236,80,301872,2,0,L|235:103,2,23.3333333333333,2|2|2,0:0|0:0|0:0,0:0:0:0:
108,92,302225,86,0,B|76:88|76:88|60:76|60:76|44:88|56:104,1,70,8|0,0:0|0:0,0:0:0:0:
179,193,302755,1,8,0:0:0:0:
68,200,302931,2,0,B|36:204|36:204|20:216|20:216|4:204|16:188,1,70,4|0,0:0|0:0,0:0:0:0:
108,336,303461,2,0,L|155:331,1,35,8|0,0:0|0:0,0:0:0:0:
54,309,303814,2,0,L|124:316,1,70,8|0,0:0|0:0,0:0:0:0:
256,192,304343,5,4,0:0:0:0:
152,72,304519,1,8,0:0:0:0:
104,64,304608,1,8,0:0:0:0:
40,88,304696,1,4,0:0:0:0:
152,228,304872,1,4,0:0:0:0:
152,72,305049,86,0,B|188:64|188:64|208:72|232:64,1,70,8|0,0:0|0:0,0:0:0:0:
152,228,305578,1,8,0:0:0:0:
256,192,305755,2,0,B|292:200|292:200|312:192|336:200,1,70,4|0,0:0|0:0,0:0:0:0:
464,148,306284,2,0,L|460:184,1,35,8|0,0:0|0:0,0:0:0:0:
480,44,306637,2,0,L|487:114,1,70,8|0,0:0|0:0,0:0:0:0:
372,80,307167,5,4,0:0:0:0:
460,182,307343,2,0,L|428:190,1,17.5,2|0,0:0|0:0,0:0:0:0:
360,244,307519,2,0,L|394:252,2,23.3333333333333,2|2|2,0:0|0:0|0:0,0:0:0:0:
212,168,307872,86,0,B|204:192|212:216|212:216|208:228|208:240,1,70,8|0,0:0|0:0,0:0:0:0:
48,148,308402,1,8,0:0:0:0:
112,220,308578,2,0,B|120:244|112:268|112:268|116:280|116:292,1,70,4|0,0:0|0:0,0:0:0:0:
0,344,309108,6,0,L|32:340,1,17.5,10|0,0:0|0:0,0:0:0:0:
125,382,309284,2,0,L|108:380,1,17.5,2|0,0:0|0:0,0:0:0:0:
8,252,309461,2,0,L|40:248,1,17.5,10|0,0:0|0:0,0:0:0:0:
133,290,309637,2,0,L|115:287,1,17.5,2|0,0:0|0:0,0:0:0:0:
36,164,309814,2,0,L|68:160,1,17.5,2|0,0:0|0:0,0:0:0:0:
17,341,309990,5,4,0:0:0:0:
252,308,310167,1,10,0:0:0:0:
304,300,310255,1,8,0:0:0:0:
354,251,310343,1,4,0:0:0:0:
380,247,310431,1,0,0:0:0:0:
406,243,310519,1,0,0:0:0:0:
164,196,310696,70,0,B|156:176|156:176|168:144|168:144|176:160,1,70,8|0,0:0|0:0,0:0:0:0:
272,204,311225,1,8,0:0:0:0:
320,116,311402,2,0,B|328:96|328:96|316:64|316:64|308:80,1,70,4|0,0:0|0:0,0:0:0:0:
376,180,311931,2,0,B|419:184,1,35,8|0,0:0|0:0,0:0:0:0:
272,204,312284,2,0,B|356:196,1,70,8|0,0:0|0:0,0:0:0:0:
204,116,312814,6,0,L|200:148,2,23.3333333333333,6|2|2,0:0|0:0|0:0,0:0:0:0:
272,204,313167,2,0,L|268:172,2,23.3333333333333,2|2|2,0:0|0:0|0:0,0:0:0:0:
164,224,313519,86,0,B|136:224|136:224|120:216|104:224|104:224|120:240,1,70,8|0,0:0|0:0,0:0:0:0:
232,324,314049,1,8,0:0:0:0:
140,352,314225,2,0,B|112:352|112:352|96:360|80:352|80:352|96:336,1,70,4|0,0:0|0:0,0:0:0:0:
164,128,314755,5,8,0:0:0:0:
372,352,314931,1,4,0:0:0:0:
348,128,315108,85,8,0:0:0:0:
140,352,315284,1,4,0:0:0:0:
404,188,315461,5,8,0:0:0:0:
418,233,315549,1,8,0:0:0:0:
412,280,315637,1,4,0:0:0:0:
108,188,315814,85,8,0:0:0:0:
94,233,315902,1,8,0:0:0:0:
100,280,315990,1,4,0:0:0:0:
256,152,316167,1,4,0:0:0:0:
64,96,316343,70,0,B|56:152|56:152|64:212,1,105.000004005432,8|0,0:0|0:0,0:0:0:0:
248,292,316696,2,0,B|284:212|284:212|256:152|256:152|224:216,1,210.000008010865,4|0,0:0|0:0,0:0:0:0:
324,344,317225,1,8,0:0:0:0:
360,188,317402,2,0,L|315:92,1,105.000004005432,4|0,0:0|0:0,0:0:0:0:
356,268,317755,6,0,P|400:256|436:208,1,105.000004005432,8|0,0:0|0:0,0:0:0:0:
230,97,318108,2,0,B|272:196|272:196|236:236|248:292,1,210.000008010865,4|0,0:0|0:0,0:0:0:0:
356,268,318637,1,8,0:0:0:0:
164,188,318814,2,0,L|48:204,1,105.000004005432,4|0,0:0|0:0,0:0:0:0:
230,97,319167,86,0,L|346:113,1,105.000004005432,8|0,0:0|0:0,0:0:0:0:
243,302,319519,2,0,B|224:264|240:216|240:216|252:180|232:144|232:144|230:97,1,210.000008010865,4|0,0:0|0:0,0:0:0:0:
164,188,320049,1,8,0:0:0:0:
328,256,320225,2,0,B|352:268|352:268|376:292|376:292|440:320,1,105.000004005432,4|0,0:0|0:0,0:0:0:0:
244,304,320578,6,0,B|192:292|192:292|240:256,1,105.000004005432,8|0,0:0|0:0,0:0:0:0:
144,352,320931,2,0,B|40:328|40:328|132:260,1,210.000008010865,4|0,0:0|0:0,0:0:0:0:
244,304,321461,1,8,0:0:0:0:
164,188,321637,2,0,L|184:72,1,105.000004005432,4|0,0:0|0:0,0:0:0:0:
348,196,321990,86,0,L|328:312,1,105.000004005432,8|0,0:0|0:0,0:0:0:0:
256,164,322343,2,0,P|308:108|436:152,1,210.000008010865,4|0,0:0|0:0,0:0:0:0:
324,308,322872,1,8,0:0:0:0:
256,164,323049,2,0,B|240:112|240:112|248:52,1,105.000004005432,4|0,0:0|0:0,0:0:0:0:
426,137,323402,6,0,B|442:189|442:189|434:249,1,105.000004005432,8|0,0:0|0:0,0:0:0:0:
336,104,323755,2,0,P|368:52|424:140,1,210.000008010865,4|0,0:0|0:0,0:0:0:0:
256,164,324284,1,8,0:0:0:0:
364,296,324461,2,0,L|260:304,1,105.000004005432,4|0,0:0|0:0,0:0:0:0:
151,155,324814,86,0,L|255:163,1,105.000004005432,8|0,0:0|0:0,0:0:0:0:
104,264,325167,2,0,B|93:211|93:211|58:174|58:174|78:124|78:124|67:73,1,210.000008010865,4|0,0:0|0:0,0:0:0:0:
180,232,325696,1,8,0:0:0:0:
67,73,325872,2,0,L|171:81,1,105.000004005432,4|0,0:0|0:0,0:0:0:0:
44,352,326225,6,0,L|16:220,1,105.000004005432,8|0,0:0|0:0,0:0:0:0:
261,248,326578,2,0,P|188:314|104:264,1,210.000008010865,4|0,0:0|0:0,0:0:0:0:
180,232,327019,37,8,0:0:0:0:
184,212,327108,1,8,0:0:0:0:
72,109,327284,2,0,L|105:270,1,157.500006008148,4|0,0:0|0:0,0:0:0:0:
44,352,327637,38,0,L|16:220,1,105.000004005432,8|0,0:0|0:0,0:0:0:0:
183,51,327990,2,0,P|241:131|183:211,1,210.000008010865,4|0,0:0|0:0,0:0:0:0:
55,140,328519,1,8,0:0:0:0:
261,248,328696,2,0,L|365:256,1,105.000004005432,4|0,0:0|0:0,0:0:0:0:
160,132,329049,6,0,L|56:140,1,105.000004005432,8|0,0:0|0:0,0:0:0:0:
160,284,329402,2,0,B|235:290|235:290|262:263|262:263|367:272,1,210.000008010865,4|0,0:0|0:0,0:0:0:0:
192,208,329931,1,8,0:0:0:0:
388,355,330108,2,0,P|429:325|446:273,1,105.000004005432,4|0,0:0|0:0,0:0:0:0:
261,248,330461,86,0,L|365:256,1,105.000004005432,8|0,0:0|0:0,0:0:0:0:
160,284,330814,2,0,P|116:236|196:124,1,210.000008010865,4|0,0:0|0:0,0:0:0:0:
236,344,331343,1,8,0:0:0:0:
55,275,331519,2,0,L|159:283,1,105.000004005432,4|0,0:0|0:0,0:0:0:0:
282,117,331872,6,0,L|178:125,1,105.000004005432,8|0,0:0|0:0,0:0:0:0:
259,306,332225,2,0,B|288:272|292:232|292:232|268:204|268:204|292:168|282:117,1,210.000008010865,4|0,0:0|0:0,0:0:0:0:
192,208,332755,1,8,0:0:0:0:
336,332,332931,2,0,P|360:284|368:232,1,105.000004005432,4|0,0:0|0:0,0:0:0:0:
171,105,333284,86,0,L|195:225,1,105.000004005432,8|0,0:0|0:0,0:0:0:0:
380,128,333637,2,0,L|170:104,1,210.000008010865,4|0,0:0|0:0,0:0:0:0:
120,288,334167,1,8,0:0:0:0:
295,219,334343,2,0,L|159:203,1,105.000004005432,4|0,0:0|0:0,0:0:0:0:
329,312,334696,6,0,P|372:280|392:216,1,105.000004005432,8|0,0:0|0:0,0:0:0:0:
249,147,335049,2,0,P|208:223|295:219,1,210.000008010865,4|0,0:0|0:0,0:0:0:0:
324,68,335578,1,8,0:0:0:0:
329,312,335755,1,4,0:0:0:0:
336,324,336108,54,0,P|328:344|320:304,1,105.000004005432,8|0,0:0|0:0,0:0:0:0:
457,263,336637,1,8,0:0:0:0:
295,218,336814,2,0,P|276:246|308:304,1,105.000004005432,4|0,0:0|0:0,0:0:0:0:
383,213,337343,2,0,L|389:158,1,52.5000020027161,8|0,0:0|0:0,0:0:0:0:
283,113,337696,2,0,L|294:217,1,105.000004005432,8|0,0:0|0:0,0:0:0:0:
344,58,338225,2,0,P|315:37|294:33,1,52.5000020027161,4|0,0:0|0:0,0:0:0:0:
237,274,338578,2,0,P|266:295|287:299,1,52.5000020027161,4|0,0:0|0:0,0:0:0:0:
256,192,338931,12,0,348108,0:0:0:0:
