osu file format v14

[General]
AudioFilename: audio.mp3
AudioLeadIn: 0
PreviewTime: 433
Countdown: 1
SampleSet: None
StackLeniency: 0.7
Mode: 1
LetterboxInBreaks: 0
WidescreenStoryboard: 0

[Editor]
DistanceSpacing: 0.8
BeatDivisor: 4
GridSize: 32
TimelineZoom: 1

[Metadata]
Title:Ordyne
TitleUnicode:大打音
Artist:Hosoe Shinji
ArtistUnicode:細江慎治
Creator:-Maruk-
Version:Oni
Source:太鼓の達人
Tags:daidaon oodain
BeatmapID:1899812
BeatmapSetID:910422

[Difficulty]
HPDrainRate:5
CircleSize:2
OverallDifficulty:5
ApproachRate:9
SliderMultiplier:1.40000000596046
SliderTickRate:1

[Events]
//Background and Video events
0,0,"BG.jpg",0,0
//Break Periods
//Storyboard Layer 0 (Background)
//Storyboard Layer 1 (Fail)
//Storyboard Layer 2 (Pass)
//Storyboard Layer 3 (Foreground)
//Storyboard Sound Samples

[TimingPoints]
541,444.444444444444,4,1,0,70,1,0
43215,-100,4,1,0,70,0,1
59215,-100,4,1,0,70,0,0
78771,-100,4,1,0,70,0,1
85882,-100,4,1,0,70,0,0
100104,-100,4,1,0,70,0,1
114326,-100,4,1,0,70,0,0

[HitObjects]
256,192,541,5,6,0:0:0:0:
256,192,985,1,6,0:0:0:0:
256,192,1429,1,6,0:0:0:0:
256,192,1874,1,6,0:0:0:0:
256,192,2318,1,6,0:0:0:0:
256,192,2763,1,6,0:0:0:0:
256,192,3096,1,6,0:0:0:0:
256,192,4096,1,0,0:0:0:0:
256,192,4429,1,2,0:0:0:0:
256,192,4763,1,0,0:0:0:0:
256,192,4985,1,2,0:0:0:0:
256,192,5318,1,0,0:0:0:0:
256,192,5652,1,2,0:0:0:0:
256,192,5874,1,0,0:0:0:0:
256,192,6207,1,2,0:0:0:0:
256,192,6540,1,0,0:0:0:0:
256,192,6763,1,2,0:0:0:0:
256,192,7096,1,0,0:0:0:0:
256,192,7429,1,2,0:0:0:0:
256,192,7652,1,2,0:0:0:0:
256,192,8096,1,2,0:0:0:0:
256,192,8540,1,2,0:0:0:0:
256,192,8985,1,2,0:0:0:0:
256,192,9429,1,2,0:0:0:0:
256,192,9652,1,2,0:0:0:0:
256,192,9874,1,2,0:0:0:0:
256,192,9985,1,2,0:0:0:0:
256,192,10207,1,2,0:0:0:0:
256,192,10540,1,2,0:0:0:0:
256,192,10652,1,2,0:0:0:0:
256,192,10763,1,2,0:0:0:0:
256,192,10874,1,2,0:0:0:0:
256,192,10985,1,2,0:0:0:0:
256,192,11207,1,0,0:0:0:0:
256,192,11540,1,0,0:0:0:0:
256,192,11874,1,0,0:0:0:0:
256,192,12207,1,0,0:0:0:0:
256,192,12540,1,0,0:0:0:0:
256,192,12763,1,0,0:0:0:0:
256,192,12985,1,0,0:0:0:0:
256,192,14318,1,0,0:0:0:0:
256,192,14429,1,0,0:0:0:0:
256,192,14763,1,0,0:0:0:0:
256,192,15207,1,0,0:0:0:0:
256,192,15652,1,2,0:0:0:0:
256,192,16096,1,0,0:0:0:0:
256,192,16540,1,0,0:0:0:0:
256,192,16763,1,0,0:0:0:0:
256,192,16985,1,0,0:0:0:0:
256,192,17096,1,2,0:0:0:0:
256,192,17318,1,2,0:0:0:0:
256,192,17652,1,2,0:0:0:0:
256,192,17874,1,2,0:0:0:0:
256,192,18318,1,0,0:0:0:0:
256,192,18429,1,0,0:0:0:0:
256,192,18652,1,0,0:0:0:0:
256,192,18763,1,0,0:0:0:0:
256,192,18985,1,0,0:0:0:0:
256,192,19096,1,0,0:0:0:0:
256,192,19318,1,2,0:0:0:0:
256,192,19429,1,2,0:0:0:0:
256,192,19652,1,2,0:0:0:0:
256,192,19874,1,2,0:0:0:0:
256,192,20096,1,0,0:0:0:0:
256,192,20207,1,0,0:0:0:0:
256,192,20429,1,0,0:0:0:0:
256,192,20540,1,0,0:0:0:0:
256,192,20763,1,0,0:0:0:0:
256,192,20874,1,0,0:0:0:0:
256,192,21207,1,0,0:0:0:0:
256,192,21429,1,0,0:0:0:0:
256,192,21540,1,0,0:0:0:0:
256,192,21874,1,0,0:0:0:0:
256,192,22318,1,0,0:0:0:0:
256,192,22763,1,2,0:0:0:0:
256,192,23207,1,2,0:0:0:0:
256,192,23652,1,0,0:0:0:0:
256,192,23874,1,0,0:0:0:0:
256,192,24096,1,0,0:0:0:0:
256,192,24207,1,2,0:0:0:0:
256,192,24429,1,2,0:0:0:0:
256,192,24763,1,2,0:0:0:0:
256,192,24985,1,2,0:0:0:0:
256,192,25096,1,2,0:0:0:0:
256,192,25429,1,0,0:0:0:0:
256,192,25540,1,0,0:0:0:0:
256,192,25763,1,0,0:0:0:0:
256,192,25874,1,0,0:0:0:0:
256,192,26096,1,0,0:0:0:0:
256,192,26207,1,0,0:0:0:0:
256,192,26429,1,0,0:0:0:0:
256,192,26540,1,2,0:0:0:0:
256,192,26763,1,2,0:0:0:0:
256,192,26985,1,2,0:0:0:0:
256,192,27207,1,0,0:0:0:0:
256,192,27540,1,0,0:0:0:0:
256,192,27874,1,0,0:0:0:0:
256,192,28318,1,0,0:0:0:0:
256,192,28429,1,2,0:0:0:0:
256,192,28540,1,0,0:0:0:0:
256,192,28652,1,0,0:0:0:0:
256,192,28985,1,0,0:0:0:0:
256,192,29207,1,2,0:0:0:0:
256,192,29318,1,0,0:0:0:0:
256,192,29874,1,0,0:0:0:0:
256,192,30096,1,2,0:0:0:0:
256,192,30207,1,0,0:0:0:0:
256,192,30540,1,2,0:0:0:0:
256,192,30763,1,0,0:0:0:0:
256,192,30874,1,2,0:0:0:0:
256,192,31096,1,2,0:0:0:0:
256,192,31207,1,0,0:0:0:0:
256,192,31318,1,2,0:0:0:0:
256,192,31540,1,2,0:0:0:0:
256,192,31652,1,0,0:0:0:0:
256,192,31763,1,2,0:0:0:0:
256,192,31985,1,2,0:0:0:0:
256,192,32096,1,0,0:0:0:0:
256,192,32540,1,0,0:0:0:0:
256,192,32763,1,2,0:0:0:0:
256,192,32874,1,0,0:0:0:0:
256,192,33652,1,2,0:0:0:0:
256,192,33874,1,0,0:0:0:0:
256,192,33985,1,2,0:0:0:0:
256,192,34318,1,0,0:0:0:0:
256,192,34429,1,2,0:0:0:0:
256,192,34652,1,2,0:0:0:0:
256,192,34763,1,0,0:0:0:0:
256,192,34874,1,2,0:0:0:0:
256,192,35096,1,2,0:0:0:0:
256,192,35207,1,0,0:0:0:0:
256,192,35318,1,2,0:0:0:0:
256,192,35540,1,2,0:0:0:0:
256,192,35652,1,0,0:0:0:0:
256,192,35874,1,2,0:0:0:0:
256,192,36096,1,0,0:0:0:0:
256,192,36318,1,2,0:0:0:0:
256,192,36429,1,0,0:0:0:0:
256,192,36985,1,0,0:0:0:0:
256,192,37207,1,2,0:0:0:0:
256,192,37318,1,0,0:0:0:0:
256,192,37652,1,2,0:0:0:0:
256,192,37874,1,0,0:0:0:0:
256,192,37985,1,2,0:0:0:0:
256,192,38207,1,2,0:0:0:0:
256,192,38318,1,0,0:0:0:0:
256,192,38429,1,2,0:0:0:0:
256,192,38652,1,2,0:0:0:0:
256,192,38763,1,0,0:0:0:0:
256,192,38874,1,2,0:0:0:0:
256,192,39096,1,2,0:0:0:0:
256,192,39207,1,0,0:0:0:0:
256,192,39318,1,2,0:0:0:0:
256,192,39429,1,2,0:0:0:0:
256,192,39652,1,0,0:0:0:0:
256,192,39874,1,2,0:0:0:0:
256,192,39985,1,0,0:0:0:0:
256,192,41429,1,0,0:0:0:0:
256,192,41652,1,2,0:0:0:0:
256,192,41874,1,0,0:0:0:0:
256,192,41985,1,2,0:0:0:0:
256,192,42096,1,2,0:0:0:0:
256,192,42207,1,2,0:0:0:0:
256,192,42429,1,0,0:0:0:0:
256,192,42652,1,0,0:0:0:0:
256,192,42874,1,0,0:0:0:0:
256,192,43207,1,0,0:0:0:0:
256,192,43429,1,2,0:0:0:0:
256,192,43540,1,0,0:0:0:0:
256,192,43652,1,0,0:0:0:0:
256,192,43874,1,2,0:0:0:0:
256,192,43985,1,0,0:0:0:0:
256,192,44096,1,0,0:0:0:0:
256,192,44318,1,2,0:0:0:0:
256,192,44429,1,0,0:0:0:0:
256,192,44652,1,0,0:0:0:0:
256,192,44763,1,2,0:0:0:0:
256,192,44985,1,0,0:0:0:0:
256,192,45207,1,2,0:0:0:0:
256,192,45318,1,0,0:0:0:0:
256,192,45429,1,0,0:0:0:0:
256,192,45540,1,0,0:0:0:0:
256,192,45652,1,2,0:0:0:0:
256,192,45874,1,0,0:0:0:0:
256,192,46096,1,2,0:0:0:0:
256,192,46207,1,0,0:0:0:0:
256,192,46429,1,0,0:0:0:0:
256,192,46540,1,2,0:0:0:0:
256,192,46763,1,0,0:0:0:0:
256,192,46985,1,2,0:0:0:0:
256,192,47096,1,0,0:0:0:0:
256,192,47207,1,0,0:0:0:0:
256,192,47429,1,2,0:0:0:0:
256,192,47540,1,0,0:0:0:0:
256,192,47652,1,0,0:0:0:0:
256,192,47874,1,2,0:0:0:0:
256,192,47985,1,0,0:0:0:0:
256,192,48207,1,0,0:0:0:0:
256,192,48318,1,2,0:0:0:0:
256,192,48540,1,0,0:0:0:0:
256,192,48763,1,2,0:0:0:0:
256,192,48874,1,0,0:0:0:0:
256,192,49096,1,2,0:0:0:0:
256,192,49207,1,0,0:0:0:0:
256,192,49429,1,2,0:0:0:0:
256,192,49540,1,0,0:0:0:0:
256,192,49763,1,2,0:0:0:0:
256,192,49874,1,0,0:0:0:0:
256,192,50096,1,2,0:0:0:0:
256,192,50318,1,0,0:0:0:0:
256,192,50540,1,2,0:0:0:0:
256,192,50763,1,0,0:0:0:0:
256,192,50985,1,2,0:0:0:0:
256,192,51207,1,0,0:0:0:0:
256,192,51318,1,2,0:0:0:0:
256,192,51540,1,0,0:0:0:0:
256,192,51652,1,0,0:0:0:0:
256,192,51874,1,2,0:0:0:0:
256,192,52096,1,0,0:0:0:0:
256,192,52318,1,2,0:0:0:0:
256,192,52540,1,0,0:0:0:0:
256,192,52874,1,2,0:0:0:0:
256,192,52985,1,0,0:0:0:0:
256,192,53096,1,0,0:0:0:0:
256,192,53207,1,2,0:0:0:0:
256,192,53318,1,2,0:0:0:0:
256,192,53429,1,0,0:0:0:0:
256,192,53540,1,0,0:0:0:0:
256,192,53652,1,0,0:0:0:0:
256,192,53763,1,0,0:0:0:0:
256,192,53874,1,0,0:0:0:0:
256,192,54096,1,2,0:0:0:0:
256,192,54318,1,0,0:0:0:0:
256,192,54540,1,2,0:0:0:0:
256,192,54763,1,0,0:0:0:0:
256,192,54874,1,2,0:0:0:0:
256,192,54985,1,0,0:0:0:0:
256,192,55096,1,0,0:0:0:0:
256,192,55207,1,2,0:0:0:0:
256,192,55429,1,2,0:0:0:0:
256,192,55652,1,0,0:0:0:0:
256,192,55874,1,2,0:0:0:0:
256,192,55985,1,0,0:0:0:0:
256,192,56096,1,0,0:0:0:0:
256,192,56318,1,2,0:0:0:0:
256,192,56429,1,0,0:0:0:0:
256,192,56540,1,0,0:0:0:0:
256,192,56763,1,2,0:0:0:0:
256,192,56874,1,0,0:0:0:0:
256,192,56985,1,0,0:0:0:0:
256,192,57207,1,2,0:0:0:0:
256,192,57429,2,2,L|256:96,8,70
256,192,60985,1,0,0:0:0:0:
256,192,61207,1,0,0:0:0:0:
256,192,61318,1,0,0:0:0:0:
256,192,61429,1,0,0:0:0:0:
256,192,61540,1,2,0:0:0:0:
256,192,61763,1,0,0:0:0:0:
256,192,61985,1,0,0:0:0:0:
256,192,62096,1,0,0:0:0:0:
256,192,62207,1,0,0:0:0:0:
256,192,62318,1,0,0:0:0:0:
256,192,62429,1,2,0:0:0:0:
256,192,62763,1,0,0:0:0:0:
256,192,62985,1,0,0:0:0:0:
256,192,63096,1,0,0:0:0:0:
256,192,63207,1,0,0:0:0:0:
256,192,63318,1,2,0:0:0:0:
256,192,63652,1,0,0:0:0:0:
256,192,63763,1,0,0:0:0:0:
256,192,63985,1,0,0:0:0:0:
256,192,64096,1,2,0:0:0:0:
256,192,64207,1,0,0:0:0:0:
256,192,64429,1,0,0:0:0:0:
256,192,64540,1,0,0:0:0:0:
256,192,64652,1,0,0:0:0:0:
256,192,64763,1,0,0:0:0:0:
256,192,64874,1,0,0:0:0:0:
256,192,64985,1,2,0:0:0:0:
256,192,65096,1,2,0:0:0:0:
256,192,65429,1,0,0:0:0:0:
256,192,65540,1,0,0:0:0:0:
256,192,65652,1,0,0:0:0:0:
256,192,65763,1,2,0:0:0:0:
256,192,65874,1,0,0:0:0:0:
256,192,65985,1,2,0:0:0:0:
256,192,66318,1,0,0:0:0:0:
256,192,66429,1,0,0:0:0:0:
256,192,66540,1,2,0:0:0:0:
256,192,66652,1,0,0:0:0:0:
256,192,66763,1,0,0:0:0:0:
256,192,66874,1,2,0:0:0:0:
256,192,67207,1,0,0:0:0:0:
256,192,67318,1,2,0:0:0:0:
256,192,67429,1,0,0:0:0:0:
256,192,67540,1,0,0:0:0:0:
256,192,67652,1,0,0:0:0:0:
256,192,67763,1,2,0:0:0:0:
256,192,68096,1,0,0:0:0:0:
256,192,68318,1,0,0:0:0:0:
256,192,68429,1,0,0:0:0:0:
256,192,68540,1,2,0:0:0:0:
256,192,68652,1,2,0:0:0:0:
256,192,68874,1,0,0:0:0:0:
256,192,69096,1,0,0:0:0:0:
256,192,69207,1,0,0:0:0:0:
256,192,69318,1,0,0:0:0:0:
256,192,69429,1,2,0:0:0:0:
256,192,69540,1,2,0:0:0:0:
256,192,69874,1,0,0:0:0:0:
256,192,70096,1,0,0:0:0:0:
256,192,70207,1,0,0:0:0:0:
256,192,70318,1,2,0:0:0:0:
256,192,70429,1,2,0:0:0:0:
256,192,70652,1,0,0:0:0:0:
256,192,70763,1,0,0:0:0:0:
256,192,70874,1,0,0:0:0:0:
256,192,71096,1,0,0:0:0:0:
256,192,71207,1,2,0:0:0:0:
256,192,71318,1,0,0:0:0:0:
256,192,71540,1,0,0:0:0:0:
256,192,71652,1,0,0:0:0:0:
256,192,71763,1,0,0:0:0:0:
256,192,71874,1,0,0:0:0:0:
256,192,71985,1,0,0:0:0:0:
256,192,72096,1,2,0:0:0:0:
256,192,72207,1,2,0:0:0:0:
256,192,72540,1,0,0:0:0:0:
256,192,72652,1,0,0:0:0:0:
256,192,72763,1,0,0:0:0:0:
256,192,72874,1,2,0:0:0:0:
256,192,72985,1,0,0:0:0:0:
256,192,73096,1,2,0:0:0:0:
256,192,73429,1,0,0:0:0:0:
256,192,73540,1,0,0:0:0:0:
256,192,73652,1,2,0:0:0:0:
256,192,73763,1,0,0:0:0:0:
256,192,73874,1,0,0:0:0:0:
256,192,73985,1,2,0:0:0:0:
256,192,74318,1,0,0:0:0:0:
256,192,74429,1,2,0:0:0:0:
256,192,74540,1,0,0:0:0:0:
256,192,74652,1,0,0:0:0:0:
256,192,74763,1,0,0:0:0:0:
256,192,74874,1,2,0:0:0:0:
256,192,75207,1,0,0:0:0:0:
256,192,75318,1,0,0:0:0:0:
256,192,75540,1,0,0:0:0:0:
256,192,75652,1,0,0:0:0:0:
256,192,75763,1,2,0:0:0:0:
256,192,75874,1,2,0:0:0:0:
256,192,76096,1,0,0:0:0:0:
256,192,76207,1,0,0:0:0:0:
256,192,76429,1,0,0:0:0:0:
256,192,76540,1,0,0:0:0:0:
256,192,76652,1,2,0:0:0:0:
256,192,76763,1,2,0:0:0:0:
256,192,76985,1,0,0:0:0:0:
256,192,77096,1,0,0:0:0:0:
256,192,77207,1,0,0:0:0:0:
256,192,77318,1,2,0:0:0:0:
256,192,77429,1,2,0:0:0:0:
256,192,77540,1,2,0:0:0:0:
256,192,77874,1,0,0:0:0:0:
256,192,77985,1,0,0:0:0:0:
256,192,78207,1,0,0:0:0:0:
256,192,78318,1,2,0:0:0:0:
256,192,78429,1,0,0:0:0:0:
256,192,78652,1,0,0:0:0:0:
256,192,78763,1,0,0:0:0:0:
256,192,78874,1,0,0:0:0:0:
256,192,78985,1,0,0:0:0:0:
256,192,79096,1,2,0:0:0:0:
256,192,79207,1,2,0:0:0:0:
256,192,79318,1,2,0:0:0:0:
256,192,79652,1,0,0:0:0:0:
256,192,79763,1,0,0:0:0:0:
256,192,79874,1,2,0:0:0:0:
256,192,79985,1,0,0:0:0:0:
256,192,80096,1,2,0:0:0:0:
256,192,80207,1,2,0:0:0:0:
256,192,80540,1,0,0:0:0:0:
256,192,80652,1,2,0:0:0:0:
256,192,80763,1,0,0:0:0:0:
256,192,80874,1,0,0:0:0:0:
256,192,80985,1,2,0:0:0:0:
256,192,81096,1,2,0:0:0:0:
256,192,81429,1,0,0:0:0:0:
256,192,81540,1,2,0:0:0:0:
256,192,81652,1,0,0:0:0:0:
256,192,81763,1,2,0:0:0:0:
256,192,81874,1,0,0:0:0:0:
256,192,81985,1,2,0:0:0:0:
256,192,82207,1,0,0:0:0:0:
256,192,82318,1,0,0:0:0:0:
256,192,82429,1,0,0:0:0:0:
256,192,82540,1,0,0:0:0:0:
256,192,82652,1,2,0:0:0:0:
256,192,82763,1,2,0:0:0:0:
256,192,82874,1,2,0:0:0:0:
256,192,82985,1,0,0:0:0:0:
256,192,83096,1,0,0:0:0:0:
256,192,83207,1,0,0:0:0:0:
256,192,83318,1,2,0:0:0:0:
256,192,83429,1,2,0:0:0:0:
256,192,83540,1,2,0:0:0:0:
256,192,83652,1,0,0:0:0:0:
256,192,83763,1,0,0:0:0:0:
256,192,83874,1,0,0:0:0:0:
256,192,83985,1,0,0:0:0:0:
256,192,84318,1,0,0:0:0:0:
256,192,84652,1,0,0:0:0:0:
256,192,84985,1,0,0:0:0:0:
256,192,85318,1,0,0:0:0:0:
256,192,85652,1,0,0:0:0:0:
256,192,85874,1,0,0:0:0:0:
256,192,86207,1,0,0:0:0:0:
256,192,86318,1,0,0:0:0:0:
256,192,86540,1,0,0:0:0:0:
256,192,86763,1,0,0:0:0:0:
256,192,87207,1,2,0:0:0:0:
256,192,87652,1,0,0:0:0:0:
256,192,87874,1,0,0:0:0:0:
256,192,87985,1,2,0:0:0:0:
256,192,88096,1,0,0:0:0:0:
256,192,88207,1,0,0:0:0:0:
256,192,88429,1,0,0:0:0:0:
256,192,88763,1,2,0:0:0:0:
256,192,88985,1,2,0:0:0:0:
256,192,89096,1,2,0:0:0:0:
256,192,89429,1,0,0:0:0:0:
256,192,89540,1,0,0:0:0:0:
256,192,89763,1,0,0:0:0:0:
256,192,89874,1,0,0:0:0:0:
256,192,89985,1,2,0:0:0:0:
256,192,90096,1,0,0:0:0:0:
256,192,90207,1,0,0:0:0:0:
256,192,90429,1,2,0:0:0:0:
256,192,90540,1,0,0:0:0:0:
256,192,90763,1,2,0:0:0:0:
256,192,90985,1,0,0:0:0:0:
256,192,91207,1,0,0:0:0:0:
256,192,91318,1,0,0:0:0:0:
256,192,91540,1,0,0:0:0:0:
256,192,91652,1,0,0:0:0:0:
256,192,91763,1,2,0:0:0:0:
256,192,91874,1,0,0:0:0:0:
256,192,91985,1,0,0:0:0:0:
256,192,92318,1,2,0:0:0:0:
256,192,92540,1,0,0:0:0:0:
256,192,92652,1,2,0:0:0:0:
256,192,92985,1,0,0:0:0:0:
256,192,93318,1,0,0:0:0:0:
256,192,93429,1,0,0:0:0:0:
256,192,93652,1,0,0:0:0:0:
256,192,93874,1,2,0:0:0:0:
256,192,94318,1,2,0:0:0:0:
256,192,94763,1,0,0:0:0:0:
256,192,94985,1,0,0:0:0:0:
256,192,95096,1,2,0:0:0:0:
256,192,95207,1,0,0:0:0:0:
256,192,95318,1,0,0:0:0:0:
256,192,95540,1,0,0:0:0:0:
256,192,95874,1,2,0:0:0:0:
256,192,96096,1,2,0:0:0:0:
256,192,96207,1,2,0:0:0:0:
256,192,96540,1,0,0:0:0:0:
256,192,96652,1,0,0:0:0:0:
256,192,96874,1,0,0:0:0:0:
256,192,96985,1,0,0:0:0:0:
256,192,97096,1,2,0:0:0:0:
256,192,97207,1,0,0:0:0:0:
256,192,97318,1,0,0:0:0:0:
256,192,97540,1,2,0:0:0:0:
256,192,97652,1,0,0:0:0:0:
256,192,97763,1,0,0:0:0:0:
256,192,97874,1,2,0:0:0:0:
256,192,98096,1,2,0:0:0:0:
256,192,98318,1,0,0:0:0:0:
256,192,98429,1,0,0:0:0:0:
256,192,98652,1,0,0:0:0:0:
256,192,98763,1,0,0:0:0:0:
256,192,98874,1,2,0:0:0:0:
256,192,98985,1,0,0:0:0:0:
256,192,99096,1,0,0:0:0:0:
256,192,99429,1,2,0:0:0:0:
256,192,99652,1,2,0:0:0:0:
256,192,100096,1,0,0:0:0:0:
256,192,100207,1,0,0:0:0:0:
256,192,100318,1,0,0:0:0:0:
256,192,100429,1,2,0:0:0:0:
256,192,100652,1,0,0:0:0:0:
256,192,100763,1,0,0:0:0:0:
256,192,100874,1,0,0:0:0:0:
256,192,101096,1,0,0:0:0:0:
256,192,101318,1,0,0:0:0:0:
256,192,101429,1,2,0:0:0:0:
256,192,101540,1,0,0:0:0:0:
256,192,101652,1,0,0:0:0:0:
256,192,101763,1,0,0:0:0:0:
256,192,101985,1,0,0:0:0:0:
256,192,102207,1,0,0:0:0:0:
256,192,102429,1,0,0:0:0:0:
256,192,102540,1,2,0:0:0:0:
256,192,102652,1,0,0:0:0:0:
256,192,102763,1,0,0:0:0:0:
256,192,103096,1,0,0:0:0:0:
256,192,103429,1,0,0:0:0:0:
256,192,104207,1,0,0:0:0:0:
256,192,104318,1,0,0:0:0:0:
256,192,104429,1,2,0:0:0:0:
256,192,104540,1,0,0:0:0:0:
256,192,104874,1,0,0:0:0:0:
256,192,105207,1,0,0:0:0:0:
256,192,105540,1,0,0:0:0:0:
256,192,106429,1,0,0:0:0:0:
256,192,106652,1,0,0:0:0:0:
256,192,106874,1,0,0:0:0:0:
256,192,107207,1,0,0:0:0:0:
256,192,107318,1,2,0:0:0:0:
256,192,107429,1,0,0:0:0:0:
256,192,107540,1,0,0:0:0:0:
256,192,107652,1,2,0:0:0:0:
256,192,107763,1,0,0:0:0:0:
256,192,107874,1,2,0:0:0:0:
256,192,107985,1,0,0:0:0:0:
256,192,108207,1,2,0:0:0:0:
256,192,108318,1,0,0:0:0:0:
256,192,108429,1,2,0:0:0:0:
256,192,108540,1,0,0:0:0:0:
256,192,108652,1,0,0:0:0:0:
256,192,108763,1,2,0:0:0:0:
256,192,108874,1,0,0:0:0:0:
256,192,109096,1,0,0:0:0:0:
256,192,109207,1,0,0:0:0:0:
256,192,109318,1,2,0:0:0:0:
256,192,109429,1,0,0:0:0:0:
256,192,109540,1,2,0:0:0:0:
256,192,109652,1,0,0:0:0:0:
256,192,109763,1,0,0:0:0:0:
256,192,109874,1,2,0:0:0:0:
256,192,109985,1,0,0:0:0:0:
256,192,110096,1,2,0:0:0:0:
256,192,110207,1,0,0:0:0:0:
256,192,110318,1,0,0:0:0:0:
256,192,110429,1,2,0:0:0:0:
256,192,110540,1,0,0:0:0:0:
256,192,110652,1,2,0:0:0:0:
256,192,110874,1,0,0:0:0:0:
256,192,111096,1,0,0:0:0:0:
256,192,111207,1,0,0:0:0:0:
256,192,111540,1,0,0:0:0:0:
256,192,111763,1,0,0:0:0:0:
256,192,111874,1,2,0:0:0:0:
256,192,112207,1,0,0:0:0:0:
256,192,112429,1,2,0:0:0:0:
256,192,112540,1,2,0:0:0:0:
256,192,112874,1,2,0:0:0:0:
256,192,113096,1,2,0:0:0:0:
256,192,113207,1,2,0:0:0:0:
256,192,113540,1,0,0:0:0:0:
256,192,113763,1,2,0:0:0:0:
256,192,113985,1,2,0:0:0:0:
256,192,114207,1,0,0:0:0:0:
256,192,114763,1,0,0:0:0:0:
256,192,115207,1,0,0:0:0:0:
256,192,115652,1,0,0:0:0:0:
256,192,116096,1,0,0:0:0:0:
256,192,116318,1,0,0:0:0:0:
256,192,116540,1,0,0:0:0:0:
256,192,116652,1,0,0:0:0:0:
256,192,116874,1,0,0:0:0:0:
256,192,117540,1,2,0:0:0:0:
256,192,117874,1,0,0:0:0:0:
256,192,118096,1,0,0:0:0:0:
256,192,118318,1,2,0:0:0:0:
256,192,118429,1,2,0:0:0:0:
256,192,118652,1,0,0:0:0:0:
256,192,118874,1,2,0:0:0:0:
256,192,118985,1,0,0:0:0:0:
256,192,119096,1,0,0:0:0:0:
256,192,119207,1,2,0:0:0:0:
256,192,119318,1,0,0:0:0:0:
256,192,119429,1,0,0:0:0:0:
256,192,119652,1,0,0:0:0:0:
256,192,119874,1,0,0:0:0:0:
256,192,120096,1,2,0:0:0:0:
256,192,120207,1,2,0:0:0:0:
256,192,120429,1,0,0:0:0:0:
256,192,120763,1,2,0:0:0:0:
256,192,120874,1,0,0:0:0:0:
256,192,120985,1,0,0:0:0:0:
256,192,121096,1,2,0:0:0:0:
256,192,121207,1,0,0:0:0:0:
256,192,121318,1,0,0:0:0:0:
256,192,121429,1,0,0:0:0:0:
256,192,121874,1,0,0:0:0:0:
256,192,122318,1,2,0:0:0:0:
256,192,122763,1,2,0:0:0:0:
256,192,123207,1,0,0:0:0:0:
256,192,123429,1,0,0:0:0:0:
256,192,123652,1,0,0:0:0:0:
256,192,123763,1,2,0:0:0:0:
256,192,123985,1,2,0:0:0:0:
256,192,124652,1,2,0:0:0:0:
256,192,124985,1,0,0:0:0:0:
256,192,125096,1,0,0:0:0:0:
256,192,125318,1,2,0:0:0:0:
256,192,125429,1,2,0:0:0:0:
256,192,125652,1,0,0:0:0:0:
256,192,125763,1,0,0:0:0:0:
256,192,125985,1,2,0:0:0:0:
256,192,126096,1,2,0:0:0:0:
256,192,126318,1,0,0:0:0:0:
256,192,126540,1,0,0:0:0:0:
256,192,126763,1,0,0:0:0:0:
256,192,126874,1,0,0:0:0:0:
256,192,127096,1,2,0:0:0:0:
256,192,127207,1,2,0:0:0:0:
256,192,127429,1,0,0:0:0:0:
256,192,127874,1,0,0:0:0:0:
256,192,128096,1,0,0:0:0:0:
