osu file format v13

[General]
AudioFilename: 04. Forbidden Codex.mp3
AudioLeadIn: 0
PreviewTime: 51545
Countdown: 0
SampleSet: Soft
StackLeniency: 0.5
Mode: 0
LetterboxInBreaks: 0
WidescreenStoryboard: 1

[Editor]
Bookmarks: 21175
DistanceSpacing: 1
BeatDivisor: 4
GridSize: 4
TimelineZoom: 1.2

[Metadata]
Title:Forbidden Codex
TitleUnicode:Forbidden Codex
Artist:Hoskey
ArtistUnicode:Hoskey
Creator:MMd-
Version:Normal
Source:Cytus
Tags:Chapter K Knight -Bewitched-
BeatmapID:494381
BeatmapSetID:210122

[Difficulty]
HPDrainRate:4
CircleSize:3.2
OverallDifficulty:4
ApproachRate:5
SliderMultiplier:1.1
SliderTickRate:1

[Events]
//Background and Video events
0,0,"K-4.png",0,0
//Break Periods
2,85665,102882
//Storyboard Layer 0 (Background)
//Storyboard Layer 1 (Fail)
//Storyboard Layer 2 (Pass)
//Storyboard Layer 3 (Foreground)
//Storyboard Sound Samples
//Background Colour Transformations
3,100,163,162,255

[TimingPoints]
2517,342.857142857143,4,2,1,60,1,0
21545,340.909090909091,4,2,1,60,1,0
54272,-100,4,2,1,60,0,1
63306,-100,4,2,1,60,0,0
85465,363.636363636364,3,2,1,60,1,0
87544,454.545454545455,3,2,1,60,1,0
87998,454.545454545455,3,2,1,60,1,0
90952,413.793103448276,4,2,1,60,1,0
92214,480,4,2,1,60,1,0
95769,342.857142857143,4,2,1,60,1,0
104082,340.909090909091,4,2,1,60,1,1
106809,-100,4,2,1,60,0,0
131354,-166.666666666667,4,2,1,60,0,0
139280,-100,4,2,1,60,0,0

[Colours]
Combo1 : 234,111,176
Combo2 : 197,48,132
Combo3 : 60,29,251
Combo4 : 115,196,255

[HitObjects]
132,156,21545,6,0,L|128:272,1,110,0|2,0:0|0:0,0:0:0:0:
224,316,22226,2,0,L|220:200,1,110,0|2,0:0|0:0,0:0:0:0:
316,152,22908,2,0,P|420:168|496:84,2,220,2|2|0,0:0|0:0|0:0,0:0:0:0:
388,68,24613,1,2,0:0:0:0:
280,88,24954,2,0,P|216:92|168:88,1,110,0|2,0:0|0:0,0:0:0:0:
68,44,25635,6,0,L|72:164,1,110,0|2,0:0|0:0,0:0:0:0:
168,208,26317,2,0,L|172:328,1,110,0|2,0:0|0:0,0:0:0:0:
268,372,26999,2,0,P|360:320|352:212,1,220,0|2,0:0|0:0,0:0:0:0:
244,12,28363,2,0,P|152:64|160:172,1,220,0|2,0:0|0:0,0:0:0:0:
372,172,29726,6,0,B|300:212|224:132|148:172,1,220,0|2,0:0|0:0,0:0:0:0:
68,232,30749,1,2,0:0:0:0:
128,324,31090,2,0,B|200:364|276:284|352:324,1,220,0|2,0:0|0:0,0:0:0:0:
432,384,32113,1,0,0:0:0:0:
492,292,32454,6,0,L|484:176,1,110,0|2,0:0|0:0,0:0:0:0:
416,96,33135,2,0,P|312:72|192:88,1,220,2|0,0:0|0:0,0:0:0:0:
144,180,34158,1,2,0:0:0:0:
203,271,34499,2,0,P|258:280|316:276,1,110,2|0,0:0|0:0,0:0:0:0:
400,208,35181,6,0,L|396:148,2,55,0|0|2,0:0|0:0|0:0,0:0:0:0:
313,276,35863,2,0,B|256:296|156:248|80:268,1,220,2|0,0:0|0:0,0:0:0:0:
128,160,36885,2,0,B|189:143|289:191|346:171,1,220,2|0,0:0|0:0,0:0:0:0:
444,120,37908,6,0,P|464:200|364:272,1,220,4|2,0:0|0:0,0:0:0:0:
256,252,38931,1,0,0:0:0:0:
147,272,39272,2,0,P|56:223|68:120,1,220,0|2,0:0|0:0,0:0:0:0:
252,244,40635,6,0,P|244:324|120:376,1,220,0|0,0:0|0:0,0:0:0:0:
68,284,41658,1,2,0:0:0:0:
104,180,41999,2,0,P|112:128|92:68,1,110,0|2,0:0|0:0,0:0:0:0:
196,32,42681,2,0,P|221:78|223:141,1,110,0|2,0:0|0:0,0:0:0:0:
188,240,43363,6,0,P|176:304|304:304,1,220,0|2,0:0|0:0,0:0:0:0:
292,208,44385,1,2,0:0:0:0:
287,97,44726,2,0,P|383:78|396:176,1,220,0|2,0:0|0:0,0:0:0:0:
292,208,45749,1,2,0:0:0:0:
184,188,46090,6,0,P|120:180|68:192,1,110,0|2,0:0|0:0,0:0:0:0:
132,284,46772,2,0,P|196:292|248:280,1,110,2|2,0:0|0:0,0:0:0:0:
312,200,47454,2,0,L|320:80,1,110,4|2,0:0|0:0,0:0:0:0:
416,144,48135,2,0,L|424:264,1,110,2|2,0:0|0:0,0:0:0:0:
348,336,48817,6,0,L|284:344,3,55,8|8|8|8,0:0|0:0|0:0|0:0,0:0:0:0:
272,292,49499,2,0,L|208:300,3,55,8|8|8|8,0:0|0:0|0:0|0:0,0:0:0:0:
196,248,50181,2,0,L|132:256,3,55,8|8|8|8,0:0|0:0|0:0|0:0,0:0:0:0:
96,220,50863,6,0,B|80:160|80:160|92:132|92:100|92:100|64:8,1,220,8|8,0:0|0:0,0:0:0:0:
256,192,51715,12,0,53931,0:0:0:0:
296,132,54272,6,0,P|368:160|468:136,3,165,2|2|2|2,0:1|0:1|0:1|0:1,0:0:0:0:
376,68,56147,1,0,0:0:0:0:
268,88,56488,1,4,0:0:0:0:
160,68,56829,6,0,P|104:92|76:204,3,165,2|2|2|2,0:1|0:1|0:1|0:1,0:0:0:0:
132,276,58704,1,0,0:0:0:0:
240,256,59045,1,4,0:0:0:0:
348,276,59385,6,0,P|416:228|440:140,3,165,2|2|2|2,0:1|0:1|0:1|0:1,0:0:0:0:
376,64,61260,2,0,P|328:56|264:68,1,110,0|4,0:0|0:0,0:0:0:0:
216,164,61942,1,4,0:0:0:0:
256,192,62113,12,0,63306,0:0:0:0:
340,92,63817,5,0,0:0:0:0:
292,116,63988,2,0,P|225:132|168:112,1,110
80,92,64670,2,0,P|68:152|80:204,1,110
164,268,65351,1,0,0:0:0:0:
272,296,65692,2,0,B|336:312|424:268|496:288,2,220,0|0|0,0:0|0:0|0:0,0:0:0:0:
272,296,68079,5,0,0:0:0:0:
180,236,68420,2,0,P|148:164|212:32,1,220
312,40,69442,1,0,0:0:0:0:
360,140,69783,2,0,P|380:188|432:220,1,110
384,320,70465,2,0,L|264:336,1,110
184,272,71147,5,0,0:0:0:0:
76,288,71488,1,0,0:0:0:0:
116,186,71829,1,4,0:0:0:0:
116,186,72510,5,0,0:0:0:0:
224,168,72851,1,4,0:0:0:0:
224,168,73533,5,0,0:0:0:0:
284,260,73874,2,0,P|340:248|304:124,1,220,4|4,0:0|0:0,0:0:0:0:
256,192,74726,12,0,76942,0:0:0:0:
280,240,77283,6,0,P|344:252|444:224,1,165
444,172,77965,2,0,L|428:60,1,110
320,84,78647,2,0,P|260:88|204:80,1,110
120,144,79329,2,0,P|128:212|112:276,1,110
48,336,80010,1,0,0:0:0:0:
148,288,80351,6,0,B|192:260|232:260|272:316|312:316|368:288,1,220
420,200,81374,1,0,0:0:0:0:
400,92,81715,1,0,0:0:0:0:
316,163,82056,1,0,0:0:0:0:
296,55,82397,6,0,P|186:64|77:54,1,220
44,160,83420,1,0,0:0:0:0:
120,240,83760,2,0,P|128:292|108:352,1,110
220,320,84442,2,0,P|226:265|209:214,1,110
200,104,85124,5,0,0:0:0:0:
312,104,85465,1,0,0:0:0:0:
312,104,104082,6,0,P|344:116|428:112,1,110,4|0,0:0|0:0,0:0:0:0:
436,224,104763,2,0,L|432:308,2,73.3333333333333,4|0|0,0:0|0:0|0:0,0:0:0:0:
364,240,105445,2,0,P|308:248|252:244,3,110,4|4|4|4,0:0|0:0|0:0|0:0,0:0:0:0:
188,196,106809,6,0,L|180:76,1,110,4|2,0:0|0:0,0:0:0:0:
76,120,107491,2,0,L|68:240,1,110,2|2,0:0|0:0,0:0:0:0:
156,296,108172,2,0,L|160:356,2,55,0|0|2,0:0|0:0|0:0,0:0:0:0:
232,216,108854,2,0,P|296:204|344:220,1,110,2|2,0:0|0:0,0:0:0:0:
400,308,109536,5,2,0:0:0:0:
460,216,109877,1,2,0:0:0:0:
400,124,110218,2,0,L|404:60,2,55,2|0|2,0:0|0:0|0:0,0:0:0:0:
296,160,110900,2,0,L|300:224,2,55,0|0|2,0:0|0:0|0:0,0:0:0:0:
192,124,111582,2,0,P|132:128|72:120,1,110,2|2,0:0|0:0,0:0:0:0:
80,232,112263,6,0,P|92:280|88:308,3,55,0|0|2|0,0:0|0:0|0:0|0:0,0:0:0:0:
52,324,112945,2,0,L|180:332,1,110
252,268,113627,2,0,L|248:212,3,55,0|0|2|0,0:0|0:0|0:0|0:0,0:0:0:0:
292,180,114309,2,0,L|296:124,3,55,0|2|0|2,0:0|0:0|0:0|0:0,0:0:0:0:
340,92,114991,6,0,P|412:96|468:88,1,110,0|2,0:0|0:0,0:0:0:0:
428,200,115672,2,0,P|424:272|444:328,1,110,0|2,0:0|0:0,0:0:0:0:
324,296,116354,1,2,0:0:0:0:
213,307,116695,1,2,0:0:0:0:
268,212,117036,1,2,0:0:0:0:
157,223,117377,1,2,0:0:0:0:
211,128,117718,6,0,P|316:124|368:215,1,220,4|2,0:0|0:0,0:0:0:0:
296,300,118741,1,0,0:0:0:0:
192,332,119082,2,0,P|88:288|116:192,1,220,0|2,0:0|0:0,0:0:0:0:
216,196,120104,1,2,0:0:0:0:
308,136,120445,6,0,P|316:88|304:24,1,110,2|0,0:0|0:0,0:0:0:0:
396,88,121127,2,0,P|404:136|392:200,1,110,0|0,0:0|0:0,0:0:0:0:
292,240,121809,1,2,0:0:0:0:
184,220,122150,1,0,0:0:0:0:
80,256,122491,1,2,0:0:0:0:
100,147,122832,1,0,0:0:0:0:
183,219,123172,6,0,P|236:228|293:219,1,110,6|0,0:0|0:0,0:0:0:0:
376,148,123854,2,0,P|384:95|376:38,1,110,6|0,0:0|0:0,0:0:0:0:
280,92,124536,2,0,P|271:144|279:202,1,110,6|0,0:0|0:0,0:0:0:0:
363,271,125218,6,0,P|417:279|472:271,1,110,6|0,0:0|0:0,0:0:0:0:
400,188,125900,2,0,B|344:180|344:180|284:188,1,110,6|0,0:0|0:0,0:0:0:0:
216,268,126582,2,0,P|140:272|104:236,1,110,6|0,0:0|0:0,0:0:0:0:
52,164,127263,6,0,L|64:52,3,110,12|12|12|12,0:0|0:0|0:0|0:0,0:0:0:0:
63,54,131354,6,0,P|96:60|140:52,1,65.9999979858399,2|0,0:1|0:0,0:0:0:0:
192,44,132036,2,0,P|225:38|269:46,1,65.9999979858399
256,41,133741,6,0,P|267:72|300:72,1,65.9999979858399,2|0,0:1|0:0,0:0:0:0:
360,52,134422,2,0,P|384:48|408:48,2,32.99999899292,0|0|0,0:0|0:0|0:0,0:0:0:0:
360,52,136127,6,0,P|356:104|360:124,1,65.9999979858399,2|0,0:0|0:0,0:0:0:0:
384,180,136809,2,0,P|388:208|384:224,1,32.99999899292
384,180,137491,6,0,L|276:184,2,98.9999969787599,0|0|0,0:0|0:0|0:0,0:0:0:0:
384,180,139280,6,0,L|204:188,1,165,0|4,0:0|0:0,0:0:0:0:
