osu file format v13

[General]
AudioFilename: 04. Forbidden Codex.mp3
AudioLeadIn: 0
PreviewTime: 51545
Countdown: 0
SampleSet: None
StackLeniency: 0.5
Mode: 0
LetterboxInBreaks: 0
WidescreenStoryboard: 1

[Editor]
Bookmarks: 21175
DistanceSpacing: 1
BeatDivisor: 4
GridSize: 4
TimelineZoom: 1.2

[Metadata]
Title:Forbidden Codex
TitleUnicode:Forbidden Codex
Artist:Hoskey
ArtistUnicode:Hoskey
Creator:MMd-
Version:Hard
Source:Cytus
Tags:Chapter K Knight -Bewitched-
BeatmapID:494380
BeatmapSetID:210122

[Difficulty]
HPDrainRate:6
CircleSize:4
OverallDifficulty:6
ApproachRate:7.5
SliderMultiplier:1.6
SliderTickRate:1

[Events]
//Background and Video events
0,0,"K-4.png",0,0
//Break Periods
2,85664,103257
//Storyboard Layer 0 (Background)
//Storyboard Layer 1 (Fail)
//Storyboard Layer 2 (Pass)
//Storyboard Layer 3 (Foreground)
//Storyboard Sound Samples
//Background Colour Transformations
3,100,163,162,255

[TimingPoints]
2517,342.857142857143,4,2,1,60,1,0
21545,340.909090909091,4,2,1,60,1,0
54272,-100,4,2,1,60,0,1
63306,-100,4,3,1,60,0,0
85465,363.636363636364,3,2,1,60,1,0
87544,454.545454545455,3,2,1,60,1,0
87998,454.545454545455,3,2,1,60,1,0
90952,413.793103448276,4,2,1,60,1,0
92214,480,4,2,1,60,1,0
95769,342.857142857143,4,2,1,60,1,0
104082,340.909090909091,4,2,1,60,1,1
106809,-100,4,2,1,60,0,0
131354,-166.666666666667,4,2,1,60,0,0
131866,-142.857142857143,4,2,1,60,0,0
132207,-166.666666666667,4,2,1,60,0,0
132377,-200,4,2,1,60,0,0
133741,-166.666666666667,4,2,1,60,0,0
134252,-142.857142857143,4,2,1,60,0,0
134593,-166.666666666667,4,2,1,60,0,0
134763,-200,4,2,1,60,0,0
136127,-166.666666666667,4,2,1,60,0,0
136638,-142.857142857143,4,2,1,60,0,0
137491,-200,4,2,1,60,0,0
139280,-100,4,2,1,60,0,0

[Colours]
Combo1 : 234,111,176
Combo2 : 197,48,132
Combo3 : 60,29,251
Combo4 : 115,196,255

[HitObjects]
160,244,21545,6,0,L|168:352,1,80,6|0,0:0|0:0,0:0:0:0:
244,304,21885,2,0,L|236:196,1,80
254,145,22226,1,2,0:0:0:0:
314,199,22397,1,0,0:0:0:0:
392,216,22567,2,0,L|472:208,1,80,2|0,0:0|0:0,0:0:0:0:
480,128,22908,5,0,0:0:0:0:
480,128,23079,2,0,L|288:144,1,160,0|2,0:0|0:0,0:0:0:0:
260,88,23590,1,0,0:0:0:0:
260,88,23760,2,0,P|248:172|324:220,1,160,0|2,0:0|0:0,0:0:0:0:
348,275,24272,5,0,0:0:0:0:
323,348,24442,1,0,0:0:0:0:
272,290,24613,2,0,L|168:292,1,80,2|0,0:0|0:0,0:0:0:0:
228,220,24954,2,0,L|124:222,1,80
184,150,25295,2,0,L|80:152,1,80,2|0,0:0|0:0,0:0:0:0:
140,78,25635,6,0,L|336:80,1,160,0|2,0:0|0:0,0:0:0:0:
372,116,26147,1,0,0:0:0:0:
372,116,26317,2,0,P|372:188|432:264,1,160
392,332,26829,1,2,0:0:0:0:
392,332,26999,2,0,L|208:336,1,160
184,272,27510,5,0,0:0:0:0:
184,272,27681,2,0,P|120:280|84:268,1,80,2|0,0:0|0:0,0:0:0:0:
72,204,28022,2,0,L|80:108,1,80,2|0,0:0|0:0,0:0:0:0:
156,104,28363,2,0,L|149:183,1,80
226,162,28704,2,0,L|233:83,1,80
310,60,29045,5,2,0:0:0:0:
336,136,29215,1,0,0:0:0:0:
412,160,29385,1,2,0:0:0:0:
492,152,29556,1,0,0:0:0:0:
460,224,29726,6,0,L|456:304,1,80,0|0,0:0|0:0,0:0:0:0:
376,320,30067,2,0,L|380:240,1,80,2|0,0:0|0:0,0:0:0:0:
299,256,30408,2,0,L|295:336,1,80,0|0,0:0|0:0,0:0:0:0:
216,352,30749,1,2,0:0:0:0:
216,352,30920,1,0,0:0:0:0:
220,272,31090,6,0,L|132:268,1,80
92,204,31431,1,2,0:0:0:0:
92,204,31601,1,0,0:0:0:0:
140,140,31772,2,0,P|148:92|140:56,1,80
172,216,32113,2,0,P|202:178|214:143,1,80,2|0,0:0|0:0,0:0:0:0:
161,297,32454,6,0,P|206:279|233:255,1,80,6|0,0:0|0:0,0:0:0:0:
276,196,32795,1,2,0:0:0:0:
268,116,32965,1,0,0:0:0:0:
244,40,33135,2,0,L|332:44,2,80,2|0|2,0:0|0:0|0:0,0:0:0:0:
268,116,33647,1,0,0:0:0:0:
340,152,33817,6,0,L|428:156,1,80,2|0,0:0|0:0,0:0:0:0:
468,220,34158,1,2,0:0:0:0:
464,300,34329,1,0,0:0:0:0:
392,336,34499,2,0,P|336:340|304:336,2,80,0|0|2,0:0|0:0|0:0,0:0:0:0:
464,300,35010,1,0,0:0:0:0:
396,256,35181,6,0,L|312:256,2,80,0|0|2,0:0|0:0|0:0,0:0:0:0:
376,176,35692,1,0,0:0:0:0:
296,176,35863,2,0,L|216:176,1,80
224,96,36204,2,0,L|144:96,1,80,2|0,0:0|0:0,0:0:0:0:
110,196,36545,6,0,P|112:248|124:284,2,80,0|0|2,0:0|0:0|0:0,0:0:0:0:
188,220,37056,1,0,0:0:0:0:
240,280,37226,2,0,P|284:308|316:308,1,80,0|0,0:0|0:0,0:0:0:0:
380,268,37567,1,2,0:0:0:0:
380,268,37738,1,0,0:0:0:0:
440,192,37908,6,0,L|396:12,1,160,4|2,0:0|0:0,0:0:0:0:
332,76,38420,1,0,0:0:0:0:
332,76,38590,2,0,P|256:84|168:72,1,160,0|2,0:0|0:0,0:0:0:0:
96,52,39101,1,0,0:0:0:0:
60,124,39272,6,0,L|68:208,1,80
148,212,39613,2,0,L|140:128,1,80,2|0,0:0|0:0,0:0:0:0:
216,104,39954,2,0,L|312:112,1,80
336,180,40295,2,0,L|240:188,1,80,2|0,0:0|0:0,0:0:0:0:
216,256,40635,5,0,0:0:0:0:
216,256,40806,1,0,0:0:0:0:
276,308,40976,2,0,P|328:320|384:304,1,80,2|0,0:0|0:0,0:0:0:0:
408,256,41317,1,0,0:0:0:0:
408,256,41488,1,0,0:0:0:0:
432,180,41658,2,0,L|420:100,1,80,2|0,0:0|0:0,0:0:0:0:
356,52,41999,6,0,P|312:56|268:52,2,80,0|0|2,0:0|0:0|0:0,0:0:0:0:
420,100,42510,1,0,0:0:0:0:
344,132,42681,2,0,L|256:132,1,80
192,96,43022,1,2,0:0:0:0:
116,120,43192,1,0,0:0:0:0:
92,196,43363,6,0,L|96:288,1,80,4|0,0:0|0:0,0:0:0:0:
172,304,43704,2,0,L|176:212,1,80,2|0,0:0|0:0,0:0:0:0:
252,248,44045,2,0,L|256:156,1,80,2|0,0:0|0:0,0:0:0:0:
332,192,44385,2,0,L|336:100,1,80,2|0,0:0|0:0,0:0:0:0:
412,88,44726,6,0,L|416:180,2,80,4|0|2,0:0|0:0|0:0,0:0:0:0:
335,112,45238,1,0,0:0:0:0:
256,104,45408,2,0,P|212:100|172:104,1,80,2|0,0:0|0:0,0:0:0:0:
140,176,45749,2,0,P|184:180|224:176,1,80,2|0,0:0|0:0,0:0:0:0:
255,252,46090,6,0,P|293:263|333:261,1,80,6|0,0:0|0:0,0:0:0:0:
396,212,46431,1,0,0:0:0:0:
392,132,46601,1,0,0:0:0:0:
344,68,46772,2,0,L|264:76,1,80,2|0,0:0|0:0,0:0:0:0:
204,24,47113,2,0,L|124:32,1,80,2|0,0:0|0:0,0:0:0:0:
76,96,47454,5,4,0:0:0:0:
124,160,47624,2,0,P|124:204|116:240,1,80
64,300,47965,1,0,0:0:0:0:
128,348,48135,2,0,L|212:340,1,80,2|0,0:0|0:0,0:0:0:0:
232,264,48476,2,0,L|316:256,1,80,2|8,0:0|0:0,0:0:0:0:
320,244,48732,1,8,0:0:0:0:
328,232,48817,1,8,0:0:0:0:
328,152,48988,5,8,0:0:0:0:
328,152,49158,1,8,0:0:0:0:
264,104,49329,1,8,0:0:0:0:
264,104,49499,1,8,0:0:0:0:
184,104,49670,5,8,0:0:0:0:
184,104,49840,1,8,0:0:0:0:
120,152,50010,1,8,0:0:0:0:
120,152,50181,1,8,0:0:0:0:
128,232,50351,5,8,0:0:0:0:
128,232,50522,1,8,0:0:0:0:
136,312,50692,1,8,0:0:0:0:
136,312,50863,1,8,0:0:0:0:
200,264,51033,5,0,1:0:0:0:
213,261,51118,1,0,1:0:0:0:
226,259,51204,1,0,1:0:0:0:
239,256,51289,1,0,1:0:0:0:
252,254,51374,1,0,1:0:0:0:
265,251,51459,1,0,1:0:0:0:
278,249,51545,1,0,1:0:0:0:
256,192,51715,12,0,54101,0:0:0:0:
304,124,54272,6,0,L|396:92,2,80,2|0|0,0:1|0:0|0:0,0:0:0:0:
304,204,54783,2,0,P|368:216|396:212,2,80,2|0|0,0:1|0:0|0:0,0:0:0:0:
256,268,55295,2,0,P|280:320|276:360,2,80,2|0|0,0:1|0:0|0:0,0:0:0:0:
220,196,55806,2,0,L|108:208,1,80,2|0,0:1|0:0,0:0:0:0:
80,152,56147,1,0,0:0:0:0:
224,52,56488,1,4,0:0:0:0:
232,228,56829,6,0,P|252:276|272:296,2,80,2|0|0,0:1|0:0|0:0,0:0:0:0:
284,168,57340,2,0,P|304:120|324:100,2,80,2|0|0,0:1|0:0|0:0,0:0:0:0:
336,228,57851,2,0,P|356:276|376:296,2,80,2|0|0,0:1|0:0|0:0,0:0:0:0:
388,160,58363,2,0,P|440:160|476:148,1,80,2|0,0:1|0:0,0:0:0:0:
492,76,58704,1,0,0:0:0:0:
440,244,59045,1,4,0:0:0:0:
276,308,59385,6,0,L|184:312,1,80,2|0,0:1|0:0,0:0:0:0:
124,276,59726,1,0,0:0:0:0:
88,204,59897,2,0,P|80:152|88:116,1,80,2|0,0:1|0:0,0:0:0:0:
144,72,60238,1,0,0:0:0:0:
208,120,60408,2,0,L|292:124,2,80,2|0|0,0:1|0:0|0:0,0:0:0:0:
236,196,60920,2,0,L|320:200,1,80,2|0,0:1|0:0,0:0:0:0:
364,136,61260,2,0,P|396:184|324:276,2,160,0|4|4,0:0|0:0|0:0,0:0:0:0:
256,192,62113,12,0,63306,0:0:0:0:
148,216,63647,6,0,L|168:256,4,40,0|0|0|0|0,0:0|0:0|0:0|0:0|0:0,0:0:0:0:
84,144,64329,1,0,0:0:0:0:
176,124,64670,1,0,0:0:0:0:
268,144,65010,1,8,0:0:0:0:
360,124,65351,5,0,0:0:0:0:
408,208,65692,2,0,L|400:252,4,40,0|0|0|0|0,0:0|0:0|0:0|0:0|0:0,0:0:0:0:
312,208,66374,1,0,0:0:0:0:
228,256,66715,1,0,0:0:0:0:
200,348,67056,1,8,0:0:0:0:
293,326,67397,5,0,0:0:0:0:
228,256,67738,2,0,L|224:216,4,40,0|0|0|0|0,0:0|0:0|0:0|0:0|0:0,0:0:0:0:
136,228,68420,1,0,0:0:0:0:
40,240,68760,1,0,0:0:0:0:
68,148,69101,1,8,0:0:0:0:
40,56,69442,5,0,0:0:0:0:
136,68,69783,2,0,L|136:112,4,40,0|0|0|0|0,0:0|0:0|0:0|0:0|0:0,0:0:0:0:
232,56,70465,1,0,0:0:0:0:
328,68,70806,1,0,0:0:0:0:
424,56,71147,1,8,0:0:0:0:
460,144,71488,5,0,0:0:0:0:
424,232,71743,2,0,L|384:240,1,40,0|4,0:0|0:2,0:0:0:0:
424,232,72510,5,0,0:0:0:0:
352,296,72766,2,0,L|312:288,1,40,0|4,0:0|0:2,0:0:0:0:
352,296,73533,5,0,0:0:0:0:
260,324,73789,2,0,L|200:332,1,40,0|4,0:0|0:2,0:0:0:0:
240,236,74556,5,4,0:2:0:0:
256,192,74726,12,0,77283,0:0:0:0:
200,232,77624,5,0,0:0:0:0:
198,251,77709,1,0,0:0:0:0:
196,272,77795,2,0,L|152:284,2,40,0|0|0,0:0|0:0|0:0,0:0:0:0:
300,316,78306,1,0,0:0:0:0:
392,252,78647,1,0,0:0:0:0:
384,140,78988,1,8,0:0:0:0:
292,76,79329,5,0,0:0:0:0:
282,187,79670,1,0,0:0:0:0:
285,206,79755,1,0,0:0:0:0:
290,226,79840,2,0,L|332:232,2,40,0|0|0,0:0|0:0|0:0,0:0:0:0:
200,292,80351,1,0,0:0:0:0:
110,226,80692,1,0,0:0:0:0:
144,120,81033,1,8,0:0:0:0:
260,64,81374,5,0,0:0:0:0:
368,132,81715,1,0,0:0:0:0:
390,139,81800,1,0,0:0:0:0:
416,144,81885,2,0,P|440:144|456:140,2,40,0|0|0,0:0|0:0|0:0,0:0:0:0:
336,244,82397,1,0,0:0:0:0:
462,263,82738,1,0,0:0:0:0:
336,244,83079,1,8,0:0:0:0:
210,263,83420,5,0,0:0:0:0:
92,212,83760,1,0,0:0:0:0:
90,188,83846,1,0,0:0:0:0:
88,160,83931,2,0,L|96:112,2,40,0|0|0,0:0|0:0|0:0,0:0:0:0:
208,116,84442,1,0,0:0:0:0:
328,160,84783,1,0,0:0:0:0:
448,116,85124,6,0,L|460:292,1,160,8|4,0:0|0:2,0:0:0:0:
212,264,104082,5,4,0:0:0:0:
212,264,104167,1,0,0:0:0:0:
212,264,104252,1,0,0:0:0:0:
212,264,104337,1,0,0:0:0:0:
212,264,104422,2,0,L|256:272,3,40,0|0|0|0,0:0|0:0|0:0|0:0,0:0:0:0:
248,192,104763,5,4,0:0:0:0:
261,191,104849,1,0,0:0:0:0:
274,190,104934,1,0,0:0:0:0:
287,190,105019,1,0,0:0:0:0:
302,190,105104,2,0,P|328:188|348:192,3,40,0|0|0|0,0:0|0:0|0:0|0:0,0:0:0:0:
320,260,105445,6,0,L|364:264,3,40,4|0|0|0,0:0|0:0|0:0|0:0,0:0:0:0:
364,304,105786,2,0,L|408:300,3,40,4|0|0|0,0:0|0:0|0:0|0:0,0:0:0:0:
408,260,106127,6,0,P|426:258|452:264,3,40,4|0|0|0,0:0|0:0|0:0|0:0,0:0:0:0:
436,216,106468,2,0,L|475:219,3,40,4|0|0|0,0:0|0:0|0:0|0:0,0:0:0:0:
464,172,106809,6,0,P|396:176|300:172,2,160,2|2|2,0:0|0:0|0:0,0:0:0:0:
364,48,107832,1,2,0:0:0:0:
284,56,108002,1,2,0:0:0:0:
220,104,108172,6,0,L|224:268,2,160,2|2|2,0:0|0:0|0:0,0:0:0:0:
140,112,109025,1,0,0:0:0:0:
68,76,109195,2,0,P|64:32|68:-4,1,80,2|0,0:0|0:0,0:0:0:0:
72,156,109536,6,0,P|88:244|76:320,2,160,2|2|2,0:0|0:0|0:0,0:0:0:0:
172,280,110559,2,0,P|212:312|240:320,1,80
308,280,110900,6,0,P|380:264|492:284,1,160,2|0,0:0|0:0,0:0:0:0:
444,196,111411,1,0,0:0:0:0:
384,144,111582,2,0,P|368:96|368:64,1,80,2|0,0:0|0:0,0:0:0:0:
308,160,111922,2,0,P|292:208|292:240,1,80,2|0,0:0|0:0,0:0:0:0:
332,84,112263,6,0,L|328:4,1,80,2|0,0:0|0:0,0:0:0:0:
248,20,112604,2,0,L|244:100,2,80,0|2|0,0:0|0:0|0:0,0:0:0:0:
172,44,113116,1,0,0:0:0:0:
92,36,113286,1,0,0:0:0:0:
92,36,113457,1,0,0:0:0:0:
20,72,113627,6,0,L|28:164,1,80,2|2,0:0|0:0,0:0:0:0:
96,192,113968,1,0,0:0:0:0:
96,192,114138,1,2,0:0:0:0:
144,256,114309,2,0,P|192:260|228:256,1,80,0|2,0:0|0:0,0:0:0:0:
256,184,114650,2,0,P|208:180|172:184,1,80
304,248,114991,6,0,L|308:343,1,80,0|2,0:0|0:0,0:0:0:0:
388,339,115332,2,0,L|383:243,1,80,0|2,0:0|0:0,0:0:0:0:
336,195,115672,2,0,L|340:290,1,80,0|2,0:0|0:0,0:0:0:0:
420,286,116013,2,0,L|415:190,1,80,0|2,0:0|0:0,0:0:0:0:
456,136,116354,5,0,0:0:0:0:
400,80,116525,1,2,0:0:0:0:
320,76,116695,1,0,0:0:0:0:
256,124,116866,1,2,0:0:0:0:
248,204,117036,2,0,P|204:228|168:228,1,80,0|2,0:0|0:0,0:0:0:0:
112,180,117377,2,0,P|156:156|192:156,1,80,0|2,0:0|0:0,0:0:0:0:
174,229,117718,5,4,0:0:0:0:
104,260,117888,2,0,P|40:224|52:132,1,160,2|0,0:0|0:0,0:0:0:0:
104,96,118400,2,0,B|144:84|224:108|264:96,1,160,2|0,0:0|0:0,0:0:0:0:
328,48,118911,1,0,0:0:0:0:
392,96,119082,6,0,P|444:108|480:100,1,80,2|0,0:0|0:0,0:0:0:0:
320,132,119422,2,0,P|359:168|394:179,1,80,2|0,0:0|0:0,0:0:0:0:
328,48,119763,2,0,P|252:68|236:148,1,160,2|0,0:0|0:0,0:0:0:0:
208,216,120275,1,0,0:0:0:0:
144,264,120445,6,0,P|100:272|48:260,1,80,2|0,0:0|0:0,0:0:0:0:
52,188,120786,1,0,0:0:0:0:
52,188,120957,1,0,0:0:0:0:
88,116,121127,1,0,0:0:0:0:
88,116,121297,1,0,0:0:0:0:
160,80,121468,2,0,L|248:88,1,80,2|0,0:0|0:0,0:0:0:0:
300,140,121809,6,0,B|340:156|420:124|464:140,1,160,2|0,0:0|0:0,0:0:0:0:
424,212,122320,1,0,0:0:0:0:
348,236,122491,2,0,L|264:244,1,80,2|0,0:0|0:0,0:0:0:0:
228,312,122832,2,0,L|312:320,1,80,2|0,0:0|0:0,0:0:0:0:
192,244,123172,6,0,P|108:256|32:244,1,160,6|0,0:0|0:0,0:0:0:0:
60,168,123684,1,0,0:0:0:0:
36,92,123854,2,0,P|120:108|140:184,1,160,6|0,0:0|0:0,0:0:0:0:
184,240,124366,1,0,0:0:0:0:
256,276,124536,6,0,P|352:288|424:256,1,160,6|0,0:0|0:0,0:0:0:0:
428,188,125047,1,0,0:0:0:0:
464,116,125218,2,0,L|272:124,1,160,6|0,0:0|0:0,0:0:0:0:
256,60,125729,1,0,0:0:0:0:
207,122,125900,6,0,L|48:116,1,160,6|0,0:0|0:0,0:0:0:0:
20,192,126411,1,0,0:0:0:0:
44,268,126582,2,0,P|144:272|208:232,1,160,6|0,0:0|0:0,0:0:0:0:
256,192,127093,1,0,0:0:0:0:
317,139,127263,6,8,L|400:144,1,80,4|0,0:0|0:0,0:0:0:0:
464,212,127604,2,8,L|381:216,1,80,12|8,0:0|0:0,0:0:0:0:
317,284,127945,2,8,L|399:288,1,80,12|8,0:0|0:0,0:0:0:0:
408,292,128201,1,8,0:0:0:0:
420,296,128286,1,12,0:0:0:0:
420,296,130758,6,0,L|392:332,3,40,0|0|0|0,0:0|0:0|0:0|0:0,0:0:0:0:
380,312,131099,2,0,L|341:336,2,40,0|0|0,0:0|0:0|0:0,0:0:0:0:
336,313,131354,6,0,P|264:320|224:308,1,95.9999970703126,2|0,0:1|0:0,0:0:0:0:
204,252,131866,2,0,P|212:212|212:188,1,55.9999982910157
180,132,132207,1,0,0:0:0:0:
104,100,132377,1,0,0:0:0:0:
104,100,133741,6,0,P|172:108|216:96,1,95.9999970703126,2|0,0:1|0:0,0:0:0:0:
248,48,134252,2,0,P|296:44|312:50,1,55.9999982910157,0|0,0:0|0:0,0:0:0:0:
356,96,134593,1,0,0:0:0:0:
372,168,134763,1,0,0:0:0:0:
372,168,136127,6,0,P|368:212|372:232,2,47.9999985351563,0|0|0,0:0|0:0|0:0,0:0:0:0:
292,184,136638,2,0,P|291:208|296:240,2,55.9999982910157,0|0|0,0:0|0:0|0:0,0:0:0:0:
292,184,137491,6,0,P|291:208|296:236,2,53.3333333333333,0|0|0,0:0|0:0|0:0,0:0:0:0:
212,200,138087,2,0,P|207:223|213:257,2,53.3333333333333,0|0|0,0:0|0:0|0:0,0:0:0:0:
212,200,139280,6,0,B|156:228|116:160|56:192,1,160
36,220,139792,5,4,0:0:0:0:
