osu file format v14

[General]
AudioFilename: audio.mp3
AudioLeadIn: 0
PreviewTime: 58283
Countdown: 1
SampleSet: Soft
StackLeniency: 0.7
Mode: 0
LetterboxInBreaks: 0
WidescreenStoryboard: 0

[Editor]
Bookmarks: 783,1083,26083,27083,29483,37683,45883,99483,104983
DistanceSpacing: 1
BeatDivisor: 4
GridSize: 4
TimelineZoom: 1

[Metadata]
Title:Beat in Angel
TitleUnicode:Beat in Angel
Artist:Hoshizora Rin (CV. Iida Riho), Nishikino Maki (CV.Pile)
ArtistUnicode:星空凛(CV.飯田里穂)、西木野真姫(CV.Pile)
Creator:-Alne-
Version:BEATING ANGELS
Source:ラブライブ!School idol project
Tags:love live
BeatmapID:1201729
BeatmapSetID:567377

[Difficulty]
HPDrainRate:6
CircleSize:4.2
OverallDifficulty:8.5
ApproachRate:9.3
SliderMultiplier:2.1
SliderTickRate:1

[Events]
//Background and Video events
0,0,"makirin.jpg",0,0
//Break Periods
//Storyboard Layer 0 (Background)
//Storyboard Layer 1 (Fail)
//Storyboard Layer 2 (Pass)
//Storyboard Layer 3 (Foreground)
//Storyboard Sound Samples

[TimingPoints]
83,400,4,2,1,40,1,0
1033,-125,4,2,1,60,0,0
2433,-83.3333333333333,4,2,1,100,0,0
3233,-90.9090909090909,4,2,1,100,0,0
16033,-90.9090909090909,4,2,1,60,0,0
18433,-90.9090909090909,4,2,1,90,0,0
19283,-100,4,2,1,80,0,0
59283,-83.3333333333333,4,2,1,100,0,1
84033,-100,4,2,1,100,0,1
84883,-90.9090909090909,4,2,1,100,0,0

[HitObjects]
144,184,783,6,0,B|144:224|176:240|176:240|208:224,1,105
204,152,1083,2,0,B|240:168|280:124|280:124|256:224|308:236|308:236|368:172|316:348|364:368|420:324|420:328|424:228|388:160|392:160|352:148,1,546
344,144,2483,1,0,0:0:0:0:
316,128,2583,1,0,0:0:0:0:
292,108,2683,1,0,0:0:0:0:
268,88,2783,1,0,0:0:0:0:
232,76,2883,1,0,0:0:0:0:
200,80,2983,1,0,0:0:0:0:
168,88,3083,1,0,0:0:0:0:
136,108,3183,1,0,0:0:0:0:
60,264,3283,6,0,P|104:304|120:300,1,57.7500017623902
164,316,3483,1,0,0:0:0:0:
288,300,3683,1,0,0:0:0:0:
288,300,3783,1,0,0:0:0:0:
288,300,3883,2,0,P|356:324|400:304,1,115.50000352478
424,256,4183,1,0,0:0:0:0:
424,192,4283,1,0,0:0:0:0:
424,128,4383,1,0,0:0:0:0:
296,128,4583,1,0,0:0:0:0:
296,128,4683,2,0,P|220:132|216:136,1,57.7500017623902
180,144,4883,5,0,0:0:0:0:
120,168,4983,2,0,P|68:212|76:228,1,57.7500017623902
4,316,5283,2,0,L|72:348,1,57.7500017623902
124,352,5483,1,0,0:0:0:0:
284,328,5683,5,0,0:0:0:0:
284,328,5783,1,0,0:0:0:0:
284,328,5883,2,0,B|356:332|376:304|376:304|388:268,1,115.50000352478
376,224,6183,1,0,0:0:0:0:
344,168,6283,1,0,0:0:0:0:
312,112,6383,2,0,L|240:120,2,57.7500017623902
368,104,6683,1,0,0:0:0:0:
428,88,6783,1,0,0:0:0:0:
428,88,6883,1,0,0:0:0:0:
428,88,6983,2,0,P|360:56|340:64,1,57.7500017623902
320,40,7183,5,0,0:0:0:0:
320,40,7283,2,0,L|256:72,1,57.7500017623902
224,104,7483,1,0,0:0:0:0:
192,136,7583,1,0,0:0:0:0:
160,168,7683,1,0,0:0:0:0:
160,168,7783,2,0,P|164:232|172:236,1,57.7500017623902
184,268,7983,1,0,0:0:0:0:
184,268,8083,1,0,0:0:0:0:
184,268,8183,1,0,0:0:0:0:
184,268,8283,1,0,0:0:0:0:
184,268,8383,1,0,0:0:0:0:
264,336,8483,5,0,0:0:0:0:
264,336,8583,1,0,0:0:0:0:
264,336,8683,1,0,0:0:0:0:
264,336,8783,1,0,0:0:0:0:
352,272,8883,1,0,0:0:0:0:
352,272,8983,1,0,0:0:0:0:
352,272,9083,1,0,0:0:0:0:
352,272,9183,1,0,0:0:0:0:
396,192,9283,1,0,0:0:0:0:
396,192,9383,1,0,0:0:0:0:
396,192,9483,1,0,0:0:0:0:
396,192,9583,1,0,0:0:0:0:
448,120,9683,6,0,P|404:68|368:72,1,57.7500017623902
364,48,9883,1,0,0:0:0:0:
144,64,10083,1,0,0:0:0:0:
144,64,10183,1,0,0:0:0:0:
144,64,10283,2,0,B|96:112|96:132|96:136|96:176,1,115.50000352478
112,220,10583,1,0,0:0:0:0:
128,276,10683,1,0,0:0:0:0:
180,308,10783,2,0,P|240:312|268:296,1,57.7500017623902
288,280,10983,1,0,0:0:0:0:
304,224,11083,1,0,0:0:0:0:
284,168,11183,1,0,0:0:0:0:
248,88,11283,5,0,0:0:0:0:
248,88,11383,1,0,0:0:0:0:
248,88,11483,2,0,P|192:52|160:64,1,57.7500017623902
144,48,11683,1,0,0:0:0:0:
108,96,11783,2,0,P|84:156|92:172,1,57.7500017623902
84,204,11983,1,0,0:0:0:0:
120,256,12083,2,0,P|136:332|156:336,1,57.7500017623902
192,356,12283,1,0,0:0:0:0:
240,336,12383,1,0,0:0:0:0:
292,344,12483,2,0,P|356:340|372:328,1,57.7500017623902
408,288,12683,5,0,0:0:0:0:
408,228,12783,1,0,0:0:0:0:
356,192,12883,2,0,L|308:120,1,57.7500017623902
276,104,13083,1,0,0:0:0:0:
200,100,13183,2,0,P|136:116|128:132,1,57.7500017623902
92,156,13383,1,0,0:0:0:0:
92,156,13483,1,0,0:0:0:0:
92,156,13583,1,0,0:0:0:0:
92,156,13683,2,0,P|56:204|56:212,1,57.7500017623902
48,256,13883,5,0,0:0:0:0:
48,256,13983,2,0,P|84:320|108:316,1,57.7500017623902
112,332,14183,1,0,0:0:0:0:
172,332,14283,1,0,0:0:0:0:
232,332,14383,1,0,0:0:0:0:
352,252,14483,5,0,0:0:0:0:
352,252,14583,1,0,0:0:0:0:
344,248,14683,2,0,P|304:176|256:160,1,115.50000352478
276,163,14983,1,0,0:0:0:0:
276,163,15083,1,0,0:0:0:0:
136,56,15283,6,0,P|104:108|108:120,1,57.7500017623902
100,156,15483,1,0,0:0:0:0:
158,318,15683,2,0,L|116:280,2,57.7500017623902
284,48,16083,5,0,0:0:0:0:
336,84,16283,1,0,0:0:0:0:
284,112,16483,1,0,0:0:0:0:
336,148,16683,1,0,0:0:0:0:
280,176,16883,1,0,0:0:0:0:
332,212,17083,1,0,0:0:0:0:
276,240,17283,1,0,0:0:0:0:
332,276,17483,5,0,0:0:0:0:
276,304,17683,1,0,0:0:0:0:
328,340,17883,1,0,0:0:0:0:
272,368,18083,1,0,0:0:0:0:
388,312,18283,1,0,0:0:0:0:
388,248,18483,2,0,P|376:160|248:144,1,231.000007049561
92,232,19283,6,0,P|68:176|80:128,1,105
140,28,19683,1,0,0:0:0:0:
432,144,20083,1,0,0:0:0:0:
304,288,20283,2,0,B|240:320|240:312|240:312|212:264,1,105
200,116,20683,1,0,0:0:0:0:
64,312,20883,1,0,0:0:0:0:
264,324,21083,2,0,B|328:328|344:312|344:312|364:276,1,105
396,124,21483,1,0,0:0:0:0:
184,36,21683,1,0,0:0:0:0:
28,288,22083,1,0,0:0:0:0:
208,304,22283,5,0,0:0:0:0:
344,176,22483,1,0,0:0:0:0:
100,48,22883,2,0,P|56:112|168:212,1,210
328,308,23483,1,0,0:0:0:0:
456,116,23683,1,0,0:0:0:0:
184,64,23883,1,0,0:0:0:0:
88,336,24283,2,0,P|156:352|196:340,1,105
316,272,24683,1,0,0:0:0:0:
168,44,24883,5,0,0:0:0:0:
52,352,25283,1,0,0:0:0:0:
72,152,25683,1,0,0:0:0:0:
292,60,26083,2,0,B|352:56|368:96|368:96|340:148|392:192|392:192|372:232|372:232|412:244|412:244|336:296|296:292|296:292|248:292|248:292|200:256|192:280,1,525
108,180,27283,1,0,0:0:0:0:
184,320,27483,1,0,0:0:0:0:
108,180,27683,1,0,0:0:0:0:
236,320,27883,1,0,0:0:0:0:
172,116,28083,1,0,0:0:0:0:
172,296,28283,1,0,0:0:0:0:
68,300,28483,5,0,0:0:0:0:
240,164,28683,1,0,0:0:0:0:
244,340,28883,1,0,0:0:0:0:
368,212,29283,1,0,0:0:0:0:
296,76,29483,2,0,B|236:108|236:108|248:128|256:148|176:208|200:232|200:232|232:276|188:320|248:332|320:332|320:328|340:280|340:280|400:280|424:208,1,525
424,164,30883,1,0,0:0:0:0:
244,128,31083,1,0,0:0:0:0:
92,296,31483,1,0,0:0:0:0:
56,116,31683,1,0,0:0:0:0:
184,328,31883,1,0,0:0:0:0:
296,260,32083,6,0,P|356:276|364:264,1,52.5
392,268,32283,1,0,0:0:0:0:
448,108,32483,1,0,0:0:0:0:
240,108,32683,1,0,0:0:0:0:
448,108,32883,1,0,0:0:0:0:
224,220,33083,1,0,0:0:0:0:
448,108,33283,1,0,0:0:0:0:
168,156,33483,1,0,0:0:0:0:
88,92,33683,2,0,B|56:136|60:208|60:208|104:292,1,210
188,352,34283,1,0,0:0:0:0:
364,196,34683,6,0,P|408:148|412:100,2,105
176,256,35483,1,0,0:0:0:0:
112,116,35683,1,0,0:0:0:0:
136,308,35883,1,0,0:0:0:0:
100,188,36083,1,0,0:0:0:0:
232,320,36283,1,0,0:0:0:0:
100,188,36483,1,0,0:0:0:0:
280,308,36683,1,0,0:0:0:0:
172,136,36883,1,0,0:0:0:0:
152,312,37083,1,0,0:0:0:0:
240,168,37283,1,0,0:0:0:0:
328,180,37483,1,0,0:0:0:0:
392,300,37683,2,0,P|452:264|492:228,1,105
456,120,38083,5,0,0:0:0:0:
304,56,38283,1,0,0:0:0:0:
184,56,38483,2,0,P|136:104|128:160,1,105
96,256,38883,1,0,0:0:0:0:
188,352,39083,2,0,P|256:352|304:328,1,105
364,228,39483,1,0,0:0:0:0:
160,104,39683,1,0,0:0:0:0:
432,320,39883,1,0,0:0:0:0:
164,240,40283,2,0,P|96:204|88:176,2,105
280,236,40883,6,0,B|332:208|368:152|368:152|288:100,2,210
144,308,41883,1,0,0:0:0:0:
424,192,42283,1,0,0:0:0:0:
272,52,42483,2,0,B|228:104|240:156|240:156|232:216|272:268,1,210
356,344,43083,1,0,0:0:0:0:
420,88,43483,2,0,P|364:100|344:148,1,105
328,276,43883,1,0,0:0:0:0:
168,132,44083,2,0,B|112:80|76:120|76:120|80:216|76:252,1,210
76,324,44883,6,0,B|140:324|168:292|168:292|232:272|252:212|252:212|316:160|308:112|308:112|356:128|376:160|376:160|336:228|364:268|436:220,1,577.5
456,68,46283,1,0,0:0:0:0:
264,76,46683,1,0,0:0:0:0:
152,76,47083,2,0,B|88:100|88:136|88:136|112:208|152:244,1,210
260,192,48083,1,0,0:0:0:0:
192,352,48483,1,0,0:0:0:0:
96,260,48683,1,0,0:0:0:0:
248,144,48883,2,0,P|264:92|304:116,1,105
400,192,49283,1,0,0:0:0:0:
224,292,49683,6,0,L|104:256,1,105
20,176,50083,1,0,0:0:0:0:
196,116,50283,1,0,0:0:0:0:
436,84,50683,1,0,0:0:0:0:
404,176,51083,2,0,B|352:220|388:252|392:252|260:276|232:216|232:216|144:252|132:144|164:64,1,420
240,56,52283,1,0,0:0:0:0:
344,268,52483,1,0,0:0:0:0:
168,272,52683,2,0,P|116:292|96:252,1,105
128,104,53083,1,0,0:0:0:0:
268,100,53283,1,0,0:0:0:0:
240,200,53483,6,0,P|208:268|232:288,1,105
348,344,53883,1,0,0:0:0:0:
432,236,54083,1,0,0:0:0:0:
372,80,54283,2,0,P|280:56|256:64,2,105
436,192,54883,1,0,0:0:0:0:
368,308,55083,2,0,B|292:328|288:324|288:324|248:308,1,105
160,228,55483,1,0,0:0:0:0:
56,96,55683,5,0,0:0:0:0:
208,64,55883,2,0,P|260:36|304:64,2,105
88,116,56483,1,0,0:0:0:0:
16,236,56683,1,0,0:0:0:0:
16,236,56783,1,0,0:0:0:0:
16,236,56883,1,0,0:0:0:0:
40,352,57083,2,0,B|96:352|96:352|144:332,1,105
236,224,57483,1,0,0:0:0:0:
236,224,57583,1,0,0:0:0:0:
236,224,57683,1,0,0:0:0:0:
424,56,57983,5,0,0:0:0:0:
104,104,58283,1,0,0:0:0:0:
112,264,58483,1,0,0:0:0:0:
476,284,58883,1,0,0:0:0:0:
364,72,59283,2,0,B|284:28|264:44|264:44|192:100|224:172,1,251.999992309571
248,288,59883,5,0,0:0:0:0:
248,288,59983,1,0,0:0:0:0:
244,284,60083,1,0,0:0:0:0:
248,288,60183,2,0,P|312:288|336:268,1,62.9999980773926
368,256,60383,1,0,0:0:0:0:
396,196,60483,2,0,B|392:112|392:112|336:100,1,125.999996154785
292,92,60783,1,0,0:0:0:0:
164,120,60983,1,0,0:0:0:0:
164,120,61083,1,0,0:0:0:0:
72,240,61283,6,0,B|112:296|132:296|132:296|204:264,1,125.999996154785
248,248,61683,1,0,0:0:0:0:
380,240,61883,1,0,0:0:0:0:
424,192,61983,1,0,0:0:0:0:
424,128,62083,1,0,0:0:0:0:
384,80,62283,2,0,B|324:52|304:56|304:56|288:104|216:120|216:120|188:168,1,251.999992309571
76,312,62883,5,0,0:0:0:0:
248,312,63083,1,0,0:0:0:0:
248,312,63183,1,0,0:0:0:0:
248,312,63283,2,0,B|312:304|340:288|340:288|352:248,1,125.999996154785
332,204,63583,1,0,0:0:0:0:
280,172,63683,1,0,0:0:0:0:
252,116,63783,1,0,0:0:0:0:
208,72,63883,2,0,P|148:96|148:104,1,62.9999980773926
112,128,64083,1,0,0:0:0:0:
88,184,64183,1,0,0:0:0:0:
88,184,64283,6,0,P|44:236|56:248,1,62.9999980773926
28,248,64483,1,0,0:0:0:0:
28,248,64583,1,0,0:0:0:0:
28,248,64683,1,0,0:0:0:0:
28,248,64783,2,0,B|48:328|76:328|76:328|104:328,1,125.999996154785
103,328,65083,1,0,0:0:0:0:
103,328,65183,1,0,0:0:0:0:
112,336,65283,2,0,P|184:332|212:312,1,62.9999980773926
224,304,65483,1,0,0:0:0:0:
288,264,65683,6,0,B|368:304|384:288|384:288|396:232|364:168|364:168|336:156,1,251.999992309571
208,88,66283,1,0,0:0:0:0:
208,88,66383,1,0,0:0:0:0:
208,88,66483,1,0,0:0:0:0:
208,88,66583,2,0,P|256:128|244:144,1,62.9999980773926
264,168,66783,1,0,0:0:0:0:
276,228,66883,1,0,0:0:0:0:
240,276,66983,2,0,B|172:268|164:264|164:264|120:216,1,125.999996154785
116,168,67283,1,0,0:0:0:0:
116,168,67383,1,0,0:0:0:0:
116,168,67483,6,0,P|56:128|56:112,1,62.9999980773926
60,84,67683,1,0,0:0:0:0:
192,64,67883,1,0,0:0:0:0:
192,64,67983,1,0,0:0:0:0:
192,64,68083,2,0,P|264:88|264:96,1,62.9999980773926
300,96,68283,1,0,0:0:0:0:
356,124,68383,2,0,P|392:188|384:200,1,62.9999980773926
424,220,68583,1,0,0:0:0:0:
388,272,68683,2,0,B|312:312|296:292|296:292|248:280|196:236|196:236|148:244,1,251.999992309571
32,236,69283,1,0,0:0:0:0:
108,116,69483,6,0,P|136:52|184:68,2,125.999996154785
128,248,70083,1,0,0:0:0:0:
196,316,70283,2,0,B|268:340|324:320|324:320|304:240|360:200,1,251.999992309571
368,88,70883,1,0,0:0:0:0:
252,96,71083,1,0,0:0:0:0:
252,96,71183,1,0,0:0:0:0:
252,96,71283,1,0,0:0:0:0:
252,96,71383,1,0,0:0:0:0:
252,96,71483,1,0,0:0:0:0:
252,96,71583,6,0,B|168:108|160:152|160:152|208:220,1,188.999994232178
248,252,71983,1,0,0:0:0:0:
304,280,72083,1,0,0:0:0:0:
412,240,72283,2,0,L|456:188,2,62.9999980773926
412,240,72583,1,0,0:0:0:0:
412,240,72683,1,0,0:0:0:0:
416,248,72783,1,0,0:0:0:0:
412,248,72883,6,0,P|448:312|428:328,1,62.9999980773926
428,340,73083,1,0,0:0:0:0:
368,344,73183,1,0,0:0:0:0:
316,308,73283,1,0,0:0:0:0:
236,224,73483,2,0,B|164:228|148:176|148:176|200:112|280:120,1,251.999992309571
388,80,74083,1,0,0:0:0:0:
248,320,74283,1,0,0:0:0:0:
444,68,74483,2,0,B|472:140|472:140|424:192|296:208,1,251.999992309571
220,240,75083,1,0,0:0:0:0:
64,164,75283,1,0,0:0:0:0:
60,312,75483,5,0,0:0:0:0:
192,352,75683,2,0,B|272:356|272:356|324:340,1,125.999996154785
436,224,76083,1,0,0:0:0:0:
440,64,76283,1,0,0:0:0:0:
292,52,76483,2,0,B|208:72|200:104|200:104|216:116,1,125.999996154785
308,200,76883,1,0,0:0:0:0:
168,276,77083,1,0,0:0:0:0:
168,276,77183,1,0,0:0:0:0:
168,276,77283,1,0,0:0:0:0:
168,276,77383,6,0,P|208:336|216:336,1,62.9999980773926
248,328,77583,1,0,0:0:0:0:
304,296,77683,1,0,0:0:0:0:
352,248,77783,1,0,0:0:0:0:
320,192,77883,1,0,0:0:0:0:
256,208,77983,1,0,0:0:0:0:
216,156,78083,1,0,0:0:0:0:
224,92,78183,1,0,0:0:0:0:
164,76,78283,1,0,0:0:0:0:
104,100,78383,6,0,B|72:168|72:208|72:208|72:264,1,125.999996154785
112,280,78683,1,0,0:0:0:0:
164,328,78783,2,0,P|236:344|240:340,1,62.9999980773926
276,304,78983,5,0,0:0:0:0:
324,244,79083,1,0,0:0:0:0:
324,172,79183,1,0,0:0:0:0:
268,128,79283,1,0,0:0:0:0:
204,104,79383,1,0,0:0:0:0:
148,144,79483,1,0,0:0:0:0:
168,212,79583,1,0,0:0:0:0:
232,240,79683,1,0,0:0:0:0:
208,304,79783,1,0,0:0:0:0:
144,328,79883,1,0,0:0:0:0:
84,288,79983,5,0,0:0:0:0:
40,228,80083,2,0,P|24:152|32:128,1,62.9999980773926
28,88,80283,1,0,0:0:0:0:
92,40,80383,1,0,0:0:0:0:
172,36,80483,1,0,0:0:0:0:
236,80,80583,1,0,0:0:0:0:
272,152,80683,1,0,0:0:0:0:
336,204,80783,1,0,0:0:0:0:
420,196,80883,1,0,0:0:0:0:
464,120,80983,1,0,0:0:0:0:
420,56,81083,6,0,P|364:28|312:68,1,125.999996154785
232,160,81483,1,0,0:0:0:0:
112,292,81683,1,0,0:0:0:0:
232,160,81883,1,0,0:0:0:0:
288,336,82283,1,0,0:0:0:0:
372,84,82683,1,0,0:0:0:0:
100,328,83083,1,0,0:0:0:0:
320,220,83483,2,0,L|356:212,10,31.4999990386963
108,132,84483,6,0,B|88:196|116:264|116:264|204:248,1,210
252,236,84983,1,0,0:0:0:0:
316,220,85083,1,0,0:0:0:0:
376,200,85183,2,0,P|440:208|448:188,1,57.7500017623902
468,172,85383,1,0,0:0:0:0:
444,112,85483,1,0,0:0:0:0:
400,64,85583,2,0,B|344:48|300:68|300:68|272:92,1,115.50000352478
252,136,85883,1,0,0:0:0:0:
244,208,85983,1,0,0:0:0:0:
284,272,86083,1,0,0:0:0:0:
284,272,86183,6,0,P|204:264|180:272,1,57.7500017623902
40,128,86483,2,0,P|16:192|24:220,1,57.7500017623902
32,256,86683,1,0,0:0:0:0:
76,328,86783,2,0,P|144:348|152:340,1,57.7500017623902
192,336,86983,1,0,0:0:0:0:
252,292,87083,1,0,0:0:0:0:
292,228,87183,2,0,P|336:192|340:168,1,57.7500017623902
352,120,87383,5,0,0:0:0:0:
296,64,87483,1,0,0:0:0:0:
216,56,87583,1,0,0:0:0:0:
144,92,87683,2,0,P|108:144|108:160,1,57.7500017623902
108,216,87883,1,0,0:0:0:0:
144,284,87983,1,0,0:0:0:0:
216,332,88083,2,0,L|160:356,2,57.7500017623902
296,268,88483,5,0,0:0:0:0:
368,204,88583,1,0,0:0:0:0:
412,120,88683,1,0,0:0:0:0:
364,32,88783,2,0,P|312:-8|300:4,1,57.7500017623902
236,20,88983,1,0,0:0:0:0:
156,56,89083,2,0,P|108:100|104:112,1,57.7500017623902
100,184,89283,1,0,0:0:0:0:
128,268,89383,1,0,0:0:0:0:
208,316,89483,6,0,P|280:316|296:304,1,57.7500017623902
320,288,89683,1,0,0:0:0:0:
352,228,89783,1,0,0:0:0:0:
332,164,89883,1,0,0:0:0:0:
280,124,89983,2,0,P|216:120|200:124,1,57.7500017623902
160,156,90183,1,0,0:0:0:0:
116,216,90283,1,0,0:0:0:0:
116,216,90383,6,0,L|168:276,1,57.7500017623902
216,304,90583,1,0,0:0:0:0:
288,296,90683,1,0,0:0:0:0:
352,256,90783,2,0,P|380:184|372:172,1,57.7500017623902
384,128,90983,1,0,0:0:0:0:
312,80,91083,1,0,0:0:0:0:
240,56,91183,2,0,P|164:72|152:88,1,57.7500017623902
120,88,91383,1,0,0:0:0:0:
64,148,91483,1,0,0:0:0:0:
32,224,91583,6,0,P|48:296|64:304,1,57.7500017623902
80,340,91783,1,0,0:0:0:0:
164,364,91883,1,0,0:0:0:0:
248,356,91983,1,0,0:0:0:0:
324,320,92083,1,0,0:0:0:0:
376,252,92183,2,0,P|400:184|396:180,1,57.7500017623902
408,132,92383,1,0,0:0:0:0:
368,56,92483,6,0,P|308:36|300:40,1,57.7500017623902
244,24,92683,1,0,0:0:0:0:
172,56,92783,1,0,0:0:0:0:
120,104,92883,2,0,P|100:164|104:168,1,57.7500017623902
152,204,93083,1,0,0:0:0:0:
228,228,93183,1,0,0:0:0:0:
284,280,93283,1,0,0:0:0:0:
356,320,93383,2,0,P|400:276|400:264,1,57.7500017623902
436,196,93583,5,0,0:0:0:0:
400,100,93683,1,0,0:0:0:0:
312,44,93783,1,0,0:0:0:0:
208,44,93883,2,0,P|128:36|120:40,1,57.7500017623902
56,64,94083,1,0,0:0:0:0:
32,172,94183,1,0,0:0:0:0:
28,268,94283,6,0,P|64:316|80:316,1,57.7500017623902
160,320,94483,1,0,0:0:0:0:
264,296,94583,1,0,0:0:0:0:
336,232,94683,1,0,0:0:0:0:
388,148,94783,1,0,0:0:0:0:
392,56,94883,1,0,0:0:0:0:
304,12,94983,1,0,0:0:0:0:
216,36,95083,1,0,0:0:0:0:
144,92,95183,1,0,0:0:0:0:
84,168,95283,6,0,P|96:236|100:236,1,57.7500017623902
112,304,95483,1,0,0:0:0:0:
236,356,95583,1,0,0:0:0:0:
384,360,95683,1,0,0:0:0:0:
464,240,95783,6,0,P|488:184|488:172,1,57.7500017623902
444,64,95983,1,0,0:0:0:0:
256,32,96083,1,0,0:0:0:0:
80,108,96183,1,0,0:0:0:0:
16,268,96283,2,0,P|12:344|24:360,1,57.7500017623902
116,376,96483,5,0,0:0:0:0:
324,336,96583,2,0,P|380:304|384:292,1,57.7500017623902
424,196,96783,1,0,0:0:0:0:
320,36,96883,1,0,0:0:0:0:
108,64,96983,1,0,0:0:0:0:
28,272,97083,1,0,0:0:0:0:
192,332,97183,2,0,L|136:316,4,57.7500017623902
373,345,97683,6,0,L|320:324,3,57.7500017623902
272,288,98083,1,0,0:0:0:0:
188,168,98183,2,0,B|124:128|140:116|140:116|192:104,1,115.50000352478
296,96,98583,1,0,0:0:0:0:
360,100,98683,1,0,0:0:0:0:
420,120,98783,1,0,0:0:0:0:
456,168,98883,1,0,0:0:0:0:
464,228,98983,1,0,0:0:0:0:
440,288,99083,2,0,P|384:328|372:320,1,57.7500017623902
256,192,99483,12,0,104983,0:0:0:0:
