osu file format v14

[General]
AudioFilename: audio.mp3
AudioLeadIn: 0
PreviewTime: 50265
Countdown: 0
SampleSet: Soft
StackLeniency: 0.7
Mode: 0
LetterboxInBreaks: 0
WidescreenStoryboard: 1

[Editor]
DistanceSpacing: 0.8
BeatDivisor: 4
GridSize: 4
TimelineZoom: 3.499999

[Metadata]
Title:Snow halation (RIN Mix) (Cut Ver.)
TitleUnicode:Snow halation(RIN Mix)(Cut Ver.)
Artist:Hoshizora Rin (CV: Iida Riho)
ArtistUnicode:星空凛 (CV: 飯田里穂)
Creator:Alexsander
Version:Insane
Source:ラブライブ! School idol project
Tags:Love Live! µ's u's muse Xmas Japanese J-Pop JPop Pop Anime Single Version Christmas
BeatmapID:2224110
BeatmapSetID:1062158

[Difficulty]
HPDrainRate:5.5
CircleSize:4
OverallDifficulty:8
ApproachRate:9
SliderMultiplier:1.8
SliderTickRate:1

[Events]
//Background and Video events
0,0,"bg.jpg",0,0
//Break Periods
//Storyboard Layer 0 (Background)
//Storyboard Layer 1 (Fail)
//Storyboard Layer 2 (Pass)
//Storyboard Layer 3 (Foreground)
//Storyboard Layer 4 (Overlay)
//Storyboard Sound Samples

[TimingPoints]
410,346.820809248555,4,2,1,30,1,0
410,-166.666666666667,4,2,1,30,0,0
4051,-166.666666666667,4,2,1,5,0,0
4571,-166.666666666667,4,2,1,30,0,0
10120,-200,4,2,1,30,0,0
12895,-142.857142857143,4,2,1,40,0,0
16190,-200,4,2,1,40,0,0
17230,-142.857142857143,4,2,1,40,0,0
21219,-200,4,2,1,40,0,0
23993,-111.111111111111,4,2,1,50,0,0
32924,-111.111111111111,4,2,1,5,0,0
33011,-100,4,2,1,50,0,0
33271,-111.111111111111,4,2,1,5,0,0
33357,-83.3333333333333,4,2,1,50,0,0
33618,-111.111111111111,4,2,1,5,0,0
33704,-83.3333333333333,4,2,1,50,0,0
33964,-111.111111111111,4,2,1,5,0,0
34051,-111.111111111111,4,2,1,50,0,0
35092,-125,4,2,1,40,0,0
40641,-100,4,2,1,60,0,0
45063,-100,4,2,1,5,0,0
45149,-100,4,2,1,60,0,0
48964,-100,4,2,1,80,0,1
50525,-100,4,2,1,80,0,0
51045,-90.9090909090909,4,2,1,60,0,0
51739,-90.9090909090909,4,2,1,70,0,1
73936,-125,4,2,1,50,0,0
76277,-125,4,2,1,5,0,0
76363,-100,4,2,1,50,0,0
76623,-125,4,2,1,5,0,0
76710,-125,4,2,1,50,0,0
79051,-125,4,2,1,5,0,0
79138,-100,4,2,1,50,0,0
79398,-125,4,2,1,5,0,0
79485,-125,4,2,1,50,0,0
82259,-100,4,2,1,60,0,0
93357,-90.9090909090909,4,2,1,80,0,1
103068,-90.9090909090909,4,2,1,80,0,0
103762,-90.9090909090909,4,2,1,60,0,0
107230,-100,4,2,1,50,0,0
108617,-100,4,2,1,40,0,0
110005,-100,4,2,1,30,0,0
111392,-100,4,2,1,20,0,0
112779,-100,4,2,1,10,0,0
114167,-90.9090909090909,4,2,1,5,0,0

[Colours]
Combo1 : 248,14,14
Combo2 : 29,72,248
Combo3 : 65,224,117
Combo4 : 243,234,58
Combo5 : 255,191,0

[HitObjects]
99,82,410,6,0,L|74:147,1,53.9999983520508,2|0,0:0|0:0,0:0:0:0:
99,211,756,1,2,0:0:0:0:
167,172,930,1,0,0:0:0:0:
230,246,1103,2,0,L|262:135,1,107.999996704102,2|0,0:0|0:0,0:0:0:0:
322,91,1623,2,0,L|351:204,1,107.999996704102,2|2,0:0|0:0,0:0:0:0:
392,264,2144,1,0,0:0:0:0:
473,250,2317,1,2,0:0:0:0:
473,250,2664,6,0,P|485:279|478:321,2,53.9999983520508,2|0|0,0:0|0:0|0:0,0:0:0:0:
423,358,3184,2,0,L|348:351,1,53.9999983520508,2|0,0:0|0:0,0:0:0:0:
295,372,3531,1,0,0:0:0:0:
223,327,3704,2,0,P|200:272|237:218,1,107.999996704102,2|0,0:0|0:0,0:0:0:0:
277,50,4571,6,0,L|297:172,1,107.999996704102,2|0,0:0|0:0,0:0:0:0:
351,211,5092,1,0,0:0:0:0:
389,141,5265,2,0,P|336:128|287:168,1,107.999996704102,2|0,0:0|0:0,0:0:0:0:
169,283,5959,6,0,L|145:162,1,107.999996704102,2|0,0:0|0:0,0:0:0:0:
92,119,6479,1,2,0:0:0:0:
92,119,6826,5,2,0:0:0:0:
139,54,6999,1,0,0:0:0:0:
213,32,7173,1,0,0:0:0:0:
281,106,7346,1,2,0:0:0:0:
281,106,7693,5,2,0:0:0:0:
378,32,7866,1,0,0:0:0:0:
378,32,8213,6,0,L|410:150,1,107.999996704102,2|0,0:0|0:0,0:0:0:0:
356,224,8733,2,0,L|239:226,1,107.999996704102,2|0,0:0|0:0,0:0:0:0:
150,279,9253,5,2,0:0:0:0:
86,238,9427,1,2,0:0:0:0:
71,163,9600,1,0,0:0:0:0:
111,97,9774,1,2,0:0:0:0:
184,118,9947,1,0,0:0:0:0:
230,51,10120,6,0,B|278:135|391:94|391:94|502:96|497:225,1,360,2|2,0:0|0:0,0:0:0:0:
160,144,12895,6,0,P|154:208|211:253,1,125.999996154785,2|0,0:0|0:0,0:0:0:0:
217,90,13415,2,0,P|161:69|89:105,1,125.999996154785,2|0,0:0|0:0,0:0:0:0:
60,161,13936,1,0,0:0:0:0:
154,204,14109,6,0,B|293:199,1,125.999996154785,2|0,0:0|0:0,0:0:0:0:
363,279,14629,2,0,L|434:276,1,62.9999980773926,2|0,0:0|0:0,0:0:0:0:
454,191,14976,2,0,L|392:194,1,62.9999980773926,2|0,0:0|0:0,0:0:0:0:
347,116,15323,2,0,L|418:113,1,62.9999980773926,2|0,0:0|0:0,0:0:0:0:
275,62,15670,6,0,P|252:119|278:174,1,125.999996154785,2|0,0:0|0:0,0:0:0:0:
347,230,16190,6,0,B|294:275|230:245|230:245|215:304|146:312,1,225,2|0,0:0|0:0,0:0:0:0:
88,281,17230,1,2,0:0:0:0:
58,209,17404,1,0,0:0:0:0:
27,136,17577,1,0,0:0:0:0:
113,55,17751,5,2,0:0:0:0:
178,137,17924,1,0,0:0:0:0:
293,62,18097,1,0,0:0:0:0:
173,122,18271,6,0,L|190:266,1,125.999996154785,2|0,0:0|0:0,0:0:0:0:
249,338,18791,1,0,0:0:0:0:
249,338,18964,2,0,L|164:337,1,62.9999980773926,2|0,0:0|0:0,0:0:0:0:
124,247,19311,2,0,L|186:247,1,62.9999980773926,2|0,0:0|0:0,0:0:0:0:
106,323,19658,1,0,0:0:0:0:
35,246,19831,6,0,P|56:187|132:161,1,125.999996154785,2|0,0:0|0:0,0:0:0:0:
186,183,20352,1,2,0:0:0:0:
320,275,20699,1,2,0:0:0:0:
453,182,21045,1,2,0:0:0:0:
472,161,21219,6,0,B|347:166|408:77|260:78,1,225,2|0,0:0|0:0,0:0:0:0:
207,134,22259,5,2,0:0:0:0:
133,101,22433,1,2,0:0:0:0:
267,196,22606,5,8,3:2:0:0:
132,259,22779,1,8,3:2:0:0:
132,259,23300,5,8,0:0:0:0:
291,185,23473,1,8,0:0:0:0:
324,264,23646,5,8,0:0:0:0:
342,294,23733,1,8,0:0:0:0:
363,322,23820,1,8,0:0:0:0:
383,351,23907,1,8,0:0:0:0:
407,376,23993,6,0,L|430:295,1,80.9999975280763,6|0,3:2|0:0,0:0:0:0:
383,151,24340,1,0,3:0:0:0:
466,187,24514,2,0,L|290:194,1,161.999995056153,2|0,0:0|0:0,0:0:0:0:
189,298,25034,1,0,3:0:0:0:
104,255,25207,6,0,P|142:209|251:232,1,161.999995056153,2|0,0:0|0:0,0:0:0:0:
329,331,25727,2,0,P|358:298|364:250,1,80.9999975280763,2|0,3:2|0:0,0:0:0:0:
272,148,26074,2,0,P|243:181|237:229,1,80.9999975280763,2|0,3:2|0:0,0:0:0:0:
360,141,26421,2,0,P|345:99|307:70,1,80.9999975280763,2|0,3:2|0:0,0:0:0:0:
191,149,26768,6,0,L|272:148,1,80.9999975280763,2|0,3:2|0:0,0:0:0:0:
190,49,27115,2,0,L|109:50,1,80.9999975280763,2|0,3:2|0:0,0:0:0:0:
25,154,27462,2,0,P|14:192|42:243,1,80.9999975280763,2|0,3:2|0:0,0:0:0:0:
160,269,27808,2,0,P|114:247|32:315,1,161.999995056153,2|0,3:2|3:0,0:0:0:0:
176,363,28329,6,0,P|218:335|261:329,1,80.9999975280763,2|0,0:0|3:0,0:0:0:0:
333,262,28675,2,0,P|291:234|248:228,1,80.9999975280763,2|0,0:0|3:0,0:0:0:0:
180,153,29022,2,0,P|222:125|265:119,1,80.9999975280763,2|0,0:0|3:0,0:0:0:0:
353,166,29369,1,8,0:0:0:0:
487,65,29542,6,0,L|455:241,1,161.999995056153,2|0,3:2|3:0,0:0:0:0:
358,331,30063,2,0,L|269:301,1,80.9999975280763,2|0,0:2|3:0,0:0:0:0:
179,251,30410,2,0,L|266:221,1,80.9999975280763,2|0,0:2|3:0,0:0:0:0:
201,335,30756,1,2,0:0:0:0:
81,245,30930,6,0,B|59:194|59:194|90:90,1,161.999995056153,0|0,3:0|3:0,0:0:0:0:
224,18,31450,2,0,P|257:48|273:96,1,80.9999975280763,2|0,0:0|3:0,0:0:0:0:
233,210,31797,2,0,P|200:180|184:132,1,80.9999975280763,2|0,0:0|3:0,0:0:0:0:
365,241,32144,6,0,P|296:232|221:284,1,161.999995056153,2|0,0:0|0:0,0:0:0:0:
85,276,32664,6,0,P|49:216|73:151,1,121.499996292114,2|0,3:2|0:0,0:0:0:0:
83,168,33011,6,0,P|130:114|222:114,1,135,2|0,3:2|0:0,0:0:0:0:
203,121,33357,6,0,P|271:143|279:243,1,161.999995056153,2|0,3:2|0:0,0:0:0:0:
272,245,33704,6,0,P|343:297|424:268,1,161.999995056153,2|0,3:2|0:0,0:0:0:0:
468,231,34051,2,0,L|460:127,1,80.9999975280763,2|0,3:2|3:0,0:0:0:0:
377,26,34398,5,0,3:0:0:0:
284,121,34571,1,8,0:0:0:0:
138,36,34745,1,8,0:3:0:0:
273,37,34918,1,8,0:3:0:0:
166,177,35092,6,0,L|136:26,1,144,4|0,0:0|0:0,0:0:0:0:
70,121,35612,1,0,3:0:0:0:
243,146,35785,2,0,L|385:111,1,144,8|0,0:0|0:0,0:0:0:0:
467,171,36305,1,0,3:0:0:0:
353,265,36479,5,2,0:0:0:0:
372,258,36826,2,0,P|387:295|383:331,1,72,0|0,3:0|0:0,0:0:0:0:
277,373,37173,1,8,0:0:0:0:
205,333,37346,1,0,3:0:0:0:
94,373,37519,2,0,L|71:300,1,72,4|0,3:2|0:0,0:0:0:0:
97,133,37866,6,0,L|144:275,1,144,4|0,3:2|0:0,0:0:0:0:
189,139,38386,1,0,3:0:0:0:
237,250,38560,2,0,L|313:228,1,72,8|0,0:0|0:0,0:0:0:0:
372,271,38907,1,2,0:0:0:0:
306,150,39080,6,0,P|344:158|377:192,1,72,2|0,3:2|0:0,0:0:0:0:
432,228,39427,1,8,0:0:0:0:
472,161,39600,1,2,0:0:0:0:
507,263,39774,1,0,3:0:0:0:
406,309,39947,5,10,0:0:0:0:
406,309,40294,2,0,P|387:262|364:242,1,72,4|0,3:2|0:0,0:0:0:0:
227,315,40641,6,0,L|322:315,1,90,6|0,3:2|0:0,0:0:0:0:
322,173,40988,2,0,L|209:170,1,90,10|0,0:0|0:0,0:0:0:0:
118,245,41334,1,2,3:2:0:0:
42,157,41508,1,0,3:0:0:0:
57,308,41681,2,0,P|101:328|157:323,1,90,10|0,0:0|0:0,0:0:0:0:
141,158,42028,6,0,L|111:268,1,90,2|0,3:2|0:0,0:0:0:0:
208,95,42375,1,8,0:0:0:0:
262,219,42548,2,0,L|294:310,1,90,2|0,3:2|0:0,0:0:0:0:
298,133,42895,1,0,3:0:0:0:
390,264,43068,2,0,L|356:354,1,90,10|0,0:0|0:0,0:0:0:0:
491,219,43415,6,0,P|457:176|393:170,1,90,6|0,3:2|0:0,0:0:0:0:
262,219,43762,2,0,P|216:196|187:144,1,90,10|0,0:0|0:0,0:0:0:0:
254,8,44109,1,2,3:2:0:0:
268,140,44282,1,0,3:0:0:0:
114,84,44456,2,0,L|208:80,1,90,10|0,0:0|0:0,0:0:0:0:
380,180,44803,6,0,P|313:177|261:218,1,135,2|0,3:2|0:0,0:0:0:0:
258,241,45149,1,8,0:0:0:0:
364,355,45323,2,0,P|369:316|341:266,1,90,2|0,3:2|0:0,0:0:0:0:
262,377,45670,1,0,3:0:0:0:
169,261,45843,2,0,L|171:154,1,90,10|0,0:0|0:0,0:0:0:0:
1,188,46190,6,0,P|34:213|99:213,1,90,6|0,3:2|0:0,0:0:0:0:
229,115,46537,2,0,P|187:93|131:107,1,90,10|0,0:0|0:0,0:0:0:0:
273,207,46883,2,0,L|326:127,1,90,2|0,3:2|3:0,0:0:0:0:
188,220,47230,1,8,0:0:0:0:
323,266,47404,2,0,L|429:270,1,90,2|0,0:0|3:0,0:0:0:0:
484,177,47751,5,2,0:0:0:0:
423,53,47924,1,8,0:0:0:0:
364,106,48097,1,2,3:2:0:0:
225,11,48271,1,2,0:0:0:0:
160,65,48444,1,2,3:2:0:0:
313,30,48618,1,8,0:0:0:0:
313,30,48704,1,8,0:0:0:0:
313,30,48791,1,0,3:0:0:0:
231,190,48964,6,0,P|178:203|132:197,1,90,8|0,3:2|3:0,0:0:0:0:
315,279,49311,2,0,P|368:292|414:286,1,90,8|0,0:0|3:0,0:0:0:0:
318,183,49658,5,8,0:0:0:0:
252,341,49832,1,0,3:0:0:0:
231,190,50005,5,8,0:0:0:0:
158,349,50179,1,0,3:0:0:0:
74,136,50352,5,10,0:0:0:0:
169,258,50525,1,8,0:3:0:0:
169,258,51045,5,2,0:0:0:0:
184,239,51132,1,2,0:0:0:0:
203,229,51219,1,2,3:2:0:0:
225,226,51305,1,2,0:0:0:0:
245,233,51392,6,0,L|299:218,3,49.5000015106202,10|2|2|0,0:0|0:0|3:2|3:0,0:0:0:0:
327,229,51739,6,0,B|367:174|367:174|334:39,1,198.000006042481,6|10,0:0|0:0,0:0:0:0:
249,150,52259,1,0,0:0:0:0:
143,37,52433,2,0,P|95:40|42:81,1,99.0000030212403,2|0,3:2|3:0,0:0:0:0:
129,147,52779,1,8,0:0:0:0:
273,12,52953,6,0,P|365:2|411:91,1,198.000006042481,2|0,0:2|0:0,0:0:0:0:
307,202,53473,2,0,P|295:140|329:90,1,99.0000030212403,10|0,0:0|3:0,0:0:0:0:
387,251,53820,2,0,P|339:292|279:287,1,99.0000030212403,2|0,0:0|3:0,0:0:0:0:
155,291,54167,2,0,P|202:249|262:254,1,99.0000030212403,10|0,0:0|0:0,0:0:0:0:
70,158,54514,6,0,L|55:370,1,198.000006042481,2|8,3:2|0:0,0:0:0:0:
235,245,55034,2,0,B|347:248|292:319|409:323,1,198.000006042481,2|0,0:0|3:0,0:0:0:0:
465,166,55554,2,0,P|419:187|395:251,1,99.0000030212403,8|0,0:0|0:0,0:0:0:0:
274,82,55901,6,0,L|151:83,1,99.0000030212403,2|0,3:2|0:0,0:0:0:0:
322,149,56248,1,8,0:0:0:0:
317,16,56421,1,0,3:0:0:0:
317,16,56508,1,0,3:0:0:0:
317,16,56594,1,0,3:0:0:0:
389,78,56768,1,8,0:2:0:0:
238,167,56941,1,8,0:0:0:0:
374,222,57115,1,0,3:0:0:0:
174,301,57288,6,0,B|230:336|230:336|374:304,1,198.000006042481,4|8,0:0|0:0,0:0:0:0:
243,241,57808,1,0,0:0:0:0:
114,347,57982,2,0,P|99:293|122:245,1,99.0000030212403,0|0,3:0|3:0,0:0:0:0:
233,335,58329,1,8,0:0:0:0:
333,191,58502,6,0,P|260:142|155:204,1,198.000006042481,2|0,0:0|3:0,0:0:0:0:
233,335,59022,1,8,0:0:0:0:
117,253,59196,2,0,P|82:210|94:147,1,99.0000030212403,0|0,3:0|0:0,0:0:0:0:
216,254,59542,1,0,3:0:0:0:
114,347,59716,1,10,0:0:0:0:
166,182,59889,1,0,0:0:0:0:
314,383,60063,6,0,L|365:156,1,198.000006042481,6|8,0:0|0:0,0:0:0:0:
311,62,60583,1,0,0:0:0:0:
154,163,60756,2,0,L|262:153,1,99.0000030212403,2|0,3:2|3:0,0:0:0:0:
89,213,61103,1,8,0:0:0:0:
116,94,61277,1,0,3:0:0:0:
211,238,61450,5,10,0:2:0:0:
96,335,61623,1,4,0:3:0:0:
96,335,62144,6,0,P|151:325|212:362,1,99.0000030212403,10|2,0:0|3:2,0:0:0:0:
315,384,62490,1,2,0:0:0:0:
337,350,62577,1,2,0:0:0:0:
359,317,62664,1,10,0:0:0:0:
382,284,62751,1,10,0:0:0:0:
403,251,62837,6,0,P|324:196|228:222,1,198.000006042481,4|8,0:0|0:0,0:0:0:0:
189,340,63357,1,0,0:0:0:0:
77,230,63531,2,0,P|71:174|95:132,1,99.0000030212403,0|0,3:0|3:0,0:0:0:0:
171,78,63878,1,8,0:0:0:0:
391,177,64051,6,0,P|311:151|229:224,1,198.000006042481,2|0,0:0|0:0,0:0:0:0:
461,260,64571,2,0,L|497:161,1,99.0000030212403,10|0,0:0|3:0,0:0:0:0:
357,83,64918,2,0,L|393:182,1,99.0000030212403,2|0,0:0|3:0,0:0:0:0:
251,95,65265,2,0,L|287:-4,1,99.0000030212403,10|0,0:0|0:0,0:0:0:0:
319,235,65612,6,0,B|263:279|263:279|112:255,1,198.000006042481,2|8,3:2|0:0,0:0:0:0:
124,100,66132,2,0,P|180:175|137:259,1,198.000006042481,2|0,0:0|3:0,0:0:0:0:
1,188,66652,2,0,P|49:169|104:189,1,99.0000030212403,8|0,0:0|0:0,0:0:0:0:
269,274,66999,6,0,L|339:187,1,99.0000030212403,2|0,3:2|0:0,0:0:0:0:
273,42,67346,1,8,0:0:0:0:
257,153,67519,1,0,3:0:0:0:
257,153,67606,1,0,3:0:0:0:
257,153,67693,1,0,3:0:0:0:
390,2,67866,1,8,0:0:0:0:
404,162,68040,1,8,0:0:0:0:
288,59,68213,1,0,3:0:0:0:
106,188,68386,6,0,B|223:173|184:252|297:232,1,198.000006042481,4|8,0:0|0:0,0:0:0:0:
143,271,68907,1,0,0:0:0:0:
336,302,69080,2,0,P|366:256|366:204,1,99.0000030212403,0|0,3:0|3:0,0:0:0:0:
271,68,69427,1,8,0:0:0:0:
467,124,69600,6,0,B|367:110|395:197|281:193,1,198.000006042481,2|0,0:0|0:0,0:0:0:0:
145,125,70120,1,8,0:0:0:0:
257,13,70294,2,0,L|241:132,1,99.0000030212403,0|0,3:0|0:0,0:0:0:0:
127,207,70641,1,0,3:0:0:0:
270,275,70814,1,8,0:0:0:0:
143,338,70988,1,0,0:0:0:0:
285,177,71161,6,0,L|327:372,1,198.000006042481,6|8,0:0|0:0,0:0:0:0:
395,245,71681,1,0,0:0:0:0:
207,226,71855,2,0,L|94:238,1,99.0000030212403,2|0,3:2|3:0,0:0:0:0:
222,123,72201,1,8,0:0:0:0:
120,98,72375,1,0,0:0:0:0:
207,226,72548,5,6,0:0:0:0:
328,114,72722,1,0,3:0:0:0:
328,114,72895,1,8,0:0:0:0:
324,334,73068,2,0,L|306:233,1,99.0000030212403,6|0,0:0|0:0,0:0:0:0:
404,150,73415,1,0,3:0:0:0:
508,259,73589,1,8,0:0:0:0:
466,86,73762,1,8,0:0:0:0:
466,86,73849,1,8,0:0:0:0:
466,86,73936,6,0,P|413:58|337:89,1,144,6|0,0:0|0:0,0:0:0:0:
136,0,74629,2,0,L|135:144,1,144,10|0,0:0|0:0,0:0:0:0:
102,232,75149,1,0,3:0:0:0:
174,284,75323,1,2,0:0:0:0:
98,384,75496,6,0,L|99:307,1,72,8|0,0:0|0:0,0:0:0:0:
25,257,75843,1,2,3:2:0:0:
174,284,76016,2,0,P|224:284|279:254,1,108,8|0,0:0|0:0,0:0:0:0:
296,237,76363,6,0,P|269:178|302:108,1,135,4|0,0:0|0:0,0:0:0:0:
316,95,76710,6,0,B|269:120|269:120|167:97,1,144,4|0,0:0|0:0,0:0:0:0:
111,51,77230,1,0,3:0:0:0:
20,112,77404,2,0,P|1:73|8:29,1,72,10|0,0:0|0:0,0:0:0:0:
93,142,77751,1,2,0:0:0:0:
29,225,77924,5,0,3:0:0:0:
94,297,78097,1,2,0:0:0:0:
200,217,78271,1,8,0:0:0:0:
274,286,78444,1,2,0:0:0:0:
304,148,78618,1,0,3:0:0:0:
343,231,78791,2,0,L|467:224,1,108,8|0,0:0|0:0,0:0:0:0:
474,244,79138,6,0,P|422:243|367:306,1,135,4|0,0:0|0:0,0:0:0:0:
364,331,79485,6,0,B|212:312,1,144,4|0,0:0|0:0,0:0:0:0:
139,320,80005,1,0,3:0:0:0:
203,235,80178,1,8,0:0:0:0:
135,175,80352,1,0,3:0:0:0:
302,228,80525,1,8,0:0:0:0:
302,228,80612,1,8,0:0:0:0:
302,228,80699,1,8,3:0:0:0:
244,126,80872,5,10,0:0:0:0:
221,313,81045,1,4,0:3:0:0:
221,313,81739,5,0,3:0:0:0:
140,259,81912,2,0,L|168:211,3,36,10|2|2|2,0:0|0:0|0:0|0:0,0:0:0:0:
188,191,82259,6,0,B|283:164|274:241|373:216,1,180,6|10,0:0|0:0,0:0:0:0:
426,84,82779,1,0,0:0:0:0:
336,136,82953,1,2,3:2:0:0:
491,146,83126,1,0,3:0:0:0:
357,39,83300,2,0,L|255:35,1,90,10|0,0:0|0:0,0:0:0:0:
93,106,83646,6,0,P|178:86|242:168,1,180,2|8,3:2|0:0,0:0:0:0:
203,283,84167,1,0,3:0:0:0:
160,165,84340,1,2,0:0:0:0:
275,228,84514,1,0,3:0:0:0:
162,357,84687,1,8,0:0:0:0:
99,292,84860,1,0,0:0:0:0:
267,374,85034,6,0,B|366:379|325:296|453:317,1,180,2|10,3:2|0:0,0:0:0:0:
283,286,85554,1,0,0:0:0:0:
383,230,85727,1,2,3:2:0:0:
252,163,85901,1,0,3:0:0:0:
346,78,86074,2,0,P|351:133|321:177,1,90,10|0,0:0|0:0,0:0:0:0:
178,223,86421,6,0,L|266:259,1,90,2|0,3:2|0:0,0:0:0:0:
150,352,86768,1,10,0:0:0:0:
87,209,86941,2,0,P|105:164|149:137,1,90,0|2,3:0|0:0,0:0:0:0:
252,163,87288,1,8,0:0:0:0:
192,16,87462,1,10,0:0:0:0:
137,140,87635,1,0,3:0:0:0:
332,50,87808,6,0,B|368:102|368:102|347:230,1,180,6|10,0:0|0:0,0:0:0:0:
289,303,88329,1,0,0:0:0:0:
249,158,88502,1,2,3:2:0:0:
349,217,88675,1,0,3:0:0:0:
197,282,88849,2,0,L|94:279,1,90,10|0,0:0|0:0,0:0:0:0:
5,146,89196,6,0,P|81:193|181:145,1,180,2|8,3:2|0:0,0:0:0:0:
304,63,89716,2,0,P|353:57|398:75,1,90,2|0,3:2|0:0,0:0:0:0:
273,155,90063,1,0,3:0:0:0:
453,144,90236,2,0,P|459:193|441:238,1,90,8|0,0:0|0:0,0:0:0:0:
334,354,90583,5,2,3:2:0:0:
272,291,90756,1,0,0:0:0:0:
163,367,90930,1,10,0:0:0:0:
93,319,91103,1,0,0:0:0:0:
166,198,91277,1,2,3:2:0:0:
167,293,91450,1,0,3:0:0:0:
91,166,91623,2,0,L|94:66,1,90,10|0,0:0|0:0,0:0:0:0:
326,97,91970,6,0,P|254:72|169:125,1,180,2|8,3:2|0:0,0:0:0:0:
265,205,92490,2,0,L|255:147,2,45,2|0|0,3:2|3:0|3:0,0:0:0:0:
203,355,92837,1,8,0:0:0:0:
186,206,93011,1,8,0:0:0:0:
186,206,93097,1,8,0:0:0:0:
186,206,93184,1,8,0:0:0:0:
323,347,93357,6,0,P|375:334|412:266,1,99.0000030212403,14|0,0:0|0:0,0:0:0:0:
313,125,93704,1,8,0:0:0:0:
330,257,93878,1,0,3:0:0:0:
391,100,94051,2,0,P|358:58|306:45,1,99.0000030212403,10|0,0:0|3:0,0:0:0:0:
168,118,94398,1,8,0:0:0:0:
313,125,94572,1,0,3:0:0:0:
142,131,94745,6,0,L|26:130,1,99.0000030212403,10|0,0:0|0:0,0:0:0:0:
172,246,95092,1,8,0:0:0:0:
241,110,95265,1,0,3:0:0:0:
297,272,95438,1,10,0:0:0:0:
391,152,95611,1,0,3:0:0:0:
433,319,95785,2,0,L|462:207,1,99.0000030212403,8|0,0:0|3:0,0:0:0:0:
313,354,96132,6,0,P|256:377|211:369,1,99.0000030212403,10|0,0:0|0:0,0:0:0:0:
117,223,96479,1,8,0:0:0:0:
255,294,96652,1,0,3:0:0:0:
59,286,96826,2,0,P|37:234|49:179,1,99.0000030212403,10|0,0:0|3:0,0:0:0:0:
191,73,97173,2,0,P|213:125|201:180,1,99.0000030212403,8|0,0:0|3:0,0:0:0:0:
355,255,97519,6,0,L|458:219,1,99.0000030212403,10|0,0:0|0:0,0:0:0:0:
288,88,97866,2,0,L|191:73,1,99.0000030212403,10|0,0:0|0:0,0:0:0:0:
69,208,98213,1,8,0:0:0:0:
69,208,98300,1,8,0:0:0:0:
69,208,98386,1,0,3:0:0:0:
66,44,98560,1,8,0:0:0:0:
66,44,98647,1,8,0:0:0:0:
66,44,98733,1,0,3:0:0:0:
174,189,98907,6,0,P|196:243|171:303,1,99.0000030212403,14|0,0:0|0:0,0:0:0:0:
49,384,99253,1,8,0:0:0:0:
120,246,99427,1,0,3:0:0:0:
239,362,99600,2,0,P|298:367|335:348,1,99.0000030212403,10|0,0:0|3:0,0:0:0:0:
393,186,99947,1,8,0:0:0:0:
279,289,100120,1,0,3:0:0:0:
413,168,100294,6,0,L|382:68,1,99.0000030212403,10|0,0:0|0:0,0:0:0:0:
316,215,100641,1,8,0:0:0:0:
243,74,100814,1,0,3:0:0:0:
174,233,100988,1,10,0:0:0:0:
118,86,101161,1,0,3:0:0:0:
67,246,101334,2,0,P|84:291|131:320,1,99.0000030212403,8|0,0:0|3:0,0:0:0:0:
316,215,101681,6,0,L|290:316,1,99.0000030212403,10|0,0:0|0:0,0:0:0:0:
247,147,102028,1,8,0:0:0:0:
406,200,102201,1,0,3:0:0:0:
225,231,102375,1,10,0:0:0:0:
374,120,102548,1,0,3:0:0:0:
193,70,102722,2,0,L|86:99,1,99.0000030212403,8|0,0:0|3:0,0:0:0:0:
3,261,103068,5,10,0:0:0:0:
153,365,103242,1,12,0:0:0:0:
153,365,103762,5,8,0:0:0:0:
198,266,103936,1,8,0:0:0:0:
224,244,104022,1,8,0:0:0:0:
258,241,104109,1,8,0:0:0:0:
287,259,104196,1,8,0:0:0:0:
302,289,104282,1,8,0:0:0:0:
302,289,104803,6,0,P|325:270|346:246,2,33.0000010070801,2|0|0,0:0|0:0|0:0,0:0:0:0:
256,192,104976,12,0,114167,0:0:0:0:
