osu file format v14

[General]
AudioFilename: audio.mp3
AudioLeadIn: 0
PreviewTime: 58479
Countdown: 0
SampleSet: Normal
StackLeniency: 0.7
Mode: 1
LetterboxInBreaks: 0
WidescreenStoryboard: 0

[Editor]
DistanceSpacing: 1
BeatDivisor: 4
GridSize: 32
TimelineZoom: 2.1

[Metadata]
Title:Beat in Angel
TitleUnicode:Beat in Angel
Artist:Hoshizora Rin (CV: Iida Riho) & Nishikino Maki (CV: Pile)
ArtistUnicode:星空凛 (CV: 飯田里穂) & 西木野真姫 (CV: Pile)
Creator:GOD82028
Version:Inner Oni
Source:ラブライブ! School idol project
Tags:Lantis Love Live! festival eurobeat anime video game japanese μ's u's muse 堀絵梨子 Hori Eriko 倉内達矢 Kurauchi Tatsuya 畑亜貴 Hata Aki バンダイビジュアル Bandai Visual
BeatmapID:2193094
BeatmapSetID:1049281

[Difficulty]
HPDrainRate:4
CircleSize:3
OverallDifficulty:6
ApproachRate:3
SliderMultiplier:1.4
SliderTickRate:1

[Events]
//Background and Video events
0,0,"nrpfHTd.jpg",0,70
//Break Periods
//Storyboard Layer 0 (Background)
//Storyboard Layer 1 (Fail)
//Storyboard Layer 2 (Pass)
//Storyboard Layer 3 (Foreground)
//Storyboard Layer 4 (Overlay)
//Storyboard Sound Samples

[TimingPoints]
3279,400,4,1,0,85,1,0
16079,-100,4,1,0,75,0,0
32079,-100,4,1,0,80,0,0
59279,-100,4,1,0,95,0,1
84879,-100,4,1,0,85,0,0
97639,400,4,1,0,85,1,0
99639,-100,4,1,0,75,0,0

[HitObjects]
256,192,812,5,4,0:0:0:0:
256,192,2479,1,0,0:0:0:0:
256,192,2579,1,0,0:0:0:0:
256,192,2679,1,0,0:0:0:0:
256,192,2779,1,0,0:0:0:0:
256,192,2879,1,0,0:0:0:0:
256,192,2979,1,0,0:0:0:0:
256,192,3079,1,0,0:0:0:0:
256,192,3179,1,0,0:0:0:0:
256,192,3279,1,2,0:0:0:0:
256,192,3379,1,2,0:0:0:0:
256,192,3479,1,0,0:0:0:0:
256,192,3679,1,2,0:0:0:0:
256,192,3779,1,2,0:0:0:0:
256,192,3879,1,0,0:0:0:0:
256,192,4079,1,2,0:0:0:0:
256,192,4179,1,2,0:0:0:0:
256,192,4379,1,0,0:0:0:0:
256,192,4479,1,2,0:0:0:0:
256,192,4579,1,0,0:0:0:0:
256,192,4679,1,2,0:0:0:0:
256,192,4779,1,0,0:0:0:0:
256,192,4879,1,2,0:0:0:0:
256,192,4979,1,2,0:0:0:0:
256,192,5079,1,0,0:0:0:0:
256,192,5279,1,2,0:0:0:0:
256,192,5379,1,2,0:0:0:0:
256,192,5479,1,0,0:0:0:0:
256,192,5679,1,2,0:0:0:0:
256,192,5779,1,0,0:0:0:0:
256,192,5979,1,0,0:0:0:0:
256,192,6079,1,2,0:0:0:0:
256,192,6179,1,2,0:0:0:0:
256,192,6279,1,0,0:0:0:0:
256,192,6379,1,0,0:0:0:0:
256,192,6479,1,2,0:0:0:0:
256,192,6579,1,2,0:0:0:0:
256,192,6679,1,0,0:0:0:0:
256,192,6879,1,2,0:0:0:0:
256,192,6979,1,0,0:0:0:0:
256,192,7179,1,0,0:0:0:0:
256,192,7379,1,0,0:0:0:0:
256,192,7479,1,2,0:0:0:0:
256,192,7579,1,0,0:0:0:0:
256,192,7679,1,2,0:0:0:0:
256,192,7779,1,2,0:0:0:0:
256,192,7879,1,0,0:0:0:0:
256,192,8079,1,2,0:0:0:0:
256,192,8179,1,2,0:0:0:0:
256,192,8279,1,0,0:0:0:0:
256,192,8379,1,0,0:0:0:0:
256,192,8479,1,2,0:0:0:0:
256,192,8579,1,0,0:0:0:0:
256,192,8679,1,0,0:0:0:0:
256,192,8779,1,0,0:0:0:0:
256,192,8879,1,2,0:0:0:0:
256,192,8979,1,0,0:0:0:0:
256,192,9079,1,2,0:0:0:0:
256,192,9179,1,2,0:0:0:0:
256,192,9279,1,0,0:0:0:0:
256,192,9379,1,0,0:0:0:0:
256,192,9479,1,2,0:0:0:0:
256,192,9579,1,0,0:0:0:0:
256,192,9679,1,2,0:0:0:0:
256,192,9779,1,2,0:0:0:0:
256,192,9879,1,0,0:0:0:0:
256,192,10079,1,2,0:0:0:0:
256,192,10179,1,2,0:0:0:0:
256,192,10279,1,0,0:0:0:0:
256,192,10479,1,2,0:0:0:0:
256,192,10579,1,2,0:0:0:0:
256,192,10779,1,0,0:0:0:0:
256,192,10879,1,2,0:0:0:0:
256,192,10979,1,0,0:0:0:0:
256,192,11079,1,2,0:0:0:0:
256,192,11179,1,0,0:0:0:0:
256,192,11279,1,2,0:0:0:0:
256,192,11379,1,2,0:0:0:0:
256,192,11479,1,0,0:0:0:0:
256,192,11679,1,2,0:0:0:0:
256,192,11779,1,2,0:0:0:0:
256,192,11879,1,0,0:0:0:0:
256,192,12079,1,2,0:0:0:0:
256,192,12179,1,0,0:0:0:0:
256,192,12379,1,0,0:0:0:0:
256,192,12479,1,2,0:0:0:0:
256,192,12579,1,2,0:0:0:0:
256,192,12679,1,0,0:0:0:0:
256,192,12779,1,0,0:0:0:0:
256,192,12879,1,2,0:0:0:0:
256,192,12979,1,2,0:0:0:0:
256,192,13079,1,0,0:0:0:0:
256,192,13279,1,2,0:0:0:0:
256,192,13379,1,0,0:0:0:0:
256,192,13479,1,2,0:0:0:0:
256,192,13679,1,0,0:0:0:0:
256,192,13779,1,0,0:0:0:0:
256,192,13879,1,2,0:0:0:0:
256,192,13979,1,0,0:0:0:0:
256,192,14079,1,0,0:0:0:0:
256,192,14179,1,2,0:0:0:0:
256,192,14279,1,0,0:0:0:0:
256,192,14379,1,0,0:0:0:0:
256,192,14579,1,0,0:0:0:0:
256,192,14679,1,2,0:0:0:0:
256,192,14879,1,0,0:0:0:0:
256,192,14979,1,2,0:0:0:0:
256,192,15079,1,2,0:0:0:0:
256,192,15279,1,0,0:0:0:0:
256,192,15379,1,0,0:0:0:0:
256,192,15479,1,2,0:0:0:0:
256,192,15579,1,2,0:0:0:0:
256,192,15679,1,0,0:0:0:0:
256,192,15779,1,2,0:0:0:0:
256,192,15879,1,2,0:0:0:0:
256,192,15979,1,0,0:0:0:0:
256,192,16079,1,0,0:0:0:0:
256,192,16279,1,2,0:0:0:0:
256,192,16479,1,0,0:0:0:0:
256,192,16879,1,0,0:0:0:0:
256,192,17079,1,2,0:0:0:0:
256,192,17279,1,0,0:0:0:0:
256,192,17679,1,0,0:0:0:0:
256,192,17879,1,2,0:0:0:0:
256,192,18079,1,0,0:0:0:0:
256,192,18479,1,6,0:0:0:0:
256,192,18879,1,6,0:0:0:0:
256,192,19279,1,4,0:0:0:0:
256,192,19479,1,0,0:0:0:0:
256,192,19579,1,0,0:0:0:0:
256,192,19679,1,2,0:0:0:0:
256,192,19879,1,2,0:0:0:0:
256,192,20079,1,0,0:0:0:0:
256,192,20179,1,0,0:0:0:0:
256,192,20279,1,0,0:0:0:0:
256,192,20479,1,2,0:0:0:0:
256,192,20679,1,0,0:0:0:0:
256,192,21079,1,2,0:0:0:0:
256,192,21179,1,2,0:0:0:0:
256,192,21279,1,0,0:0:0:0:
256,192,21479,1,2,0:0:0:0:
256,192,21679,1,0,0:0:0:0:
256,192,21779,1,0,0:0:0:0:
256,192,21879,1,0,0:0:0:0:
256,192,21979,1,0,0:0:0:0:
256,192,22079,1,2,0:0:0:0:
256,192,22279,1,2,0:0:0:0:
256,192,22479,1,0,0:0:0:0:
256,192,22679,1,0,0:0:0:0:
256,192,22779,1,0,0:0:0:0:
256,192,22879,1,2,0:0:0:0:
256,192,23079,1,2,0:0:0:0:
256,192,23279,1,0,0:0:0:0:
256,192,23379,1,0,0:0:0:0:
256,192,23479,1,0,0:0:0:0:
256,192,23679,1,2,0:0:0:0:
256,192,23879,1,0,0:0:0:0:
256,192,24279,1,2,0:0:0:0:
256,192,24379,1,0,0:0:0:0:
256,192,24479,1,0,0:0:0:0:
256,192,24679,1,0,0:0:0:0:
256,192,24879,1,2,0:0:0:0:
256,192,24979,1,2,0:0:0:0:
256,192,25079,1,0,0:0:0:0:
256,192,25179,1,0,0:0:0:0:
256,192,25279,1,2,0:0:0:0:
256,192,25679,1,2,0:0:0:0:
256,192,25879,1,0,0:0:0:0:
256,192,25979,1,0,0:0:0:0:
256,192,26079,1,0,0:0:0:0:
256,192,26279,1,0,0:0:0:0:
256,192,26479,1,2,0:0:0:0:
256,192,26679,1,0,0:0:0:0:
256,192,26779,1,0,0:0:0:0:
256,192,26879,1,0,0:0:0:0:
256,192,27079,1,2,0:0:0:0:
256,192,27479,1,0,0:0:0:0:
256,192,27579,1,0,0:0:0:0:
256,192,27679,1,2,0:0:0:0:
256,192,27879,1,0,0:0:0:0:
256,192,28079,1,2,0:0:0:0:
256,192,28279,1,0,0:0:0:0:
256,192,28379,1,0,0:0:0:0:
256,192,28479,1,2,0:0:0:0:
256,192,28679,1,0,0:0:0:0:
256,192,28879,1,2,0:0:0:0:
256,192,28979,1,0,0:0:0:0:
256,192,29079,1,0,0:0:0:0:
256,192,29179,1,2,0:0:0:0:
256,192,29279,1,0,0:0:0:0:
256,192,29479,1,2,0:0:0:0:
256,192,29679,1,0,0:0:0:0:
256,192,29879,1,2,0:0:0:0:
256,192,29979,1,2,0:0:0:0:
256,192,30079,1,0,0:0:0:0:
256,192,30279,1,2,0:0:0:0:
256,192,30479,1,0,0:0:0:0:
256,192,30579,1,0,0:0:0:0:
256,192,30679,1,2,0:0:0:0:
256,192,30779,1,2,0:0:0:0:
256,192,30879,1,0,0:0:0:0:
256,192,30979,1,0,0:0:0:0:
256,192,31079,1,2,0:0:0:0:
256,192,31279,1,2,0:0:0:0:
256,192,31379,1,2,0:0:0:0:
256,192,31479,1,0,0:0:0:0:
256,192,31579,1,2,0:0:0:0:
256,192,31679,1,0,0:0:0:0:
256,192,31779,1,0,0:0:0:0:
256,192,31879,1,0,0:0:0:0:
256,192,32079,1,4,0:0:0:0:
256,192,32279,1,0,0:0:0:0:
256,192,32379,1,0,0:0:0:0:
256,192,32479,1,2,0:0:0:0:
256,192,32679,1,0,0:0:0:0:
256,192,32879,1,2,0:0:0:0:
256,192,32979,1,2,0:0:0:0:
256,192,33079,1,0,0:0:0:0:
256,192,33179,1,0,0:0:0:0:
256,192,33279,1,2,0:0:0:0:
256,192,33479,1,0,0:0:0:0:
256,192,33679,1,2,0:0:0:0:
256,192,33879,1,0,0:0:0:0:
256,192,33979,1,2,0:0:0:0:
256,192,34079,1,2,0:0:0:0:
256,192,34279,1,0,0:0:0:0:
256,192,34479,1,2,0:0:0:0:
256,192,34579,1,2,0:0:0:0:
256,192,34679,1,0,0:0:0:0:
256,192,34779,1,0,0:0:0:0:
256,192,34879,1,2,0:0:0:0:
256,192,34979,1,0,0:0:0:0:
256,192,35079,1,2,0:0:0:0:
256,192,35279,1,0,0:0:0:0:
256,192,35479,1,0,0:0:0:0:
256,192,35579,1,0,0:0:0:0:
256,192,35679,1,2,0:0:0:0:
256,192,35879,1,0,0:0:0:0:
256,192,36079,1,2,0:0:0:0:
256,192,36179,1,0,0:0:0:0:
256,192,36279,1,2,0:0:0:0:
256,192,36379,1,0,0:0:0:0:
256,192,36479,1,2,0:0:0:0:
256,192,36679,1,0,0:0:0:0:
256,192,36879,1,2,0:0:0:0:
256,192,37079,1,2,0:0:0:0:
256,192,37179,1,0,0:0:0:0:
256,192,37279,1,0,0:0:0:0:
256,192,37479,1,2,0:0:0:0:
256,192,37579,1,0,0:0:0:0:
256,192,37679,1,2,0:0:0:0:
256,192,37779,1,2,0:0:0:0:
256,192,37879,1,0,0:0:0:0:
256,192,37979,1,2,0:0:0:0:
256,192,38079,1,0,0:0:0:0:
256,192,38279,1,2,0:0:0:0:
256,192,38679,1,0,0:0:0:0:
256,192,38779,1,0,0:0:0:0:
256,192,38879,1,0,0:0:0:0:
256,192,39079,1,0,0:0:0:0:
256,192,39479,1,0,0:0:0:0:
256,192,39579,1,0,0:0:0:0:
256,192,39679,1,0,0:0:0:0:
256,192,39879,1,2,0:0:0:0:
256,192,40279,1,0,0:0:0:0:
256,192,40379,1,0,0:0:0:0:
256,192,40479,1,0,0:0:0:0:
256,192,40679,1,0,0:0:0:0:
256,192,40879,1,2,0:0:0:0:
256,192,41079,1,0,0:0:0:0:
256,192,41179,1,2,0:0:0:0:
256,192,41279,1,2,0:0:0:0:
256,192,41479,1,2,0:0:0:0:
256,192,41879,1,0,0:0:0:0:
256,192,42079,1,2,0:0:0:0:
256,192,42179,1,0,0:0:0:0:
256,192,42279,1,0,0:0:0:0:
256,192,42479,1,2,0:0:0:0:
256,192,42679,1,0,0:0:0:0:
256,192,42779,1,0,0:0:0:0:
256,192,42879,1,0,0:0:0:0:
256,192,42979,1,0,0:0:0:0:
256,192,43079,1,2,0:0:0:0:
256,192,43479,1,4,0:0:0:0:
256,192,43679,1,4,0:0:0:0:
256,192,43879,1,4,0:0:0:0:
256,192,44079,1,6,0:0:0:0:
256,192,44479,1,4,0:0:0:0:
256,192,44879,1,2,0:0:0:0:
256,192,45079,1,0,0:0:0:0:
256,192,45179,1,0,0:0:0:0:
256,192,45279,1,2,0:0:0:0:
256,192,45479,1,0,0:0:0:0:
256,192,45679,1,2,0:0:0:0:
256,192,45779,1,0,0:0:0:0:
256,192,45879,1,0,0:0:0:0:
256,192,45979,1,0,0:0:0:0:
256,192,46079,1,2,0:0:0:0:
256,192,46279,1,0,0:0:0:0:
256,192,46479,1,2,0:0:0:0:
256,192,46679,1,0,0:0:0:0:
256,192,46779,1,0,0:0:0:0:
256,192,46879,1,2,0:0:0:0:
256,192,47079,1,0,0:0:0:0:
256,192,47279,1,2,0:0:0:0:
256,192,47379,1,0,0:0:0:0:
256,192,47479,1,0,0:0:0:0:
256,192,47579,1,2,0:0:0:0:
256,192,47679,1,0,0:0:0:0:
256,192,47879,1,2,0:0:0:0:
256,192,48079,1,0,0:0:0:0:
256,192,48279,1,2,0:0:0:0:
256,192,48379,1,2,0:0:0:0:
256,192,48479,1,0,0:0:0:0:
256,192,48679,1,2,0:0:0:0:
256,192,48879,1,0,0:0:0:0:
256,192,48979,1,0,0:0:0:0:
256,192,49079,1,2,0:0:0:0:
256,192,49179,1,2,0:0:0:0:
256,192,49279,1,0,0:0:0:0:
256,192,49479,1,2,0:0:0:0:
256,192,49679,1,0,0:0:0:0:
256,192,49879,1,0,0:0:0:0:
256,192,49979,1,0,0:0:0:0:
256,192,50079,1,0,0:0:0:0:
256,192,50279,1,2,0:0:0:0:
256,192,50379,1,0,0:0:0:0:
256,192,50479,1,0,0:0:0:0:
256,192,50579,1,2,0:0:0:0:
256,192,50679,1,0,0:0:0:0:
256,192,50779,1,0,0:0:0:0:
256,192,50879,1,2,0:0:0:0:
256,192,51079,1,0,0:0:0:0:
256,192,51479,1,0,0:0:0:0:
256,192,51679,1,0,0:0:0:0:
256,192,51779,1,0,0:0:0:0:
256,192,51879,1,0,0:0:0:0:
256,192,52279,1,2,0:0:0:0:
256,192,52479,1,0,0:0:0:0:
256,192,52679,1,0,0:0:0:0:
256,192,52779,1,0,0:0:0:0:
256,192,52879,1,2,0:0:0:0:
256,192,53279,1,0,0:0:0:0:
256,192,53479,1,2,0:0:0:0:
256,192,53579,1,0,0:0:0:0:
256,192,53679,1,0,0:0:0:0:
256,192,54079,1,2,0:0:0:0:
256,192,54479,1,0,0:0:0:0:
256,192,54679,1,0,0:0:0:0:
256,192,54779,1,2,0:0:0:0:
256,192,54879,1,0,0:0:0:0:
256,192,55079,1,0,0:0:0:0:
256,192,55479,1,2,0:0:0:0:
256,192,55579,1,2,0:0:0:0:
256,192,55679,1,0,0:0:0:0:
256,192,55879,1,2,0:0:0:0:
256,192,56079,1,0,0:0:0:0:
256,192,56179,1,0,0:0:0:0:
256,192,56279,1,0,0:0:0:0:
256,192,56379,1,2,0:0:0:0:
256,192,56479,1,0,0:0:0:0:
256,192,56679,1,2,0:0:0:0:
256,192,56879,1,0,0:0:0:0:
256,192,56979,1,0,0:0:0:0:
256,192,57079,1,2,0:0:0:0:
256,192,57179,1,2,0:0:0:0:
256,192,57279,1,2,0:0:0:0:
256,192,57379,1,2,0:0:0:0:
256,192,57479,1,0,0:0:0:0:
256,192,57679,1,2,0:0:0:0:
256,192,57879,1,0,0:0:0:0:
256,192,57979,1,2,0:0:0:0:
256,192,58179,1,2,0:0:0:0:
256,192,58279,1,2,0:0:0:0:
256,192,58479,1,0,0:0:0:0:
256,192,58879,1,0,0:0:0:0:
256,192,59279,1,6,0:0:0:0:
256,192,59479,1,0,0:0:0:0:
256,192,59579,1,0,0:0:0:0:
256,192,59679,1,2,0:0:0:0:
256,192,59879,1,0,0:0:0:0:
256,192,60079,1,2,0:0:0:0:
256,192,60179,1,2,0:0:0:0:
256,192,60279,1,0,0:0:0:0:
256,192,60379,1,0,0:0:0:0:
256,192,60479,1,2,0:0:0:0:
256,192,60679,1,2,0:0:0:0:
256,192,60779,1,0,0:0:0:0:
256,192,60879,1,0,0:0:0:0:
256,192,61079,1,2,0:0:0:0:
256,192,61279,1,2,0:0:0:0:
256,192,61379,1,2,0:0:0:0:
256,192,61479,1,0,0:0:0:0:
256,192,61579,1,2,0:0:0:0:
256,192,61679,1,0,0:0:0:0:
256,192,61779,1,2,0:0:0:0:
256,192,61879,1,2,0:0:0:0:
256,192,61979,1,0,0:0:0:0:
256,192,62079,1,0,0:0:0:0:
256,192,62279,1,2,0:0:0:0:
256,192,62479,1,0,0:0:0:0:
256,192,62579,1,0,0:0:0:0:
256,192,62679,1,2,0:0:0:0:
256,192,62879,1,0,0:0:0:0:
256,192,63079,1,2,0:0:0:0:
256,192,63179,1,0,0:0:0:0:
256,192,63279,1,2,0:0:0:0:
256,192,63379,1,2,0:0:0:0:
256,192,63479,1,0,0:0:0:0:
256,192,63579,1,2,0:0:0:0:
256,192,63679,1,2,0:0:0:0:
256,192,63779,1,2,0:0:0:0:
256,192,63879,1,0,0:0:0:0:
256,192,64079,1,0,0:0:0:0:
256,192,64279,1,0,0:0:0:0:
256,192,64379,1,0,0:0:0:0:
256,192,64479,1,0,0:0:0:0:
256,192,64879,1,2,0:0:0:0:
256,192,65279,1,4,0:0:0:0:
256,192,65479,1,6,0:0:0:0:
256,192,65679,1,6,0:0:0:0:
256,192,66079,1,4,0:0:0:0:
256,192,66279,1,0,0:0:0:0:
256,192,66379,1,0,0:0:0:0:
256,192,66479,1,2,0:0:0:0:
256,192,66679,1,0,0:0:0:0:
256,192,66879,1,2,0:0:0:0:
256,192,66979,1,2,0:0:0:0:
256,192,67079,1,2,0:0:0:0:
256,192,67179,1,0,0:0:0:0:
256,192,67279,1,0,0:0:0:0:
256,192,67479,1,0,0:0:0:0:
256,192,67579,1,2,0:0:0:0:
256,192,67679,1,0,0:0:0:0:
256,192,67879,1,0,0:0:0:0:
256,192,68079,1,2,0:0:0:0:
256,192,68179,1,0,0:0:0:0:
256,192,68279,1,0,0:0:0:0:
256,192,68379,1,0,0:0:0:0:
256,192,68479,1,2,0:0:0:0:
256,192,68579,1,0,0:0:0:0:
256,192,68679,1,2,0:0:0:0:
256,192,68779,1,2,0:0:0:0:
256,192,68879,1,0,0:0:0:0:
256,192,69079,1,2,0:0:0:0:
256,192,69279,1,0,0:0:0:0:
256,192,69379,1,0,0:0:0:0:
256,192,69479,1,0,0:0:0:0:
256,192,69679,1,2,0:0:0:0:
256,192,69879,1,0,0:0:0:0:
256,192,69979,1,0,0:0:0:0:
256,192,70079,1,2,0:0:0:0:
256,192,70179,1,2,0:0:0:0:
256,192,70279,1,0,0:0:0:0:
256,192,70379,1,2,0:0:0:0:
256,192,70479,1,0,0:0:0:0:
256,192,70679,1,2,0:0:0:0:
256,192,70779,1,2,0:0:0:0:
256,192,70879,1,0,0:0:0:0:
256,192,70979,1,2,0:0:0:0:
256,192,71179,1,2,0:0:0:0:
256,192,71279,1,0,0:0:0:0:
256,192,71379,1,2,0:0:0:0:
256,192,71479,1,2,0:0:0:0:
256,192,71579,1,0,0:0:0:0:
256,192,71679,1,0,0:0:0:0:
256,192,71879,1,0,0:0:0:0:
256,192,72079,1,2,0:0:0:0:
256,192,72279,1,0,0:0:0:0:
256,192,72379,1,0,0:0:0:0:
256,192,72479,1,0,0:0:0:0:
256,192,72679,1,0,0:0:0:0:
256,192,72779,1,0,0:0:0:0:
256,192,72879,1,2,0:0:0:0:
256,192,73079,1,0,0:0:0:0:
256,192,73179,1,0,0:0:0:0:
256,192,73279,1,0,0:0:0:0:
256,192,73479,1,2,0:0:0:0:
256,192,73679,1,2,0:0:0:0:
256,192,73779,1,2,0:0:0:0:
256,192,73879,1,0,0:0:0:0:
256,192,73979,1,2,0:0:0:0:
256,192,74079,1,0,0:0:0:0:
256,192,74179,1,0,0:0:0:0:
256,192,74279,1,2,0:0:0:0:
256,192,74379,1,0,0:0:0:0:
256,192,74479,1,2,0:0:0:0:
256,192,74679,1,0,0:0:0:0:
256,192,74779,1,0,0:0:0:0:
256,192,74879,1,0,0:0:0:0:
256,192,75279,1,0,0:0:0:0:
256,192,75479,1,2,0:0:0:0:
256,192,75579,1,2,0:0:0:0:
256,192,75679,1,2,0:0:0:0:
256,192,75879,1,2,0:0:0:0:
256,192,75979,1,2,0:0:0:0:
256,192,76079,1,0,0:0:0:0:
256,192,76279,1,2,0:0:0:0:
256,192,76379,1,2,0:0:0:0:
256,192,76479,1,2,0:0:0:0:
256,192,76679,1,0,0:0:0:0:
256,192,76879,1,0,0:0:0:0:
256,192,76979,1,0,0:0:0:0:
256,192,77079,1,2,0:0:0:0:
256,192,77179,1,0,0:0:0:0:
256,192,77279,1,2,0:0:0:0:
256,192,77379,1,2,0:0:0:0:
256,192,77479,1,0,0:0:0:0:
256,192,77579,1,2,0:0:0:0:
256,192,77679,1,0,0:0:0:0:
256,192,77879,1,2,0:0:0:0:
256,192,77979,1,2,0:0:0:0:
256,192,78079,1,2,0:0:0:0:
256,192,78279,1,0,0:0:0:0:
256,192,78479,1,0,0:0:0:0:
256,192,78579,1,0,0:0:0:0:
256,192,78679,1,2,0:0:0:0:
256,192,78879,1,2,0:0:0:0:
256,192,78979,1,2,0:0:0:0:
256,192,79079,1,0,0:0:0:0:
256,192,79179,1,0,0:0:0:0:
256,192,79279,1,2,0:0:0:0:
256,192,79479,1,2,0:0:0:0:
256,192,79679,1,0,0:0:0:0:
256,192,79879,1,2,0:0:0:0:
256,192,79979,1,2,0:0:0:0:
256,192,80079,1,0,0:0:0:0:
256,192,80279,1,0,0:0:0:0:
256,192,80379,1,0,0:0:0:0:
256,192,80479,1,2,0:0:0:0:
256,192,80579,1,2,0:0:0:0:
256,192,80679,1,0,0:0:0:0:
256,192,80779,1,2,0:0:0:0:
256,192,80879,1,0,0:0:0:0:
256,192,80979,1,0,0:0:0:0:
256,192,81079,1,0,0:0:0:0:
256,192,81279,1,2,0:0:0:0:
256,192,81479,1,0,0:0:0:0:
256,192,81679,1,4,0:0:0:0:
256,192,81879,1,4,0:0:0:0:
256,192,82279,1,6,0:0:0:0:
256,192,82679,1,4,0:0:0:0:
256,192,83079,1,6,0:0:0:0:
256,192,83279,1,2,0:0:0:0:
256,192,83379,1,2,0:0:0:0:
256,192,83479,1,2,0:0:0:0:
256,192,83579,1,2,0:0:0:0:
256,192,83679,1,2,0:0:0:0:
256,192,83779,1,2,0:0:0:0:
256,192,83879,1,2,0:0:0:0:
256,192,83979,1,2,0:0:0:0:
256,192,84079,1,2,0:0:0:0:
256,192,84479,1,0,0:0:0:0:
256,192,84879,1,2,0:0:0:0:
256,192,84979,1,2,0:0:0:0:
256,192,85079,1,0,0:0:0:0:
256,192,85279,1,2,0:0:0:0:
256,192,85379,1,2,0:0:0:0:
256,192,85479,1,0,0:0:0:0:
256,192,85679,1,2,0:0:0:0:
256,192,85779,1,2,0:0:0:0:
256,192,85979,1,0,0:0:0:0:
256,192,86079,1,2,0:0:0:0:
256,192,86179,1,0,0:0:0:0:
256,192,86279,1,2,0:0:0:0:
256,192,86379,1,0,0:0:0:0:
256,192,86479,1,2,0:0:0:0:
256,192,86579,1,2,0:0:0:0:
256,192,86679,1,0,0:0:0:0:
256,192,86879,1,2,0:0:0:0:
256,192,86979,1,2,0:0:0:0:
256,192,87079,1,0,0:0:0:0:
256,192,87279,1,2,0:0:0:0:
256,192,87379,1,0,0:0:0:0:
256,192,87579,1,0,0:0:0:0:
256,192,87679,1,2,0:0:0:0:
256,192,87779,1,2,0:0:0:0:
256,192,87879,1,0,0:0:0:0:
256,192,87979,1,0,0:0:0:0:
256,192,88079,1,2,0:0:0:0:
256,192,88179,1,2,0:0:0:0:
256,192,88279,1,0,0:0:0:0:
256,192,88479,1,2,0:0:0:0:
256,192,88579,1,0,0:0:0:0:
256,192,88779,1,0,0:0:0:0:
256,192,88979,1,0,0:0:0:0:
256,192,89079,1,2,0:0:0:0:
256,192,89179,1,0,0:0:0:0:
256,192,89279,1,2,0:0:0:0:
256,192,89379,1,2,0:0:0:0:
256,192,89479,1,0,0:0:0:0:
256,192,89679,1,2,0:0:0:0:
256,192,89779,1,2,0:0:0:0:
256,192,89879,1,0,0:0:0:0:
256,192,89979,1,0,0:0:0:0:
256,192,90079,1,2,0:0:0:0:
256,192,90179,1,0,0:0:0:0:
256,192,90279,1,0,0:0:0:0:
256,192,90379,1,0,0:0:0:0:
256,192,90479,1,2,0:0:0:0:
256,192,90579,1,0,0:0:0:0:
256,192,90679,1,2,0:0:0:0:
256,192,90779,1,2,0:0:0:0:
256,192,90879,1,0,0:0:0:0:
256,192,90979,1,0,0:0:0:0:
256,192,91079,1,2,0:0:0:0:
256,192,91179,1,0,0:0:0:0:
256,192,91279,1,2,0:0:0:0:
256,192,91379,1,2,0:0:0:0:
256,192,91479,1,0,0:0:0:0:
256,192,91679,1,2,0:0:0:0:
256,192,91779,1,2,0:0:0:0:
256,192,91879,1,0,0:0:0:0:
256,192,92079,1,2,0:0:0:0:
256,192,92179,1,2,0:0:0:0:
256,192,92379,1,0,0:0:0:0:
256,192,92479,1,2,0:0:0:0:
256,192,92579,1,0,0:0:0:0:
256,192,92679,1,2,0:0:0:0:
256,192,92779,1,0,0:0:0:0:
256,192,92879,1,2,0:0:0:0:
256,192,92979,1,2,0:0:0:0:
256,192,93079,1,0,0:0:0:0:
256,192,93279,1,2,0:0:0:0:
256,192,93379,1,2,0:0:0:0:
256,192,93479,1,0,0:0:0:0:
256,192,93679,1,2,0:0:0:0:
256,192,93779,1,0,0:0:0:0:
256,192,93979,1,0,0:0:0:0:
256,192,94079,1,2,0:0:0:0:
256,192,94179,1,2,0:0:0:0:
256,192,94279,1,0,0:0:0:0:
256,192,94379,1,0,0:0:0:0:
256,192,94479,1,2,0:0:0:0:
256,192,94579,1,2,0:0:0:0:
256,192,94679,1,0,0:0:0:0:
256,192,94879,1,2,0:0:0:0:
256,192,94979,1,2,0:0:0:0:
256,192,95179,1,0,0:0:0:0:
256,192,95279,1,0,0:0:0:0:
256,192,95479,1,2,0:0:0:0:
256,192,95579,1,0,0:0:0:0:
256,192,95679,1,0,0:0:0:0:
256,192,95779,1,2,0:0:0:0:
256,192,95879,1,0,0:0:0:0:
256,192,96079,1,0,0:0:0:0:
256,192,96179,1,0,0:0:0:0:
256,192,96279,1,2,0:0:0:0:
256,192,96479,1,0,0:0:0:0:
256,192,96579,1,2,0:0:0:0:
256,192,96679,1,2,0:0:0:0:
256,192,96879,1,2,0:0:0:0:
256,192,96979,1,2,0:0:0:0:
256,192,97079,1,0,0:0:0:0:
256,192,97279,1,2,0:0:0:0:
256,192,97639,1,0,0:0:0:0:
256,192,97739,1,0,0:0:0:0:
256,192,97839,1,2,0:0:0:0:
256,192,97939,1,2,0:0:0:0:
256,192,98039,1,0,0:0:0:0:
256,192,98139,1,2,0:0:0:0:
256,192,98239,1,0,0:0:0:0:
256,192,98339,1,2,0:0:0:0:
256,192,98539,1,2,0:0:0:0:
256,192,98639,1,0,0:0:0:0:
256,192,98739,1,2,0:0:0:0:
256,192,98839,1,2,0:0:0:0:
256,192,98939,1,0,0:0:0:0:
256,192,99039,1,2,0:0:0:0:
256,192,99139,1,0,0:0:0:0:
256,192,99439,1,4,0:0:0:0:
256,192,99639,12,0,102439,0:0:0:0:
