osu file format v14

[General]
AudioFilename: audio.mp3
AudioLeadIn: 0
PreviewTime: 58479
Countdown: 0
SampleSet: Normal
StackLeniency: 0.7
Mode: 1
LetterboxInBreaks: 0
WidescreenStoryboard: 1

[Editor]
DistanceSpacing: 1
BeatDivisor: 4
GridSize: 32
TimelineZoom: 2.1

[Metadata]
Title:Beat in Angel
TitleUnicode:Beat in Angel
Artist:Hoshizora Rin (CV: Iida Riho) & Nishikino Maki (CV: Pile)
ArtistUnicode:星空凛 (CV: 飯田里穂) & 西木野真姫 (CV: Pile)
Creator:GOD82028
Version:Futsuu
Source:ラブライブ! School idol project
Tags:Lantis Love Live! festival eurobeat anime video game japanese μ's u's muse 堀絵梨子 Hori Eriko 倉内達矢 Kurauchi Tatsuya 畑亜貴 Hata Aki バンダイビジュアル Bandai Visual
BeatmapID:2193093
BeatmapSetID:1049281

[Difficulty]
HPDrainRate:7
CircleSize:3
OverallDifficulty:4
ApproachRate:3
SliderMultiplier:1.4
SliderTickRate:1

[Events]
//Background and Video events
0,0,"nrpfHTd.jpg",0,70
//Break Periods
//Storyboard Layer 0 (Background)
//Storyboard Layer 1 (Fail)
//Storyboard Layer 2 (Pass)
//Storyboard Layer 3 (Foreground)
//Storyboard Layer 4 (Overlay)
//Storyboard Sound Samples

[TimingPoints]
3279,400,4,1,0,85,1,0
16079,-100,4,1,0,75,0,0
32079,-100,4,1,0,80,0,0
59279,-100,4,1,0,95,0,1
84879,-100,4,1,0,85,0,0
97639,400,4,1,0,85,1,0
99639,-100,4,1,0,75,0,0

[HitObjects]
256,192,812,5,4,0:0:0:0:
256,192,2479,1,0,0:0:0:0:
256,192,2679,1,0,0:0:0:0:
256,192,2879,1,0,0:0:0:0:
256,192,3079,1,0,0:0:0:0:
256,192,3279,1,2,0:0:0:0:
256,192,3679,1,0,0:0:0:0:
256,192,4079,1,2,0:0:0:0:
256,192,4279,1,2,0:0:0:0:
256,192,4479,1,0,0:0:0:0:
256,192,4879,1,2,0:0:0:0:
256,192,5279,1,0,0:0:0:0:
256,192,5679,1,2,0:0:0:0:
256,192,5879,1,0,0:0:0:0:
256,192,6079,1,0,0:0:0:0:
256,192,6479,1,2,0:0:0:0:
256,192,6879,1,0,0:0:0:0:
256,192,7279,1,0,0:0:0:0:
256,192,7479,1,2,0:0:0:0:
256,192,7679,1,0,0:0:0:0:
256,192,8079,1,0,0:0:0:0:
256,192,8279,1,0,0:0:0:0:
256,192,8479,1,2,0:0:0:0:
256,192,8679,1,2,0:0:0:0:
256,192,8879,1,0,0:0:0:0:
256,192,9679,1,2,0:0:0:0:
256,192,10079,1,0,0:0:0:0:
256,192,10479,1,2,0:0:0:0:
256,192,10679,1,2,0:0:0:0:
256,192,10879,1,0,0:0:0:0:
256,192,11279,1,2,0:0:0:0:
256,192,11679,1,0,0:0:0:0:
256,192,12079,1,2,0:0:0:0:
256,192,12279,1,0,0:0:0:0:
256,192,12479,1,0,0:0:0:0:
256,192,12879,1,2,0:0:0:0:
256,192,13279,1,0,0:0:0:0:
256,192,13679,1,0,0:0:0:0:
256,192,13879,1,2,0:0:0:0:
256,192,14079,1,0,0:0:0:0:
256,192,14479,1,0,0:0:0:0:
256,192,14679,1,0,0:0:0:0:
256,192,14879,1,2,0:0:0:0:
256,192,15279,1,0,0:0:0:0:
256,192,15479,1,2,0:0:0:0:
256,192,15679,1,2,0:0:0:0:
256,192,16079,1,0,0:0:0:0:
256,192,16879,1,0,0:0:0:0:
256,192,17679,1,0,0:0:0:0:
256,192,18479,1,6,0:0:0:0:
256,192,18879,1,6,0:0:0:0:
256,192,19279,1,4,0:0:0:0:
256,192,19679,1,2,0:0:0:0:
256,192,20079,1,0,0:0:0:0:
256,192,20679,1,2,0:0:0:0:
256,192,21079,1,2,0:0:0:0:
256,192,21279,1,0,0:0:0:0:
256,192,21679,1,2,0:0:0:0:
256,192,22079,1,2,0:0:0:0:
256,192,22479,1,0,0:0:0:0:
256,192,22879,1,2,0:0:0:0:
256,192,23279,1,0,0:0:0:0:
256,192,23879,1,2,0:0:0:0:
256,192,24279,1,0,0:0:0:0:
256,192,24479,1,0,0:0:0:0:
256,192,24879,1,0,0:0:0:0:
256,192,25679,1,2,0:0:0:0:
256,192,26079,1,0,0:0:0:0:
256,192,26479,1,2,0:0:0:0:
256,192,26879,1,0,0:0:0:0:
256,192,27279,1,2,0:0:0:0:
256,192,27479,1,0,0:0:0:0:
256,192,27679,1,2,0:0:0:0:
256,192,28079,1,2,0:0:0:0:
256,192,28279,1,0,0:0:0:0:
256,192,28479,1,2,0:0:0:0:
256,192,28879,1,0,0:0:0:0:
256,192,29279,1,2,0:0:0:0:
256,192,29479,1,2,0:0:0:0:
256,192,30479,1,0,0:0:0:0:
256,192,30879,1,2,0:0:0:0:
256,192,31079,1,0,0:0:0:0:
256,192,31479,1,0,0:0:0:0:
256,192,31679,1,0,0:0:0:0:
256,192,31879,1,2,0:0:0:0:
256,192,32279,1,0,0:0:0:0:
256,192,32479,1,2,0:0:0:0:
256,192,32679,1,0,0:0:0:0:
256,192,32879,1,2,0:0:0:0:
256,192,33279,1,2,0:0:0:0:
256,192,33479,1,0,0:0:0:0:
256,192,33679,1,2,0:0:0:0:
256,192,34079,1,2,0:0:0:0:
256,192,34279,1,2,0:0:0:0:
256,192,34679,1,0,0:0:0:0:
256,192,34879,1,0,0:0:0:0:
256,192,35079,1,2,0:0:0:0:
256,192,35479,1,0,0:0:0:0:
256,192,35679,1,2,0:0:0:0:
256,192,35879,1,0,0:0:0:0:
256,192,36079,1,2,0:0:0:0:
256,192,36479,1,2,0:0:0:0:
256,192,36679,1,0,0:0:0:0:
256,192,36879,1,2,0:0:0:0:
256,192,37279,1,0,0:0:0:0:
256,192,38079,1,0,0:0:0:0:
256,192,38279,1,2,0:0:0:0:
256,192,38679,1,0,0:0:0:0:
256,192,38879,1,0,0:0:0:0:
256,192,39079,1,0,0:0:0:0:
256,192,39479,1,0,0:0:0:0:
256,192,39679,1,2,0:0:0:0:
256,192,39879,1,2,0:0:0:0:
256,192,40279,1,0,0:0:0:0:
256,192,40479,1,0,0:0:0:0:
256,192,40879,1,2,0:0:0:0:
256,192,41279,1,2,0:0:0:0:
256,192,41479,1,2,0:0:0:0:
256,192,41879,1,0,0:0:0:0:
256,192,42279,1,0,0:0:0:0:
256,192,42479,1,0,0:0:0:0:
256,192,42879,1,0,0:0:0:0:
256,192,43079,1,2,0:0:0:0:
256,192,43479,1,4,0:0:0:0:
256,192,43679,1,4,0:0:0:0:
256,192,44079,1,6,0:0:0:0:
256,192,44879,1,2,0:0:0:0:
256,192,45079,1,0,0:0:0:0:
256,192,45279,1,2,0:0:0:0:
256,192,45679,1,0,0:0:0:0:
256,192,46079,1,2,0:0:0:0:
256,192,46479,1,2,0:0:0:0:
256,192,46679,1,0,0:0:0:0:
256,192,46879,1,2,0:0:0:0:
256,192,47279,1,0,0:0:0:0:
256,192,47679,1,0,0:0:0:0:
256,192,48079,1,0,0:0:0:0:
256,192,48279,1,2,0:0:0:0:
256,192,48479,1,0,0:0:0:0:
256,192,48879,1,2,0:0:0:0:
256,192,49279,1,2,0:0:0:0:
256,192,49679,1,0,0:0:0:0:
256,192,49879,1,0,0:0:0:0:
256,192,50279,1,2,0:0:0:0:
256,192,50679,1,0,0:0:0:0:
256,192,51079,1,0,0:0:0:0:
256,192,51479,1,2,0:0:0:0:
256,192,51679,1,2,0:0:0:0:
256,192,51879,1,0,0:0:0:0:
256,192,52679,1,0,0:0:0:0:
256,192,52879,1,2,0:0:0:0:
256,192,53279,1,0,0:0:0:0:
256,192,53479,1,0,0:0:0:0:
256,192,54479,1,0,0:0:0:0:
256,192,54879,1,2,0:0:0:0:
256,192,55079,1,0,0:0:0:0:
256,192,55479,1,2,0:0:0:0:
256,192,55879,1,0,0:0:0:0:
256,192,56279,1,2,0:0:0:0:
256,192,56479,2,0,L|320:192,8,35
256,192,57679,1,6,0:0:0:0:
256,192,57979,1,6,0:0:0:0:
256,192,58279,1,6,0:0:0:0:
256,192,58479,1,0,0:0:0:0:
256,192,59279,1,6,0:0:0:0:
256,192,59679,2,0,L|320:192,8,35
256,192,60879,1,0,0:0:0:0:
256,192,61279,1,2,0:0:0:0:
256,192,61479,1,2,0:0:0:0:
256,192,61679,1,0,0:0:0:0:
256,192,62079,1,0,0:0:0:0:
256,192,62279,1,2,0:0:0:0:
256,192,62679,1,2,0:0:0:0:
256,192,63079,1,0,0:0:0:0:
256,192,63479,1,2,0:0:0:0:
256,192,63679,1,2,0:0:0:0:
256,192,63879,1,0,0:0:0:0:
256,192,64279,1,0,0:0:0:0:
256,192,64479,1,0,0:0:0:0:
256,192,65279,1,4,0:0:0:0:
256,192,65479,1,6,0:0:0:0:
256,192,65679,1,6,0:0:0:0:
256,192,66079,2,0,L|320:192,8,35
256,192,67279,1,2,0:0:0:0:
256,192,67479,1,0,0:0:0:0:
256,192,67679,1,0,0:0:0:0:
256,192,68079,1,2,0:0:0:0:
256,192,68279,1,0,0:0:0:0:
256,192,68679,1,2,0:0:0:0:
256,192,69079,1,2,0:0:0:0:
256,192,69479,1,0,0:0:0:0:
256,192,69679,1,2,0:0:0:0:
256,192,69879,1,2,0:0:0:0:
256,192,70279,1,0,0:0:0:0:
256,192,70679,1,2,0:0:0:0:
256,192,70879,1,2,0:0:0:0:
256,192,71679,1,0,0:0:0:0:
256,192,72079,1,2,0:0:0:0:
256,192,72279,1,0,0:0:0:0:
256,192,72479,1,0,0:0:0:0:
256,192,72879,1,2,0:0:0:0:
256,192,73079,1,0,0:0:0:0:
256,192,73279,1,2,0:0:0:0:
256,192,73679,1,0,0:0:0:0:
256,192,73879,1,2,0:0:0:0:
256,192,74079,1,0,0:0:0:0:
256,192,74479,1,2,0:0:0:0:
256,192,74879,1,0,0:0:0:0:
256,192,75279,1,0,0:0:0:0:
256,192,75479,1,2,0:0:0:0:
256,192,75679,1,2,0:0:0:0:
256,192,76079,1,0,0:0:0:0:
256,192,76279,1,2,0:0:0:0:
256,192,76479,1,0,0:0:0:0:
256,192,76879,1,2,0:0:0:0:
256,192,77079,1,0,0:0:0:0:
256,192,77279,1,2,0:0:0:0:
256,192,77679,1,2,0:0:0:0:
256,192,78479,1,0,0:0:0:0:
256,192,78879,1,2,0:0:0:0:
256,192,79079,1,0,0:0:0:0:
256,192,79479,1,2,0:0:0:0:
256,192,79879,1,2,0:0:0:0:
256,192,80279,1,0,0:0:0:0:
256,192,80479,1,2,0:0:0:0:
256,192,80679,1,0,0:0:0:0:
256,192,80879,1,0,0:0:0:0:
256,192,81279,1,2,0:0:0:0:
256,192,81679,1,4,0:0:0:0:
256,192,81879,1,4,0:0:0:0:
256,192,82279,1,6,0:0:0:0:
256,192,82679,1,4,0:0:0:0:
256,192,83079,2,0,L|320:192,8,35
256,192,84079,1,2,0:0:0:0:
256,192,84879,1,2,0:0:0:0:
256,192,85279,1,0,0:0:0:0:
256,192,85679,1,2,0:0:0:0:
256,192,85879,1,2,0:0:0:0:
256,192,86079,1,0,0:0:0:0:
256,192,86479,1,2,0:0:0:0:
256,192,86879,1,0,0:0:0:0:
256,192,87279,1,2,0:0:0:0:
256,192,87479,1,0,0:0:0:0:
256,192,87679,1,0,0:0:0:0:
256,192,88079,1,2,0:0:0:0:
256,192,88479,1,0,0:0:0:0:
256,192,88879,1,0,0:0:0:0:
256,192,89079,1,2,0:0:0:0:
256,192,89279,1,0,0:0:0:0:
256,192,89679,1,0,0:0:0:0:
256,192,89879,1,0,0:0:0:0:
256,192,90079,1,2,0:0:0:0:
256,192,90279,1,2,0:0:0:0:
256,192,90479,1,0,0:0:0:0:
256,192,91279,1,2,0:0:0:0:
256,192,91679,1,0,0:0:0:0:
256,192,92079,1,2,0:0:0:0:
256,192,92279,1,2,0:0:0:0:
256,192,92479,1,0,0:0:0:0:
256,192,92879,1,2,0:0:0:0:
256,192,93279,1,0,0:0:0:0:
256,192,93679,1,2,0:0:0:0:
256,192,93879,1,0,0:0:0:0:
256,192,94079,1,0,0:0:0:0:
256,192,94479,1,2,0:0:0:0:
256,192,94879,1,0,0:0:0:0:
256,192,95279,1,0,0:0:0:0:
256,192,95479,1,2,0:0:0:0:
256,192,95679,1,0,0:0:0:0:
256,192,96079,1,0,0:0:0:0:
256,192,96279,1,0,0:0:0:0:
256,192,96479,1,2,0:0:0:0:
256,192,96879,1,0,0:0:0:0:
256,192,97639,1,0,0:0:0:0:
256,192,98039,1,2,0:0:0:0:
256,192,98339,1,0,0:0:0:0:
256,192,98639,1,2,0:0:0:0:
256,192,99039,1,0,0:0:0:0:
256,192,99439,1,4,0:0:0:0:
256,192,99639,12,0,102439,0:0:0:0:
