osu file format v14

[General]
AudioFilename: audio.mp3
AudioLeadIn: 0
PreviewTime: 67103
Countdown: 0
SampleSet: Soft
StackLeniency: 0.5
Mode: 0
LetterboxInBreaks: 0
WidescreenStoryboard: 0

[Editor]
DistanceSpacing: 1
BeatDivisor: 4
GridSize: 8
TimelineZoom: 2.2

[Metadata]
Title:Private Sky
TitleUnicode:Private Sky
Artist:Hoshizaki Iria
ArtistUnicode:Hoshizaki Iria
Creator:Lazer
Version:Habane Kotori
Source:
Tags:
BeatmapID:1681041
BeatmapSetID:800736

[Difficulty]
HPDrainRate:6
CircleSize:4
OverallDifficulty:8
ApproachRate:9
SliderMultiplier:1.7
SliderTickRate:1

[Events]
//Background and Video events
0,0,"9f34d00af6d471b31e046eb53d28b3b8.jpg",0,0
//Break Periods
//Storyboard Layer 0 (Background)
//Storyboard Layer 1 (Fail)
//Storyboard Layer 2 (Pass)
//Storyboard Layer 3 (Foreground)
//Storyboard Sound Samples

[TimingPoints]
435,370.37037037037,4,2,3,40,1,0
6360,-83.3333333333333,4,2,4,50,0,0
8583,-83.3333333333333,4,3,6,50,0,0
8768,-83.3333333333333,4,2,4,50,0,0
17286,-83.3333333333333,4,2,2,50,0,0
18212,-133.333333333333,4,2,3,40,0,0
21175,-133.333333333333,4,2,10,40,0,0
21268,-133.333333333333,4,2,3,40,0,0
39694,-133.333333333333,4,2,4,40,0,0
40249,-133.333333333333,4,2,2,70,0,0
41175,-133.333333333333,4,2,6,70,0,0
41268,-133.333333333333,4,2,4,70,0,0
44879,-133.333333333333,4,2,10,70,0,0
44972,-133.333333333333,4,2,4,70,0,0
53768,-90.9090909090909,4,2,2,60,0,0
59694,-133.333333333333,4,2,3,40,0,0
60434,-133.333333333333,4,2,4,60,0,0
61175,-133.333333333333,4,2,6,60,0,0
61916,-133.333333333333,4,2,9,50,0,0
62009,-133.333333333333,4,2,4,60,0,0
62657,-90.9090909090909,4,2,2,70,0,0
66364,-166.666666666667,4,2,3,70,0,0
66731,-83.3333333333333,4,2,0,40,0,0
67101,-83.3333333333333,4,3,5,70,0,1
76731,-83.3333333333333,4,2,6,70,0,1
76823,-83.3333333333333,4,3,5,70,0,1
77472,-83.3333333333333,4,2,9,70,0,1
77564,-83.3333333333333,4,3,5,70,0,1
78953,-83.3333333333333,4,1,4,70,0,1
79046,-83.3333333333333,4,3,5,70,0,1
85620,-83.3333333333333,4,3,9,70,0,1
85712,-83.3333333333333,4,3,5,70,0,1
86360,-83.3333333333333,4,3,9,70,0,1
86453,-83.3333333333333,4,3,5,70,0,1
87101,-83.3333333333333,4,3,6,70,0,1
87194,-83.3333333333333,4,3,5,70,0,1
90805,-83.3333333333333,4,1,4,70,0,0
90897,-83.3333333333333,4,2,4,70,0,0
100805,-100,4,2,0,60,0,0
103583,-100,4,2,2,60,0,0
124879,-90.9090909090909,4,2,0,60,0,0
125620,-90.9090909090909,4,2,6,60,0,0
125990,-90.9090909090909,4,2,9,60,0,0
126731,-90.9090909090909,4,2,2,60,0,0
153027,-83.3333333333333,4,3,5,70,0,1
162657,-83.3333333333333,4,2,6,70,0,1
162749,-83.3333333333333,4,3,5,70,0,1
163397,-83.3333333333333,4,2,9,70,0,1
163490,-83.3333333333333,4,3,5,70,0,1
164879,-83.3333333333333,4,1,4,70,0,1
164972,-83.3333333333333,4,3,5,70,0,1
172286,-83.3333333333333,4,3,9,70,0,1
172379,-83.3333333333333,4,3,5,70,0,1
173027,-83.3333333333333,4,3,9,70,0,1
173212,-83.3333333333333,4,3,5,70,0,1
173768,-83.3333333333333,4,3,6,70,0,1
173860,-83.3333333333333,4,3,5,70,0,1
175990,-83.3333333333333,4,3,6,70,0,1
176083,-83.3333333333333,4,3,6,60,0,1
176731,-83.3333333333333,4,3,5,70,0,0
195249,-83.3333333333333,4,3,9,70,0,0
195342,-83.3333333333333,4,3,5,70,0,0
195990,-83.3333333333333,4,3,9,70,0,0
196083,-83.3333333333333,4,3,5,70,0,0
196731,-83.3333333333333,4,3,6,70,0,0
196823,-83.3333333333333,4,3,5,70,0,0
200434,-71.4285714285714,4,1,4,70,0,1
200620,-71.4285714285714,4,3,5,70,0,1
204138,-83.3333333333333,4,3,5,70,0,1
212286,-71.4285714285714,4,3,5,70,0,0
221175,-83.3333333333333,4,2,4,70,0,0
221916,-83.3333333333333,4,3,5,70,0,0
224138,-83.3333333333333,4,1,4,70,0,0
224231,-83.3333333333333,4,2,4,60,0,0
226360,-83.3333333333333,4,2,6,60,0,0
226453,-83.3333333333333,4,2,4,60,0,0
227101,-83.3333333333333,4,3,9,60,0,0
227194,-83.3333333333333,4,2,4,60,0,0
232286,-83.3333333333333,4,2,6,60,0,0
232379,-83.3333333333333,4,3,5,60,0,0
234509,-83.3333333333333,4,3,5,40,0,0
237101,-83.3333333333333,4,3,5,30,0,0
237842,-83.3333333333333,4,3,5,20,0,0
238583,-83.3333333333333,4,3,5,10,0,0
238953,-83.3333333333333,4,3,5,5,0,0

[Colours]
Combo1 : 143,35,35
Combo2 : 135,9,162
Combo3 : 14,146,142

[HitObjects]
218,384,435,5,2,0:0:0:0:
171,323,620,1,0,0:0:0:0:
199,252,805,1,0,0:0:0:0:
274,241,990,2,0,B|328:262|328:262|441:231,1,170,8|0,0:0|0:0,0:0:0:0:
331,180,1546,1,2,0:0:0:0:
510,285,1731,6,0,P|525:205|467:147,1,170,8|0,0:0|0:0,0:0:0:0:
387,119,2286,1,2,0:0:0:0:
387,119,2472,1,0,0:0:0:0:
208,41,2657,2,0,P|220:84|222:132,1,85,2|0,0:0|0:0,0:0:0:0:
225,208,3027,2,0,P|225:252|214:299,1,85,2|0,0:0|0:0,0:0:0:0:
17,142,3397,6,0,P|95:113|154:181,1,170,8|0,0:0|0:0,0:0:0:0:
67,353,3953,2,0,P|54:270|77:189,1,170,8|0,0:0|0:0,0:0:0:0:
151,167,4509,1,2,0:0:0:0:
140,311,4694,6,0,B|196:288|196:288|325:317,1,170,8|0,0:0|0:0,0:0:0:0:
150,166,5249,2,0,P|142:140|137:112,2,56.6666666666667,8|0|0,0:0|0:0|0:0,0:0:0:0:
217,71,5620,2,0,P|222:43|232:16,2,56.6666666666667
303,190,5990,2,0,P|294:163|289:135,2,56.6666666666667
338,291,6360,6,8,P|276:297|224:263,1,101.999996887207,8|0,3:2|0:0,0:0:0:0:
54,156,6731,2,0,P|116:149|168:184,1,101.999996887207,2|0,0:0|0:0,0:0:0:0:
92,257,7101,1,2,0:0:0:0:
209,75,7286,1,0,0:0:0:0:
190,235,7472,1,2,0:0:0:0:
190,235,7657,6,0,L|203:351,1,101.999996887207,2|8,3:2|0:3,0:0:0:0:
259,101,8027,2,0,L|247:0,1,101.999996887207,2|0,0:0|0:0,0:0:0:0:
110,163,8397,1,2,0:0:0:0:
190,235,8583,1,2,0:0:0:0:
167,98,8768,1,0,0:0:0:0:
53,228,8953,2,0,L|122:307,1,101.999996887207,2|8,0:0|0:3,0:0:0:0:
280,262,9323,6,0,P|256:168|155:148,1,203.999993774414,2|0,0:0|0:0,0:0:0:0:
190,235,9879,1,2,0:0:0:0:
348,146,10064,2,0,P|365:199|371:245,1,101.999996887207,2|0,0:0|0:0,0:0:0:0:
376,325,10435,1,0,0:0:0:0:
280,262,10620,1,8,0:3:0:0:
440,151,10805,6,0,P|466:102|459:46,1,101.999996887207,8|0,0:3|0:0,0:0:0:0:
226,194,11175,2,0,P|204:224|195:260,2,67.9999979248048
118,293,11546,2,0,P|114:330|125:365,2,67.9999979248048
40,260,11916,2,0,P|31:223|9:193,2,67.9999979248048
104,117,12286,5,4,0:0:0:0:
104,117,12657,2,0,P|123:70|124:19,1,101.999996887207,2|0,0:0|0:0,0:0:0:0:
203,134,13027,2,0,P|239:169|286:188,1,101.999996887207,2|0,0:0|0:0,0:0:0:0:
385,213,13397,1,2,0:0:0:0:
161,213,13583,6,0,P|125:249|106:296,1,101.999996887207,2|8,3:2|0:3,0:0:0:0:
331,296,13953,2,0,P|366:259|385:212,1,101.999996887207,2|0,0:0|0:0,0:0:0:0:
369,107,14323,1,2,0:0:0:0:
286,188,14509,1,10,0:0:0:0:
467,131,14693,1,0,0:0:0:0:
383,212,14879,1,2,0:0:0:0:
54,42,15249,6,0,P|-13:114|0:212,1,203.999993774414,2|0,0:0|0:0,0:0:0:0:
81,274,15805,1,0,0:0:0:0:
183,261,15990,2,0,P|243:183|221:87,1,203.999993774414
116,151,16546,1,8,0:3:0:0:
149,360,16731,5,8,0:3:0:0:
148,360,16916,1,0,0:0:0:0:
231,301,17101,1,4,0:0:0:0:
331,291,17286,1,8,0:0:0:0:
424,331,17471,1,0,0:0:0:0:
395,139,17657,1,0,0:0:0:0:
384,238,17842,1,0,0:0:0:0:
424,331,18027,1,0,0:0:0:0:
469,88,18212,6,0,P|380:49|308:114,1,191.250007295609,4|0,0:0|0:0,0:0:0:0:
263,165,18953,2,0,P|270:192|272:252,1,63.7500024318696,2|0,0:0|0:0,0:0:0:0:
335,276,19323,2,0,P|328:303|326:363,1,63.7500024318696
114,71,19694,6,0,L|261:96,1,127.500004863739,2|0,0:0|0:0,0:0:0:0:
42,114,20249,1,0,0:0:0:0:
80,238,20434,2,0,P|89:207|92:175,1,63.7500024318696,2|0,0:0|0:0,0:0:0:0:
29,37,20805,1,2,3:2:0:0:
29,37,20990,6,0,L|176:62,1,127.500004863739,2|0,3:2|0:0,0:0:0:0:
194,143,21546,2,0,B|259:102|242:35|242:35|265:100|374:90,1,255.000009727478
346,91,22657,5,2,0:0:0:0:
419,46,23027,1,8,0:0:0:0:
419,46,23212,1,8,0:0:0:0:
492,91,23583,5,2,0:0:0:0:
419,136,23953,1,8,0:3:0:0:
419,136,24138,2,0,P|431:182|428:264,1,127.500004863739,10|0,0:3|0:0,0:0:0:0:
390,332,24694,1,0,0:0:0:0:
315,361,24879,2,0,P|311:330|318:297,1,63.7500024318696
241,276,25249,2,0,L|178:289,1,63.7500024318696,2|0,0:0|0:0,0:0:0:0:
283,94,25620,6,0,P|298:157|296:220,1,127.500004863739,2|2,0:0|0:0,0:0:0:0:
296,220,26175,1,2,0:0:0:0:
372,130,26360,2,0,L|456:142,1,63.7500024318696,0|2,0:0|0:0,0:0:0:0:
510,124,26731,1,0,0:0:0:0:
393,209,26916,1,8,0:3:0:0:
393,209,27101,6,0,P|378:271|380:334,1,127.500004863739,8|0,0:3|0:0,0:0:0:0:
312,377,27657,2,0,P|288:362|241:361,1,63.7500024318696
197,301,28027,2,0,P|168:300|127:322,1,63.7500024318696
68,355,28397,1,2,0:0:0:0:
68,355,28490,1,2,0:0:0:0:
68,355,28583,1,2,0:0:0:0:
32,98,28953,5,2,0:0:0:0:
129,53,29138,1,0,0:0:0:0:
112,172,29323,2,0,P|117:211|131:246,1,63.7500024318696,2|0,0:0|0:0,0:0:0:0:
240,62,29694,2,0,P|235:23|221:-12,1,63.7500024318696
39,269,30064,6,0,P|103:279|176:332,1,127.500004863739,8|0,0:3|0:0,0:0:0:0:
211,368,30805,1,8,0:0:0:0:
243,258,31175,6,0,B|317:216|382:281|382:371|323:368|265:354|284:299,1,255.000009727478,8|0,0:1|0:0,0:0:0:0:
281,317,32286,5,0,0:0:0:0:
344,266,32472,1,0,0:0:0:0:
333,186,32657,1,0,0:0:0:0:
404,151,32843,1,0,0:0:0:0:
473,115,33027,6,0,P|408:104|335:51,1,127.500004863739,8|0,0:3|0:0,0:0:0:0:
301,16,33768,1,8,0:0:0:0:
269,126,34138,6,0,B|195:168|130:103|130:13|189:16|247:30|228:85,1,255.000009727478,8|0,0:1|0:0,0:0:0:0:
348,75,35249,1,0,0:0:0:0:
348,75,35434,2,0,P|363:130|335:194,1,127.500004863739,2|0,0:0|0:0,0:0:0:0:
396,384,35990,5,8,0:0:0:0:
269,126,36360,6,0,L|134:143,2,127.500004863739,0|2|0,0:0|0:0|0:0,0:0:0:0:
386,2,37472,6,0,L|521:19,2,127.500004863739,0|2|0,0:0|0:0|0:0,0:0:0:0:
307,331,38583,1,0,0:0:0:0:
393,176,38768,1,8,0:1:0:0:
325,361,38953,6,0,P|264:347|225:298,1,127.500004863739,8|0,0:3|0:0,0:0:0:0:
170,90,39694,5,8,3:2:0:0:
170,90,40064,1,0,0:0:0:0:
33,346,40249,6,0,L|61:355,4,15.9375006079674,8|2|8|2|8,0:2|0:2|0:2|0:2|0:2,0:2:0:0:
0,222,40620,1,8,0:0:0:0:
161,206,40805,1,0,0:0:0:0:
33,346,40990,1,0,0:0:0:0:
44,110,41175,2,0,P|42:81|51:35,1,63.7500024318696,10|0,3:3|0:0,0:0:0:0:
245,179,41546,2,0,P|247:208|238:254,1,63.7500024318696,2|0,0:3|0:0,0:0:0:0:
148,10,41916,6,0,P|203:6|240:83,1,127.500004863739,0|2,0:0|0:3,0:0:0:0:
156,101,42472,1,0,0:0:0:0:
105,173,42657,2,0,P|97:204|103:244,1,63.7500024318696
44,110,43027,1,2,0:3:0:0:
44,110,43212,1,2,3:2:0:0:
192,210,43397,6,0,P|206:251|219:347,1,127.500004863739,0|2,3:2|0:3,0:0:0:0:
218,333,43953,1,0,0:0:0:0:
279,140,44138,2,0,P|288:109|291:77,1,63.7500024318696
241,3,44509,1,2,0:3:0:0:
297,233,44694,6,0,P|352:202|371:137,1,127.500004863739
241,3,45249,2,0,P|185:33|166:98,1,127.500004863739,2|0,0:3|0:0,0:0:0:0:
189,178,45805,1,0,0:0:0:0:
100,23,45990,2,0,P|64:15|26:14,1,63.7500024318696,2|2,0:3|3:2,0:0:0:0:
46,141,46360,6,0,P|82:149|120:150,1,63.7500024318696,0|0,3:2|0:0,0:0:0:0:
258,18,46731,1,2,0:3:0:0:
335,60,46916,1,0,0:0:0:0:
293,138,47101,1,2,0:0:0:0:
215,95,47286,1,0,0:0:0:0:
215,95,47379,1,2,0:0:0:0:
215,95,47472,1,2,0:3:0:0:
262,237,47657,1,2,0:0:0:0:
357,43,47842,6,0,L|492:59,1,127.500004863739,4|2,3:2|0:3,0:0:0:0:
483,58,48397,1,0,0:0:0:0:
374,131,48583,2,0,P|368:166|378:205,1,63.7500024318696
415,272,48953,1,2,0:3:0:0:
488,195,49138,1,2,3:2:0:0:
297,91,49323,6,0,P|285:154|289:217,1,127.500004863739,2|2,3:2|0:3,0:0:0:0:
309,305,49879,1,0,0:0:0:0:
146,109,50064,2,0,L|209:117,1,63.7500024318696
297,91,50434,1,2,0:3:0:0:
69,162,50620,2,0,P|54:134|53:102,1,63.7500024318696,0|0,3:2|3:2,0:0:0:0:
102,27,50990,1,2,0:0:0:0:
149,201,51175,6,0,P|157:253|113:340,2,127.500004863739,2|0|2,0:3|0:0|0:3,0:0:0:0:
149,201,52101,1,0,3:2:0:0:
149,201,52286,1,0,3:2:0:0:
220,0,52472,5,2,0:0:0:0:
308,12,52657,1,2,2:3:0:0:
396,24,52842,1,2,0:0:0:0:
512,119,53027,1,0,0:0:0:0:
424,131,53212,1,2,0:0:0:0:
336,143,53397,1,2,0:3:0:0:
248,155,53583,1,2,0:0:0:0:
388,303,53768,6,0,P|398:258|390:210,1,93.5000028533936,4|0,0:0|0:0,0:0:0:0:
336,143,54138,1,0,0:0:0:0:
303,360,54323,1,8,0:0:0:0:
303,360,54416,1,8,0:0:0:0:
303,360,54509,1,8,0:0:0:0:
508,281,54694,1,0,0:0:0:0:
290,251,54879,6,0,P|201:290|117:335,1,187.000005706787,4|0,0:0|0:0,0:0:0:0:
121,332,55620,1,0,0:0:0:0:
23,181,55805,1,8,0:0:0:0:
23,181,55897,1,8,0:0:0:0:
23,181,55990,1,8,0:0:0:0:
108,217,56175,1,0,0:0:0:0:
97,126,56360,1,0,0:0:0:0:
34,272,56546,1,0,0:0:0:0:
181,161,56731,6,0,P|270:200|354:245,1,187.000005706787,4|0,0:0|0:0,0:0:0:0:
349,242,57286,1,8,0:0:0:0:
480,160,57472,1,8,0:0:0:0:
392,344,57657,1,0,0:0:0:0:
256,48,57842,1,4,0:0:0:0:
256,48,58583,5,8,0:0:0:0:
91,101,58768,1,8,0:0:0:0:
91,274,58953,1,8,0:0:0:0:
256,328,59138,1,0,0:0:0:0:
357,188,59324,1,0,0:0:0:0:
256,48,59509,1,12,0:0:0:0:
184,288,59694,6,0,L|328:272,1,127.500004863739,4|0,0:0|0:0,0:0:0:0:
368,328,60249,1,0,0:0:0:0:
435,373,60434,2,0,P|447:343|448:312,1,63.7500024318696,8|0,0:0|0:0,0:0:0:0:
416,232,60805,1,0,0:0:0:0:
368,160,60990,1,0,0:0:0:0:
368,160,61175,6,0,P|368:104|408:40,1,127.500004863739,2|0,0:3|0:0,0:0:0:0:
368,160,61731,1,6,0:0:0:0:
304,24,61916,2,0,L|215:49,1,63.7500024318696,12|0,2:3|1:0,0:0:0:0:
32,112,62286,1,10,0:3:0:0:
129,39,62472,1,2,0:3:0:0:
16,240,62657,5,8,0:0:0:0:
96,336,62842,1,0,0:0:0:0:
96,168,63027,1,8,0:0:0:0:
8,376,63212,1,0,0:0:0:0:
233,349,63397,1,8,0:0:0:0:
96,336,63583,1,0,0:0:0:0:
321,309,63768,6,0,L|424:336,1,93.5000028533936,8|0,0:0|0:0,0:0:0:0:
512,240,64138,5,4,0:0:0:0:
321,309,64323,1,0,0:0:0:0:
336,88,64509,1,0,0:0:0:0:
411,332,64694,1,8,0:0:0:0:
411,332,64786,1,8,0:0:0:0:
411,332,64879,1,8,0:0:0:0:
411,332,65064,1,0,0:0:0:0:
162,274,65249,1,8,0:0:0:0:
512,176,65434,1,8,0:0:0:0:
64,48,66546,6,8,L|56:80,1,25.4999992218018,8|0,0:0|0:0,0:0:0:0:
16,144,66731,1,0,0:0:0:0:
65,154,66823,1,0,0:0:0:0:
111,135,66916,1,0,0:0:0:0:
138,93,67008,1,0,0:0:0:0:
137,43,67101,6,0,L|264:64,1,101.999996887207,6|0,0:0|0:0,0:0:0:0:
332,22,67472,1,8,0:0:0:0:
339,320,67657,2,0,P|359:274|398:242,1,101.999996887207
296,138,68027,2,0,P|275:91|237:59,1,101.999996887207,0|8,0:0|0:0,0:0:0:0:
260,283,68397,6,0,P|166:306|88:405,1,203.999993774414
214,382,68953,1,8,0:0:0:0:
16,323,69138,1,0,0:0:0:0:
16,323,69323,2,2,P|0:269|0:220,1,101.999996887207
169,176,69694,2,2,P|185:229|184:278,1,101.999996887207,10|2,0:0|0:0,0:0:0:0:
64,107,70064,6,0,L|268:147,1,203.999993774414,4|8,0:0|0:0,0:0:0:0:
264,146,70620,1,0,0:0:0:0:
408,70,70805,1,0,0:0:0:0:
191,92,70990,1,0,0:0:0:0:
319,269,71175,1,8,0:0:0:0:
319,269,71360,2,0,P|365:259|447:261,1,101.999996887207
503,300,71731,1,0,0:0:0:0:
231,340,71916,5,8,0:0:0:0:
175,192,72101,1,10,0:0:0:0:
308,107,72286,1,0,0:0:0:0:
189,211,72471,1,2,0:0:0:0:
339,262,72657,1,8,0:0:0:0:
211,355,72842,1,0,0:0:0:0:
29,137,73027,6,0,L|0:40,1,101.999996887207,4|0,0:0|0:0,0:0:0:0:
1,235,73397,1,8,0:0:0:0:
95,29,73583,2,2,P|142:12|190:26,1,101.999996887207
185,202,73953,2,2,P|137:218|89:204,1,101.999996887207,2|10,0:0|0:0,0:0:0:0:
256,81,74323,1,0,0:0:0:0:
210,330,74509,6,0,P|202:260|303:186,1,203.999993774414,0|8,0:0|0:0,0:0:0:0:
306,289,75064,1,2,0:0:0:0:
40,132,75249,2,0,P|89:120|138:134,1,101.999996887207
85,228,75620,1,8,0:0:0:0:
85,228,75805,1,2,0:0:0:0:
151,30,75990,6,0,P|230:89|225:189,1,203.999993774414,4|8,0:0|0:0,0:0:0:0:
85,228,76546,1,0,0:0:0:0:
138,134,76731,1,2,0:3:0:0:
180,282,76916,1,0,0:0:0:0:
127,376,77101,1,8,0:0:0:0:
120,68,77286,6,0,P|165:91|209:117,1,101.999996887207,0|4,0:0|0:3,0:0:0:0:
298,166,77657,1,0,0:0:0:0:
298,166,77749,1,0,0:0:0:0:
298,166,77842,1,8,0:0:0:0:
96,145,78027,5,2,0:0:0:0:
102,179,78119,1,0,0:0:0:0:
100,215,78212,1,2,0:0:0:0:
88,248,78304,1,0,0:0:0:0:
67,277,78397,2,0,B|53:303|51:334,1,50.9999984436036,2|0,0:0|0:0,0:0:0:0:
159,333,78583,2,0,B|159:362|173:390,1,50.9999984436036,12|0,0:0|0:0,0:0:0:0:
266,335,78768,2,0,B|281:360|307:377,1,50.9999984436036,4|0,0:0|0:0,0:0:0:0:
455,305,78953,6,0,P|404:304|362:279,1,101.999996887207,4|0,0:0|0:0,0:0:0:0:
338,179,79323,1,8,0:0:0:0:
445,24,79509,2,0,P|467:121|430:215,1,203.999993774414,10|0,0:0|0:0,0:0:0:0:
255,223,80064,6,0,P|261:126|349:85,1,203.999993774414,8|4,0:0|0:0,0:0:0:0:
430,215,80620,1,2,0:0:0:0:
201,71,80805,2,2,L|82:82,1,101.999996887207,10|2,0:0|0:0,0:0:0:0:
211,282,81175,2,2,L|330:271,1,101.999996887207
176,59,81546,2,2,L|57:70,1,101.999996887207,10|2,0:0|0:0,0:0:0:0:
133,348,81916,6,0,P|114:251|184:182,1,203.999993774414,4|8,0:0|0:0,0:0:0:0:
327,182,82472,2,0,P|397:251|378:348,1,203.999993774414,4|0,0:2|0:0,0:0:0:0:
256,263,83027,1,8,0:0:0:0:
409,126,83212,1,2,0:0:0:0:
409,126,83397,2,0,P|458:160|487:199,1,101.999996887207
181,330,83768,2,0,P|213:290|255:262,1,101.999996887207,8|0,0:0|0:0,0:0:0:0:
196,80,84138,5,4,0:0:0:0:
47,182,84323,1,2,0:0:0:0:
331,227,84509,1,8,0:0:0:0:
141,0,84694,1,2,0:0:0:0:
87,315,84879,6,0,P|71:246|111:101,1,203.999993774414,4|8,0:0|0:0,0:0:0:0:
256,192,85434,1,2,0:0:0:0:
425,315,85620,2,0,P|441:246|401:101,1,203.999993774414,8|8,0:0|0:0,0:0:0:0:
344,48,86175,6,0,L|232:64,1,101.999996887207,0|4,0:0|0:0,0:0:0:0:
144,72,86546,1,0,0:0:0:0:
296,112,86731,1,8,0:0:0:0:
217,206,86916,1,0,0:0:0:0:
125,63,87101,1,2,0:0:0:0:
14,268,87286,1,8,0:0:0:0:
217,206,87472,1,8,0:0:0:0:
0,47,87657,1,8,0:0:0:0:
213,2,87842,6,0,L|414:31,1,203.999993774414,4|8,0:0|0:0,0:0:0:0:
512,52,88397,1,2,0:0:0:0:
325,98,88583,2,0,P|332:153|323:210,1,101.999996887207,8|0,0:0|0:0,0:0:0:0:
284,291,88953,1,2,0:0:0:0:
275,44,89138,1,0,0:0:0:0:
283,34,89509,5,8,0:0:0:0:
292,281,89694,1,8,0:0:0:0:
220,208,89879,5,8,0:0:0:0:
220,208,89972,1,8,0:0:0:0:
220,208,90064,1,8,0:0:0:0:
132,156,90249,1,0,0:0:0:0:
30,148,90434,1,8,0:0:0:0:
30,148,90620,1,0,0:0:0:0:
76,321,90805,6,0,P|79:270|75:219,1,101.999996887207,4|0,0:0|0:0,0:0:0:0:
30,148,91175,1,6,0:0:0:0:
69,65,91360,1,0,0:0:0:0:
157,37,91546,2,0,P|158:88|134:132,1,101.999996887207
191,203,91916,1,6,0:0:0:0:
230,363,92101,6,0,P|229:312|254:269,1,101.999996887207
320,336,92472,1,0,0:0:0:0:
160,278,92657,2,0,L|58:287,1,101.999996887207,6|0,0:0|0:0,0:0:0:0:
0,358,93027,1,0,0:0:0:0:
0,358,93212,1,0,0:0:0:0:
233,334,93397,2,0,P|249:254|204:195,1,152.999995330811,6|0,0:0|0:0,0:0:0:0:
136,188,93768,6,0,L|236:107,1,101.999996887207,8|0,0:3|0:0,0:0:0:0:
160,278,94138,2,0,L|59:358,1,101.999996887207,2|0,0:0|0:0,0:0:0:0:
123,183,94509,2,0,L|223:102,1,101.999996887207
147,273,94879,2,0,L|46:353,1,101.999996887207,2|0,0:0|0:0,0:0:0:0:
107,173,95249,2,0,L|207:92,1,101.999996887207,8|0,0:3|0:0,0:0:0:0:
131,263,95619,2,0,L|30:343,1,101.999996887207,2|0,0:0|0:0,0:0:0:0:
39,94,95990,5,2,0:0:0:0:
121,26,96175,1,0,0:0:0:0:
186,109,96360,1,2,0:0:0:0:
105,174,96546,1,0,0:0:0:0:
230,302,96731,6,0,P|230:251|217:201,1,101.999996887207,8|0,0:3|0:0,0:0:0:0:
186,109,97101,1,2,0:0:0:0:
186,109,97286,1,0,0:0:0:0:
308,270,97472,2,0,L|439:260,1,101.999996887207
498,312,97842,1,2,0:0:0:0:
347,192,98027,6,0,P|339:141|353:75,1,101.999996887207,0|8,0:0|0:3,0:0:0:0:
460,142,98397,1,8,0:3:0:0:
460,142,98490,1,8,0:3:0:0:
460,142,98583,1,8,0:3:0:0:
409,262,98768,1,0,0:0:0:0:
274,18,98953,1,12,0:3:0:0:
223,138,99138,1,12,0:3:0:0:
274,258,99323,2,0,P|286:327|279:374,1,101.999996887207,2|0,0:0|0:0,0:0:0:0:
62,384,99694,6,0,B|93:349|93:349|204:319,1,152.999995330811,4|0,0:0|0:0,0:0:0:0:
282,358,100064,1,2,0:0:0:0:
98,268,100249,2,0,L|-18:299,1,101.999996887207,4|0,0:3|0:0,0:0:0:0:
62,384,100620,1,0,0:0:0:0:
242,110,100805,1,4,0:2:0:0:
256,192,101175,12,2,102657,0:0:0:0:
196,137,103027,5,2,0:0:0:0:
316,247,103397,1,2,0:0:0:0:
259,68,103583,1,8,0:0:0:0:
259,68,103675,1,8,0:0:0:0:
259,68,103768,1,8,0:0:0:0:
236,325,103953,1,0,0:0:0:0:
511,199,104138,6,0,P|461:205|408:207,1,85
367,279,104509,2,0,P|335:260|280:247,1,85,8|0,0:0|0:0,0:0:0:0:
236,325,104879,1,0,0:0:0:0:
236,325,105064,1,0,0:0:0:0:
357,123,105249,2,0,P|357:85|341:31,1,85,8|0,0:0|0:0,0:0:0:0:
337,237,105620,6,0,P|415:265|457:339,1,170,0|8,0:0|0:0,0:0:0:0:
456,337,106175,1,0,0:0:0:0:
413,168,106360,2,0,P|412:130|428:76,1,85
385,8,106731,1,8,0:0:0:0:
337,237,106916,6,0,B|300:267|300:267|180:291,1,170
94,298,107472,2,0,P|101:257|127:224,1,85,8|0,0:0|0:0,0:0:0:0:
266,200,107842,2,0,P|259:158|233:125,1,85
78,297,108212,2,0,P|84:255|110:222,1,85,8|0,0:0|0:0,0:0:0:0:
216,123,108583,5,0,0:0:0:0:
20,214,108768,1,0,0:0:0:0:
20,214,108953,1,8,0:0:0:0:
117,9,109138,2,0,P|129:58|63:160,1,170
71,155,109694,1,8,0:0:0:0:
15,57,109879,1,0,0:0:0:0:
210,35,110064,6,0,L|294:44,1,85
378,32,110434,1,8,0:0:0:0:
220,198,110620,2,0,P|217:155|229:115,1,85
294,44,110990,1,0,0:0:0:0:
368,158,111175,2,0,L|452:167,1,85,8|0,0:0|0:0,0:0:0:0:
263,269,111546,6,0,P|194:278|139:193,1,170,0|8,0:0|0:0,0:0:0:0:
146,119,112101,1,0,0:0:0:0:
86,301,112286,2,0,P|78:342|78:389,1,85
28,231,112657,1,8,0:0:0:0:
78,162,112842,2,0,P|86:121|86:74,1,85
53,0,113212,1,0,0:0:0:0:
150,210,113397,6,0,P|169:126|162:43,2,170,8|0|8,0:0|0:0|0:0,0:0:0:0:
214,267,114323,1,0,0:0:0:0:
54,375,114509,5,0,0:0:0:0:
128,295,114694,1,0,0:0:0:0:
0,247,114879,1,8,0:0:0:0:
54,375,115064,1,8,0:0:0:0:
54,375,115157,1,8,0:0:0:0:
54,375,115249,1,8,0:0:0:0:
48,171,115434,5,0,0:0:0:0:
224,283,115620,1,8,0:0:0:0:
116,108,115805,1,0,0:0:0:0:
326,221,115990,6,0,P|246:253|140:223,1,170,4|8,0:0|0:0,0:0:0:0:
371,352,116546,1,0,0:0:0:0:
371,352,116731,2,0,P|410:373|472:365,1,85
436,260,117101,1,8,0:0:0:0:
326,221,117286,6,0,P|311:138|343:60,1,170,8|0,0:0|0:0,0:0:0:0:
412,10,117842,1,8,0:0:0:0:
412,10,118027,1,0,0:0:0:0:
236,176,118212,2,2,L|124:165,1,85
0,24,118583,2,2,L|112:13,1,85,10|2,0:0|0:0,0:0:0:0:
314,131,118953,6,0,P|318:213|254:265,1,170,4|8,0:0|0:0,0:0:0:0:
172,241,119509,2,0,P|129:238|87:246,1,85
75,330,119879,1,0,0:0:0:0:
12,284,120064,1,8,0:0:0:0:
144,79,120249,6,2,P|135:121|137:163,1,85
215,39,120620,2,2,P|186:70|167:108,1,85,2|10,0:0|0:0,0:0:0:0:
296,39,120990,1,0,0:0:0:0:
144,79,121175,1,8,0:3:0:0:
381,85,121360,1,8,0:3:0:0:
287,220,121546,1,12,0:3:0:0:
512,143,121731,1,4,0:3:0:0:
354,384,121916,6,0,P|347:322|353:285,1,85,4|0,0:0|0:0,0:0:0:0:
390,176,122286,1,8,0:0:0:0:
220,169,122472,1,0,0:0:0:0:
287,220,122657,2,0,B|237:245|237:245|116:233,1,170,0|8,0:0|0:0,0:0:0:0:
39,220,123212,1,0,0:0:0:0:
220,169,123397,6,0,P|232:122|230:67,1,85
126,49,123768,1,8,0:0:0:0:
152,216,123953,1,0,0:0:0:0:
232,85,124138,2,0,L|414:29,1,170,0|8,0:0|0:0,0:0:0:0:
394,35,124694,1,0,0:0:0:0:
319,243,124879,6,0,P|300:200|297:153,1,93.5000028533936
411,172,125249,1,8,0:0:0:0:
222,262,125434,1,8,0:0:0:0:
459,295,125620,2,0,P|477:337|480:384,1,93.5000028533936,2|0,0:3|0:0,0:0:0:0:
290,352,125990,1,4,0:3:0:0:
272,164,126175,1,0,0:0:0:0:
459,295,126360,5,8,0:3:0:0:
34,337,126731,1,4,0:0:0:0:
95,266,126916,1,8,0:0:0:0:
95,266,127009,1,8,0:0:0:0:
95,266,127101,1,8,0:0:0:0:
176,384,127286,1,8,0:0:0:0:
4,249,127472,1,8,0:0:0:0:
141,176,127657,1,0,0:0:0:0:
39,0,127842,6,0,P|25:92|63:189,1,187.000005706787,4|8,0:0|0:0,0:0:0:0:
119,57,128397,1,0,0:0:0:0:
210,76,128583,2,0,P|252:61|311:63,1,93.5000028533936
117,261,128953,2,0,P|73:276|26:276,1,93.5000028533936,8|0,0:0|0:0,0:0:0:0:
231,181,129323,6,0,P|254:269|220:355,1,187.000005706787,0|8,0:0|0:0,0:0:0:0:
154,185,129879,1,0,0:0:0:0:
323,319,130064,2,2,L|431:306,1,93.5000028533936
415,307,130434,1,4,0:0:0:0:
478,139,130620,2,2,L|370:152,1,93.5000028533936
385,150,130990,1,8,0:0:0:0:
313,230,131175,2,0,P|279:146|320:65,1,187.000005706787,8|0,0:0|0:0,0:0:0:0:
320,64,131731,1,0,0:0:0:0:
257,278,131916,2,0,P|225:243|201:203,1,93.5000028533936,8|0,0:0|0:0,0:0:0:0:
65,31,132287,5,2,0:0:0:0:
36,120,132472,1,2,0:0:0:0:
7,209,132657,1,10,0:0:0:0:
36,298,132842,1,0,0:0:0:0:
155,9,133027,5,2,0:0:0:0:
97,187,133212,1,2,0:0:0:0:
97,187,133305,1,2,0:0:0:0:
97,187,133397,1,8,0:0:0:0:
65,31,133583,1,0,0:0:0:0:
164,234,133768,6,0,P|208:221|275:230,1,93.5000028533936,4|0,0:0|0:0,0:0:0:0:
218,335,134138,1,8,0:0:0:0:
97,187,134323,1,0,0:0:0:0:
340,167,134509,2,0,P|353:211|350:258,2,93.5000028533936,0|0|8,0:0|0:0|0:0,0:0:0:0:
262,115,135064,1,0,0:0:0:0:
380,334,135249,6,0,P|293:317|274:231,1,187.000005706787,0|8,0:0|0:0,0:0:0:0:
225,350,135805,2,0,P|185:366|131:359,1,93.5000028533936
49,325,136175,1,0,0:0:0:0:
49,325,136360,1,8,0:0:0:0:
203,185,136546,6,0,P|176:223|170:269,1,93.5000028533936
225,350,136916,1,0,0:0:0:0:
138,128,137101,2,0,P|144:43|59:35,2,187.000005706787,8|0|8,0:0|0:0|0:0,0:0:0:0:
59,116,138027,1,0,0:0:0:0:
237,7,138212,6,0,P|252:55|253:108,1,93.5000028533936
217,199,138583,1,8,0:0:0:0:
59,116,138768,1,8,0:0:0:0:
59,116,138860,1,8,0:0:0:0:
59,116,138953,1,8,0:0:0:0:
136,226,139138,1,0,0:0:0:0:
0,193,139323,1,8,0:0:0:0:
253,97,139509,1,8,0:0:0:0:
37,363,139694,6,0,L|127:384,1,93.5000028533936,4|0,0:0|0:0,0:0:0:0:
205,323,140064,1,8,0:0:0:0:
285,145,140249,1,0,0:0:0:0:
0,193,140434,2,0,P|22:233|34:300,1,93.5000028533936
63,85,140805,1,8,0:0:0:0:
158,254,140990,6,2,B|192:233|237:244|237:244|253:221|253:221|291:237|339:211,1,187.000005706787
327,216,141546,1,8,0:0:0:0:
512,364,141731,1,0,0:0:0:0:
389,291,141916,2,0,P|400:336|408:382,1,93.5000028533936
285,145,142286,2,0,P|297:99|314:56,1,93.5000028533936,8|0,0:0|0:0,0:0:0:0:
119,347,142657,6,0,P|62:275|85:187,1,187.000005706787,4|8,0:0|0:0,0:0:0:0:
23,100,143212,1,0,0:0:0:0:
158,255,143397,2,4,B|223:239|223:239|345:275,1,187.000005706787,4|12,0:0|0:0,0:0:0:0:
220,316,143953,1,0,0:0:0:0:
432,282,144138,6,0,P|419:229|387:190,1,93.5000028533936
505,55,144509,2,0,P|478:93|470:139,1,93.5000028533936,8|0,0:0|0:0,0:0:0:0:
256,19,144879,5,10,0:0:0:0:
119,87,145064,1,8,0:0:0:0:
187,224,145249,1,10,0:0:0:0:
324,155,145434,1,8,0:0:0:0:
387,372,145620,6,0,P|383:331|394:272,1,93.5000028533936
454,200,145990,1,8,0:0:0:0:
344,320,146175,1,0,0:0:0:0:
504,115,146360,2,0,P|460:101|406:115,1,93.5000028533936
311,55,146731,1,8,0:0:0:0:
233,314,146916,6,0,P|211:223|234:134,1,187.000005706787
296,260,147472,2,8,P|338:257|399:281,1,93.5000028533936
467,318,147842,1,0,0:0:0:0:
163,354,148027,2,0,P|121:357|60:333,1,93.5000028533936,0|8,0:0|0:0,0:0:0:0:
0,296,148397,1,0,0:0:0:0:
138,77,148583,5,12,0:0:0:0:
164,268,148768,1,0,0:0:0:0:
22,153,148953,1,8,0:0:0:0:
299,247,149138,1,0,0:0:0:0:
154,64,149323,1,8,0:0:0:0:
33,357,149509,1,0,0:0:0:0:
253,199,149694,2,0,L|355:221,1,93.5000028533936,8|0,0:0|0:0,0:0:0:0:
451,156,150064,5,4,0:0:0:0:
168,336,150249,1,8,0:0:0:0:
329,312,150434,1,0,0:0:0:0:
275,94,150620,1,8,0:0:0:0:
275,94,150712,1,8,0:0:0:0:
275,94,150805,1,8,0:0:0:0:
37,341,150990,5,8,0:0:0:0:
37,341,151083,1,8,0:0:0:0:
37,341,151175,1,10,0:0:0:0:
37,341,151268,1,2,0:0:0:0:
37,341,151360,1,2,0:0:0:0:
37,341,151453,1,2,0:0:0:0:
37,341,151546,2,0,B|10:257|82:257|42:141,1,187.000005706787,2|0,0:0|0:0,0:0:0:0:
22,68,152101,5,2,0:0:0:0:
111,93,152286,2,2,B|148:101|148:101|210:76,1,93.5000028533936
439,52,152657,5,2,0:0:0:0:
424,32,152750,1,2,0:0:0:0:
401,30,152842,1,10,0:0:0:0:
389,50,152935,1,8,0:0:0:0:
394,75,153027,2,0,P|401:126|397:177,1,101.999996887207,4|0,0:2|0:0,0:0:0:0:
323,217,153397,1,8,0:0:0:0:
351,383,153583,6,0,P|357:333|374:285,1,101.999996887207
237,198,153953,2,0,P|217:150|189:108,1,101.999996887207,0|8,0:0|0:0,0:0:0:0:
224,32,154323,1,0,0:0:0:0:
386,196,154509,6,0,P|459:258|435:351,1,203.999993774414,0|8,0:0|0:0,0:0:0:0:
374,285,155064,1,0,0:0:0:0:
512,176,155249,1,2,0:0:0:0:
512,176,155434,1,0,0:0:0:0:
253,244,155620,1,8,0:0:0:0:
253,244,155805,1,0,0:0:0:0:
336,40,155990,6,0,P|311:133|385:195,1,203.999993774414,4|8,0:2|0:0,0:0:0:0:
512,176,156546,1,0,0:0:0:0:
241,51,156731,1,0,0:0:0:0:
339,287,156916,1,0,0:0:0:0:
403,104,157101,1,8,0:0:0:0:
178,0,157286,2,0,P|185:51|172:113,1,101.999996887207,8|0,0:0|0:0,0:0:0:0:
176,100,157657,1,0,0:0:0:0:
48,75,157842,5,8,0:0:0:0:
97,222,158027,1,0,0:0:0:0:
57,91,158212,1,0,0:0:0:0:
106,238,158397,1,0,0:0:0:0:
66,107,158583,1,8,0:0:0:0:
115,254,158768,1,0,0:0:0:0:
265,79,158953,6,0,L|374:99,1,101.999996887207,4|0,0:2|0:0,0:0:0:0:
461,64,159323,1,8,0:0:0:0:
269,256,159509,2,2,P|267:196|285:150,1,101.999996887207,0|0,0:0|0:0,0:0:0:0:
512,151,159879,2,2,P|514:211|496:257,1,101.999996887207,0|8,0:0|0:0,0:0:0:0:
187,273,160249,1,0,0:0:0:0:
187,273,160434,6,0,B|225:323|225:323|364:355,1,203.999993774414,0|8,0:0|0:0,0:0:0:0:
362,355,160990,1,2,0:0:0:0:
158,178,161175,2,0,P|115:204|90:253,1,101.999996887207
121,347,161546,1,10,0:0:0:0:
121,347,161731,1,8,0:0:0:0:
254,170,161916,6,0,P|202:89|105:95,1,203.999993774414,4|8,0:2|0:0,0:0:0:0:
105,95,162472,1,0,0:0:0:0:
91,249,162657,1,10,0:3:0:0:
229,0,162842,1,0,0:0:0:0:
255,289,163027,1,8,0:0:0:0:
74,89,163212,6,0,L|192:55,1,101.999996887207,0|4,0:0|0:3,0:0:0:0:
332,72,163583,1,0,0:0:0:0:
332,72,163675,1,0,0:0:0:0:
332,72,163768,1,8,0:0:0:0:
109,160,163953,5,2,0:0:0:0:
138,179,164045,1,0,0:0:0:0:
162,207,164138,1,2,0:0:0:0:
177,238,164230,1,0,0:0:0:0:
182,274,164323,2,0,B|190:302|210:325,1,50.9999984436036,2|0,0:0|0:0,0:0:0:0:
287,248,164509,2,0,B|307:268|329:275,1,50.9999984436036,12|0,0:0|0:0,0:0:0:0:
365,174,164694,2,0,B|393:181|423:174,1,50.9999984436036,12|0,0:0|0:0,0:0:0:0:
476,19,164879,6,0,P|439:54|391:66,1,101.999996887207,4|0,0:0|0:0,0:0:0:0:
266,0,165249,1,8,0:0:0:0:
141,78,165434,2,0,P|223:21|319:44,1,203.999993774414
242,234,165990,1,8,0:0:0:0:
242,234,166175,6,0,P|253:184|245:135,1,101.999996887207
151,182,166546,1,0,0:0:0:0:
334,287,166731,2,8,B|375:297|375:297|440:269,1,101.999996887207,8|0,0:0|0:0,0:0:0:0:
279,67,167101,2,0,B|238:57|238:57|173:85,1,101.999996887207
183,80,167472,1,8,0:0:0:0:
320,239,167657,1,8,0:0:0:0:
375,15,167842,6,0,P|387:65|377:114,1,101.999996887207,4|0,0:2|0:0,0:0:0:0:
320,248,168212,1,8,0:0:0:0:
417,53,168397,6,0,P|416:103|393:148,1,101.999996887207
304,256,168767,1,2,0:0:0:0:
447,99,168953,1,8,0:0:0:0:
287,264,169138,6,0,B|232:296|232:296|88:272,1,203.999993774414,4|0,0:2|0:0,0:0:0:0:
218,220,169694,1,8,0:0:0:0:
316,355,169879,1,0,0:0:0:0:
10,308,170064,2,0,P|4:257|33:208,1,101.999996887207
77,66,170434,1,8,0:0:0:0:
129,153,170620,1,2,0:0:0:0:
271,18,170805,6,0,P|240:113|289:200,1,203.999993774414,4|8,0:2|0:0,0:0:0:0:
317,102,171360,1,0,0:0:0:0:
70,57,171546,2,2,L|171:41,1,101.999996887207
472,151,171916,2,2,L|372:168,1,101.999996887207,10|2,0:0|0:0,0:0:0:0:
23,276,172286,5,8,0:0:0:0:
211,224,172472,1,0,0:0:0:0:
90,344,172657,1,8,0:0:0:0:
0,259,172842,1,0,0:0:0:0:
185,319,173027,5,4,0:0:0:0:
141,154,173212,1,0,0:0:0:0:
279,322,173397,5,8,0:0:0:0:
318,102,173582,1,0,0:0:0:0:
489,245,173768,5,6,0:0:0:0:
394,304,173953,1,0,0:0:0:0:
439,132,174138,1,8,0:0:0:0:
482,340,174324,5,0,0:0:0:0:
482,340,174417,1,0,0:0:0:0:
482,340,174509,1,0,0:0:0:0:
314,163,174694,1,0,0:0:0:0:
314,163,174787,1,0,0:0:0:0:
314,163,174879,1,8,0:0:0:0:
80,274,175064,5,0,0:0:0:0:
80,274,175157,1,0,0:0:0:0:
80,274,175249,2,0,L|139:289,1,50.9999984436036,12|0,0:0|0:0,0:0:0:0:
60,141,175434,2,0,L|103:183,1,50.9999984436036,12|0,0:0|0:0,0:0:0:0:
109,15,175620,2,0,L|125:73,1,50.9999984436036,4|0,0:0|0:0,0:0:0:0:
176,174,175805,5,0,0:0:0:0:
208,197,175897,1,0,0:0:0:0:
247,190,175990,1,2,0:0:0:0:
268,156,176082,1,0,0:0:0:0:
258,118,176175,1,0,0:0:0:0:
224,98,176268,1,0,0:0:0:0:
198,57,176360,1,8,0:0:0:0:
219,12,176453,1,0,0:0:0:0:
268,6,176545,1,0,0:0:0:0:
268,6,176638,1,0,0:0:0:0:
268,6,176731,6,0,P|317:27|364:42,1,101.999996887207,4|0,0:2|0:0,0:0:0:0:
400,272,177101,1,8,0:0:0:0:
505,91,177286,2,0,P|515:143|512:191,1,101.999996887207
305,229,177657,2,0,P|295:177|297:128,1,101.999996887207,0|8,0:0|0:0,0:0:0:0:
324,343,178027,6,0,P|226:312|192:213,1,203.999993774414
213,124,178583,2,0,P|228:75|224:23,1,101.999996887207,8|0,0:0|0:0,0:0:0:0:
115,63,178953,1,2,0:0:0:0:
115,63,179138,1,2,0:0:0:0:
282,192,179323,2,0,L|403:174,1,101.999996887207,8|0,0:0|0:0,0:0:0:0:
89,384,179694,6,0,B|32:287|142:278|60:164,1,203.999993774414,0|8,0:0|0:0,0:0:0:0:
0,246,180249,1,0,0:0:0:0:
169,331,180434,2,0,L|293:313,1,101.999996887207
329,269,180805,1,8,0:0:0:0:
47,86,180990,6,0,P|124:97|182:215,1,203.999993774414
197,22,181546,1,8,0:0:0:0:
297,6,181731,1,0,0:0:0:0:
265,110,181916,1,0,0:0:0:0:
365,125,182101,1,0,0:0:0:0:
301,213,182286,1,8,0:0:0:0:
393,260,182471,1,8,0:0:0:0:
289,384,182657,6,0,P|295:330|330:281,1,101.999996887207
393,260,183027,1,8,0:0:0:0:
331,119,183212,2,0,P|325:173|290:222,1,101.999996887207
227,243,183582,1,2,0:0:0:0:
319,290,183768,1,10,0:0:0:0:
232,139,183953,6,0,P|143:180|129:277,1,203.999993774414,4|0,0:2|0:0,0:0:0:0:
121,99,184509,2,0,P|127:48|117:-2,1,101.999996887207,8|0,0:0|0:0,0:0:0:0:
227,243,184879,1,0,0:0:0:0:
208,65,185064,1,0,0:0:0:0:
51,198,185249,2,0,P|44:248|54:299,1,101.999996887207,8|0,0:0|0:0,0:0:0:0:
227,243,185620,6,0,L|366:273,1,101.999996887207
417,218,185990,1,8,0:0:0:0:
484,384,186175,1,0,0:0:0:0:
339,183,186360,1,0,0:0:0:0:
506,140,186546,1,0,0:0:0:0:
271,105,186731,1,8,0:0:0:0:
372,283,186916,1,8,0:0:0:0:
418,37,187101,5,0,0:0:0:0:
155,44,187286,1,2,0:0:0:0:
139,40,187379,1,2,0:0:0:0:
123,36,187472,1,10,0:0:0:0:
65,127,187657,1,2,0:0:0:0:
51,135,187750,1,0,0:0:0:0:
38,143,187842,2,0,P|20:165|14:191,1,50.9999984436036,14|0,0:0|0:0,0:0:0:0:
138,244,188027,2,0,P|129:220|111:201,1,50.9999984436036,14|0,0:0|0:0,0:0:0:0:
0,280,188212,2,0,P|25:284|49:278,1,50.9999984436036,14|0,0:0|0:0,0:0:0:0:
121,333,188397,1,2,0:0:0:0:
140,357,188489,1,0,0:0:0:0:
167,372,188583,6,0,L|271:358,1,101.999996887207,4|0,0:2|0:0,0:0:0:0:
357,384,188953,1,10,0:0:0:0:
297,104,189138,2,0,P|341:195|326:294,1,203.999993774414
382,78,189694,6,0,B|416:128|424:180|424:180|453:130|516:132,1,203.999993774414,8|0,0:0|0:0,0:0:0:0:
499,132,190249,1,0,0:0:0:0:
511,331,190434,2,0,P|516:280|506:231,1,101.999996887207,8|0,0:0|0:0,0:0:0:0:
339,177,190805,1,0,0:0:0:0:
229,258,190990,1,0,0:0:0:0:
310,367,191175,1,8,0:0:0:0:
420,286,191360,1,8,0:0:0:0:
232,175,191546,6,0,P|185:188|150:232,1,101.999996887207,4|0,0:2|0:0,0:0:0:0:
55,194,191916,1,8,0:0:0:0:
271,102,192101,2,0,P|305:136|313:192,1,101.999996887207,4|0,0:2|0:0,0:0:0:0:
414,206,192471,1,0,0:0:0:0:
197,107,192657,1,10,0:0:0:0:
197,107,192842,6,0,B|133:128|133:128|-3:102,1,203.999993774414
128,56,193397,1,8,0:0:0:0:
128,56,193583,1,8,0:0:0:0:
39,264,193768,1,0,0:0:0:0:
104,158,193953,1,2,0:0:0:0:
0,102,194138,1,8,0:0:0:0:
110,338,194323,1,0,0:0:0:0:
207,35,194509,6,0,P|223:133|166:214,1,203.999993774414,4|8,0:2|0:0,0:0:0:0:
166,214,195064,1,0,0:0:0:0:
304,348,195249,2,0,P|288:250|345:169,1,203.999993774414,8|8,0:0|0:0,0:0:0:0:
345,169,195804,1,0,0:0:0:0:
440,232,195990,5,4,0:0:0:0:
345,169,196175,1,0,0:0:0:0:
262,110,196360,1,8,0:0:0:0:
345,169,196545,1,0,0:0:0:0:
273,268,196730,1,2,0:0:0:0:
327,55,196916,1,0,0:0:0:0:
415,223,197101,1,8,0:0:0:0:
203,194,197286,1,0,0:0:0:0:
45,384,197472,6,0,L|33:272,1,101.999996887207,4|0,0:2|0:0,0:0:0:0:
69,187,197842,1,8,0:0:0:0:
94,326,198027,1,0,0:0:0:0:
103,95,198212,2,0,P|52:90|7:112,1,101.999996887207
7,112,198583,1,8,0:0:0:0:
137,280,198768,1,0,0:0:0:0:
137,280,198861,1,0,0:0:0:0:
137,280,198953,1,0,0:0:0:0:
218,63,199138,5,0,0:0:0:0:
0,270,199323,1,8,0:0:0:0:
228,246,199509,1,8,0:0:0:0:
252,251,199601,1,8,0:0:0:0:
275,262,199694,1,8,0:0:0:0:
212,375,199879,1,8,0:0:0:0:
212,375,199972,1,8,0:0:0:0:
212,375,200064,1,8,0:0:0:0:
49,188,200249,1,6,0:2:0:0:
309,88,200434,6,0,P|314:59|311:30,1,59.4999981842042,4|0,0:0|0:0,0:0:0:0:
385,101,200620,2,0,B|379:141|350:158|350:158|382:180|383:218|383:218|336:276|379:399|566:322|478:192|478:192|497:162|497:162|467:116|474:62|474:62|431:-6|355:9,1,713.99997821045,4|8,0:2|0:0,0:0:0:0:
386,7,201823,1,8,0:0:0:0:
386,7,201916,5,10,0:2:0:0:
164,66,202101,1,2,0:2:0:0:
271,238,202286,1,2,0:2:0:0:
172,146,202472,2,0,B|128:211|145:297|145:297|132:345|132:345|92:275|42:247|42:247|46:206|27:175|27:175|70:132|70:132|33:73|65:4,1,594.999981842042,4|0,0:2|0:0,0:0:0:0:
172,146,203583,1,2,0:2:0:0:
223,98,203768,1,8,0:2:0:0:
293,96,203953,1,8,0:2:0:0:
348,139,204138,6,0,B|365:247|276:209|311:350,1,203.999993774414,12|0,0:3|0:0,0:0:0:0:
400,293,204694,1,2,0:0:0:0:
188,226,204879,5,8,0:2:0:0:
172,305,205064,1,8,0:2:0:0:
156,384,205249,1,8,0:2:0:0:
22,245,205434,2,0,P|95:186|191:232,1,203.999993774414,8|0,0:0|0:0,0:0:0:0:
109,277,205990,1,4,0:2:0:0:
265,171,206360,6,0,P|232:257|283:392,1,203.999993774414,8|0,0:0|0:0,0:0:0:0:
186,137,206916,1,2,0:2:0:0:
329,215,207101,2,0,P|343:166|326:119,1,101.999996887207
256,48,207472,1,8,0:2:0:0:
256,48,207657,1,8,0:2:0:0:
512,32,208027,5,8,0:0:0:0:
440,160,208212,2,0,P|448:120|440:80,2,67.9999979248048,2|2|2,0:2|0:2|0:2,0:2:0:0:
376,224,208583,5,8,0:0:0:0:
472,336,208768,1,8,0:0:0:0:
288,280,208953,1,8,0:0:0:0:
344,96,209138,1,0,0:0:0:0:
216,304,209323,6,0,B|178:317|178:317|91:289,1,101.999996887207,8|0,0:0|0:0,0:0:0:0:
40,272,209694,1,0,0:0:0:0:
163,142,209879,2,0,P|178:190|176:241,1,101.999996887207,8|0,0:0|0:0,0:0:0:0:
194,60,210249,1,0,0:0:0:0:
223,384,210434,6,0,P|293:319|253:232,1,203.999993774414,12|0,0:2|0:0,0:0:0:0:
176,241,210990,1,8,0:2:0:0:
176,241,211083,1,8,0:2:0:0:
176,241,211175,1,8,0:2:0:0:
358,384,211360,1,8,0:0:0:0:
383,379,211452,1,8,0:0:0:0:
408,374,211546,6,0,L|474:382,1,50.9999984436036,8|0,0:0|0:0,0:0:0:0:
370,271,211731,2,0,L|304:278,1,50.9999984436036,8|0,0:0|0:0,0:0:0:0:
453,207,211916,2,0,L|518:214,1,50.9999984436036,8|0,0:0|0:0,0:0:0:0:
414,103,212101,2,0,L|348:110,1,50.9999984436036,12|0,0:0|0:0,0:0:0:0:
271,31,212286,6,0,L|82:52,1,178.499994552612,8|0,0:0|0:0,0:0:0:0:
67,276,212657,2,0,L|31:228,1,59.4999981842042,2|0,0:0|0:0,0:0:0:0:
58,136,212842,2,0,L|171:288,1,178.499994552612,8|0,0:0|0:0,0:0:0:0:
373,191,213212,2,0,L|349:245,1,59.4999981842042,2|0,0:0|0:0,0:0:0:0:
256,268,213397,2,0,L|331:93,1,178.499994552612,8|0,0:0|0:0,0:0:0:0:
163,122,213768,6,0,L|222:115,1,59.4999981842042,2|0,0:0|0:0,0:0:0:0:
271,31,213953,2,0,L|82:52,1,178.499994552612,8|0,0:0|0:0,0:0:0:0:
31,228,214323,2,0,L|67:276,1,59.4999981842042,2|0,0:0|0:0,0:0:0:0:
256,268,214509,2,0,L|331:93,1,178.499994552612,8|0,0:0|0:0,0:0:0:0:
327,104,214879,1,2,0:0:0:0:
213,359,215064,6,0,P|298:359|352:290,1,178.499994552612,8|0,0:0|0:0,0:0:0:0:
256,268,215434,1,2,0:0:0:0:
442,334,215620,2,0,P|442:248|373:194,1,178.499994552612,8|0,0:0|0:0,0:0:0:0:
351,290,215990,1,2,0:0:0:0:
469,161,216175,2,0,P|418:130|296:120,1,178.499994552612,8|0,0:0|0:0,0:0:0:0:
374,194,216545,1,2,0:0:0:0:
366,21,216731,6,0,P|280:20|226:89,1,178.499994552612,8|0,0:0|0:0,0:0:0:0:
302,118,217101,1,2,0:0:0:0:
374,195,217286,1,2,0:0:0:0:
351,291,217472,1,2,0:2:0:0:
512,240,217657,1,2,0:2:0:0:
432,333,217842,2,0,P|373:341|327:378,1,118.999996368408,10|0,0:3|0:0,0:0:0:0:
294,179,218212,6,0,P|379:112|454:192,1,237.999992736817,4|8,0:2|0:0,0:0:0:0:
454,192,218768,1,8,0:0:0:0:
359,309,218953,2,0,P|379:253|374:195,1,118.999996368408
202,109,219323,2,0,P|181:164|187:223,1,118.999996368408,8|0,0:0|0:0,0:0:0:0:
234,351,219694,5,4,0:0:0:0:
279,176,219879,1,0,0:0:0:0:
0,280,220064,1,8,0:0:0:0:
0,280,220249,1,8,0:0:0:0:
246,357,220434,5,4,0:0:0:0:
291,182,220619,1,0,0:0:0:0:
12,286,220804,1,8,0:0:0:0:
12,286,220989,1,0,0:0:0:0:
141,120,221175,6,0,P|106:83|60:64,1,101.999996887207,4|0,0:0|0:0,0:0:0:0:
22,296,221546,2,0,P|56:332|103:352,1,101.999996887207,2|0,0:0|0:0,0:0:0:0:
103,352,221916,1,10,0:0:0:0:
219,150,222101,1,8,0:0:0:0:
357,384,222286,1,8,0:0:0:0:
164,225,222472,6,0,B|141:145|141:145|187:-3,1,203.999993774414,2|0,0:0|0:0,0:0:0:0:
416,40,223027,1,0,0:0:0:0:
256,96,223212,1,8,0:3:0:0:
256,96,223305,1,8,0:3:0:0:
256,96,223397,1,8,0:3:0:0:
384,136,223583,1,8,0:3:0:0:
512,176,223768,1,4,0:3:0:0:
512,176,223953,1,12,0:2:0:0:
238,179,224138,6,0,P|243:230|272:272,1,101.999996887207,4|0,0:0|0:0,0:0:0:0:
316,377,224509,2,0,P|357:348|380:303,1,101.999996887207,2|0,0:0|0:0,0:0:0:0:
448,210,224879,2,0,P|402:189|352:193,1,101.999996887207,2|0,0:0|0:0,0:0:0:0:
494,317,225249,1,0,0:0:0:0:
413,98,225434,6,0,P|487:56|494:141,2,203.999993774414,2|2|2,0:0|0:0|0:0,0:0:0:0:
304,106,226360,2,0,P|312:63|337:10,1,101.999996887207,2|0,2:3|0:0,0:0:0:0:
448,210,226731,2,0,P|440:253|415:306,1,101.999996887207,2|0,0:0|0:0,0:0:0:0:
318,320,227101,6,0,P|414:323|505:392,1,203.999993774414,4|0,2:3|0:0,0:0:0:0:
499,384,227657,1,2,0:0:0:0:
194,320,227842,2,0,P|98:323|7:392,1,203.999993774414,2|0,0:0|0:0,0:0:0:0:
13,384,228398,1,0,0:0:0:0:
123,282,228583,2,0,P|119:231|99:184,1,101.999996887207
174,100,228953,6,0,P|208:85|233:58,2,67.9999979248048,2|0|0,0:0|0:0|0:0,0:0:0:0:
317,68,229324,2,0,P|338:37|346:2,2,67.9999979248048,2|0|0,0:0|0:0|0:0,0:0:0:0:
368,135,229694,2,0,P|357:171|361:208,2,67.9999979248048,2|0|0,0:0|0:0|0:0,0:0:0:0:
438,352,230064,6,0,P|492:271|455:181,1,203.999993774414,4|2,0:0|0:0,0:0:0:0:
368,135,230620,1,0,0:0:0:0:
297,273,230805,2,0,P|346:259|397:262,1,101.999996887207,2|0,0:0|0:0,0:0:0:0:
438,352,231175,1,0,0:0:0:0:
198,336,231360,2,0,P|184:287|186:236,1,101.999996887207,2|0,0:0|0:0,0:0:0:0:
277,196,231730,1,10,0:3:0:0:
349,109,231916,1,8,0:3:0:0:
110,216,232101,1,2,0:2:0:0:
339,320,232286,6,0,L|447:304,1,101.999996887207,2|0,0:3|0:0,0:0:0:0:
328,184,232657,1,2,0:0:0:0:
462,384,232842,1,0,0:0:0:0:
361,100,233027,6,0,P|363:174|412:230,1,152.999995330811,10|0,0:0|0:0,0:0:0:0:
512,244,233397,1,2,0:0:0:0:
368,384,233583,6,0,P|366:309|317:253,1,152.999995330811,10|0,0:0|0:0,0:0:0:0:
218,240,233953,1,2,0:0:0:0:
361,100,234138,1,4,0:2:0:0:
256,192,234509,12,0,238953,0:0:0:0:
