osu file format v14

[General]
AudioFilename: audio.mp3
AudioLeadIn: 0
PreviewTime: 78498
Countdown: 0
SampleSet: Normal
StackLeniency: 0.7
Mode: 1
LetterboxInBreaks: 0
WidescreenStoryboard: 1

[Editor]
DistanceSpacing: 1.3
BeatDivisor: 4
GridSize: 32
TimelineZoom: 2.5

[Metadata]
Title:pique
TitleUnicode:pique
Artist:Hoshino Ongaku Koubou
ArtistUnicode:星野音楽工房
Creator:Nepoch
Version:ADVANCED
Source:SOUND VOLTEX VIVID WAVE
Tags:SDVX 5 III GRAVITY WARS コナステ Bemani Konami かねこちはる Kaneko Chiharu Ellim Gnirps 宇迦之御魂神 Uka no Mitama no Kami Ω Dimension Omega Phase 8 Video Game Electronic Instrumental
BeatmapID:2861115
BeatmapSetID:1384944

[Difficulty]
HPDrainRate:5
CircleSize:2
OverallDifficulty:5
ApproachRate:10
SliderMultiplier:1.4
SliderTickRate:3

[Events]
//Background and Video events
0,0,"BG.jpg",0,0
//Break Periods
2,55735,63974
//Storyboard Layer 0 (Background)
//Storyboard Layer 1 (Fail)
//Storyboard Layer 2 (Pass)
//Storyboard Layer 3 (Foreground)
//Storyboard Layer 4 (Overlay)
//Storyboard Sound Samples

[TimingPoints]
1462,370.37037037037,4,1,0,73,1,0
1462,-100,4,1,0,73,0,0
7341,-100,4,1,0,80,0,0
12573,-97.5609756097561,4,1,0,80,0,0
12850,-95.2380952380952,4,1,0,80,0,0
13128,-93.0232558139535,4,1,0,80,0,0
13313,-90.9090909090909,4,1,0,90,0,0
13869,-100,4,1,0,90,0,0
17758,-99.009900990099,4,1,0,90,0,0
17850,-98.0392156862745,4,1,0,90,0,0
18036,-96.1538461538461,4,1,0,90,0,0
18128,-94.3396226415094,4,1,0,90,0,0
18221,-92.5925925925926,4,1,0,90,0,0
18406,-90.9090909090909,4,1,0,90,0,0
19239,-86.9565217391304,4,1,0,90,0,0
23661,-86.9565217391304,4,1,0,70,0,0
24702,-85.1063829787234,4,1,0,90,0,0
25165,-83.3333333333333,4,1,0,90,0,0
37017,-100,4,1,0,90,0,0
41832,-98.5221674876847,4,1,0,90,0,0
42017,-97.0873786407767,4,1,0,90,0,0
42202,-96.1538461538461,4,1,0,90,0,0
42387,-94.3396226415094,4,1,0,90,0,0
42480,-92.5925925925926,4,1,0,90,0,0
42573,-90.9090909090909,4,1,0,90,0,0
42758,-88.8888888888889,4,1,0,90,0,0
42943,-86.9565217391304,4,1,0,90,0,0
43313,-83.3333333333333,4,1,0,90,0,0
54749,-74.0740740740741,4,1,0,95,0,0
55536,370.37037037037,4,1,0,65,1,0
55536,-74.0740740740741,4,1,0,65,0,0
57017,-100,4,1,0,65,0,0
64378,-100,4,1,0,55,0,0
65860,-100,4,1,0,75,0,0
67341,-111.111111111111,4,1,0,80,0,0
72943,-105.263157894737,4,1,0,80,0,0
73313,-100,4,1,0,90,0,0
76184,-90.9090909090909,4,1,0,90,0,0
77711,-90.9090909090909,4,1,0,70,0,0
78823,-86.9565217391304,4,1,0,90,0,0
79239,-83.3333333333333,4,1,0,100,0,1
91091,-83.3333333333333,4,1,0,100,0,0
91461,-83.3333333333333,4,1,0,100,0,1
105906,-83.3333333333333,4,1,0,60,0,0
107202,-111.111111111111,4,1,0,60,0,0
109147,-100,4,1,0,90,0,0
119980,-97.5609756097561,4,1,0,90,0,0
120258,-95.2380952380952,4,1,0,90,0,0
120535,-93.0232558139535,4,1,0,90,0,0
120721,-90.9090909090909,4,1,0,90,0,0
121276,-100,4,1,0,90,0,0
125165,-99.009900990099,4,1,0,90,0,0
125258,-98.0392156862745,4,1,0,90,0,0
125443,-96.1538461538461,4,1,0,90,0,0
125535,-94.3396226415094,4,1,0,90,0,0
125628,-92.5925925925926,4,1,0,90,0,0
125813,-90.9090909090909,4,1,0,90,0,0
126647,-83.3333333333333,4,1,0,95,0,0
129610,-76.9230769230769,4,1,0,95,0,0
131091,-75.7575757575758,4,1,0,95,0,0
131276,-74.6268656716418,4,1,0,95,0,0
131369,-73.5294117647059,4,1,0,95,0,0
131461,-72.463768115942,4,1,0,95,0,0
131554,-71.4285714285714,4,1,0,95,0,0
131647,-70.4225352112676,4,1,0,95,0,0
131832,-69.4444444444444,4,1,0,95,0,0
132156,-66.6666666666667,4,1,0,85,0,0

[HitObjects]
256,96,1462,5,4,0:0:0:0:
256,192,1832,1,0,0:0:0:0:
256,192,2202,1,8,0:0:0:0:
256,192,2480,1,0,0:0:0:0:
256,192,2758,1,8,0:0:0:0:
256,192,3128,1,8,0:0:0:0:
256,192,3313,1,8,0:0:0:0:
256,192,3499,1,0,0:0:0:0:
256,192,3684,1,8,0:0:0:0:
256,192,3776,1,8,0:0:0:0:
256,192,3961,1,8,0:0:0:0:
256,192,4147,1,0,0:0:0:0:
256,192,4424,1,8,0:0:0:0:
256,192,4795,1,8,0:0:0:0:
256,192,5165,1,0,0:0:0:0:
256,192,5443,1,8,0:0:0:0:
256,192,5721,1,0,0:0:0:0:
256,192,6091,1,8,0:0:0:0:
256,192,6276,1,0,0:0:0:0:
256,192,6647,1,8,0:0:0:0:
256,192,7202,1,0,0:0:0:0:
256,192,7387,1,8,0:0:0:0:
256,192,7758,1,0,0:0:0:0:
256,192,8128,1,8,0:0:0:0:
256,192,8406,1,8,0:0:0:0:
256,192,8684,1,0,0:0:0:0:
256,192,9054,1,8,0:0:0:0:
256,192,9239,1,8,0:0:0:0:
256,192,9424,1,0,0:0:0:0:
256,192,9610,1,8,0:0:0:0:
256,192,9702,1,8,0:0:0:0:
256,192,9887,1,8,0:0:0:0:
256,192,10073,1,0,0:0:0:0:
256,192,10350,1,8,0:0:0:0:
256,192,10721,1,0,0:0:0:0:
256,192,11091,1,8,0:0:0:0:
256,192,11369,1,8,0:0:0:0:
256,192,11647,1,0,0:0:0:0:
256,192,12017,1,8,0:0:0:0:
256,192,12202,1,8,0:0:0:0:
256,192,12387,1,0,0:0:0:0:
256,192,12573,1,8,0:0:0:0:
256,192,12850,1,0,0:0:0:0:
256,192,13128,1,8,0:0:0:0:
256,96,13313,1,4,0:0:0:0:
256,192,13869,1,0,0:0:0:0:
256,192,14054,1,8,0:0:0:0:
256,192,14424,1,8,0:0:0:0:
256,192,14610,1,0,0:0:0:0:
256,192,14702,1,0,0:0:0:0:
256,192,14795,1,0,0:0:0:0:
256,192,15350,1,8,0:0:0:0:
256,192,15536,1,0,0:0:0:0:
256,192,15906,1,0,0:0:0:0:
256,192,16091,1,0,0:0:0:0:
256,192,16184,1,0,0:0:0:0:
256,192,16276,1,0,0:0:0:0:
256,192,16832,1,0,0:0:0:0:
256,192,17017,1,8,0:0:0:0:
256,192,17387,1,8,0:0:0:0:
256,192,17573,1,0,0:0:0:0:
256,192,17758,1,0,0:0:0:0:
256,192,17850,1,0,0:0:0:0:
256,192,18036,1,0,0:0:0:0:
256,192,18128,1,0,0:0:0:0:
256,192,18221,1,0,0:0:0:0:
256,192,18406,1,0,0:0:0:0:
256,96,19239,1,4,0:0:0:0:
256,192,19517,1,0,0:0:0:0:
256,192,19702,1,0,0:0:0:0:
256,192,19795,1,8,0:0:0:0:
256,192,19980,1,0,0:0:0:0:
256,192,20258,1,8,0:0:0:0:
256,192,20536,1,8,0:0:0:0:
256,192,20721,1,0,0:0:0:0:
256,192,20999,1,0,0:0:0:0:
256,192,21184,1,0,0:0:0:0:
256,192,21276,1,8,0:0:0:0:
256,192,21461,1,0,0:0:0:0:
256,192,21739,1,8,0:0:0:0:
256,192,22017,1,8,0:0:0:0:
256,192,22202,1,0,0:0:0:0:
256,192,22480,1,0,0:0:0:0:
256,192,22665,1,0,0:0:0:0:
256,192,22758,1,8,0:0:0:0:
256,192,22943,1,0,0:0:0:0:
256,192,23221,1,8,0:0:0:0:
256,192,23499,1,8,0:0:0:0:
256,192,23684,12,0,24424,0:0:0:0:
256,96,24795,5,4,0:0:0:0:
256,96,25165,1,12,0:0:0:0:
256,192,25536,1,8,0:0:0:0:
256,192,25721,1,8,0:0:0:0:
256,192,25813,1,8,0:0:0:0:
256,192,25906,1,8,0:0:0:0:
256,192,26091,1,0,0:0:0:0:
256,192,26276,1,8,0:0:0:0:
256,192,26461,1,8,0:0:0:0:
256,192,26647,1,0,0:0:0:0:
256,192,26832,1,0,0:0:0:0:
256,192,27017,1,8,0:0:0:0:
256,192,27202,1,0,0:0:0:0:
256,192,27758,1,0,0:0:0:0:
256,192,27943,1,0,0:0:0:0:
256,96,28128,1,12,0:0:0:0:
256,192,28499,1,8,0:0:0:0:
256,192,28684,1,8,0:0:0:0:
256,192,28776,1,8,0:0:0:0:
256,192,28869,1,8,0:0:0:0:
256,192,29054,1,8,0:0:0:0:
256,192,29239,1,8,0:0:0:0:
256,192,29424,1,0,0:0:0:0:
256,96,29610,1,12,0:0:0:0:
256,96,29887,1,12,0:0:0:0:
256,96,30165,1,4,0:0:0:0:
256,96,30443,1,4,0:0:0:0:
256,96,30721,1,12,0:0:0:0:
256,96,30906,1,8,0:0:0:0:
256,96,31091,1,4,0:0:0:0:
256,192,31461,1,8,0:0:0:0:
256,192,31647,1,8,0:0:0:0:
256,192,31832,1,8,0:0:0:0:
256,192,32017,1,0,0:0:0:0:
256,192,32202,1,0,0:0:0:0:
256,192,32387,1,8,0:0:0:0:
256,192,32573,1,0,0:0:0:0:
256,192,32758,1,8,0:0:0:0:
256,192,32850,1,8,0:0:0:0:
256,192,32943,1,8,0:0:0:0:
256,192,33128,1,0,0:0:0:0:
256,192,33313,1,8,0:0:0:0:
256,192,33869,1,0,0:0:0:0:
256,192,34054,1,8,0:0:0:0:
256,192,34239,1,8,0:0:0:0:
256,192,34424,1,0,0:0:0:0:
256,192,34702,1,0,0:0:0:0:
256,192,34980,1,8,0:0:0:0:
256,192,35165,1,8,0:0:0:0:
256,192,35350,1,0,0:0:0:0:
256,192,35536,1,8,0:0:0:0:
256,192,35721,1,0,0:0:0:0:
256,192,35906,1,8,0:0:0:0:
256,192,36184,1,8,0:0:0:0:
256,192,36276,1,0,0:0:0:0:
256,96,37017,1,4,0:0:0:0:
256,192,37387,5,0,0:0:0:0:
256,192,37480,1,0,0:0:0:0:
256,192,37573,5,0,0:0:0:0:
256,192,37758,5,8,0:0:0:0:
256,192,37943,1,0,0:0:0:0:
256,192,38499,1,0,0:0:0:0:
256,192,38684,1,8,0:0:0:0:
256,192,38869,1,0,0:0:0:0:
256,192,38961,1,8,0:0:0:0:
256,192,39239,1,8,0:0:0:0:
256,192,39424,1,0,0:0:0:0:
256,192,39610,1,8,0:0:0:0:
256,192,39795,1,0,0:0:0:0:
256,192,39980,1,8,0:0:0:0:
256,192,40350,1,0,0:0:0:0:
256,192,40443,1,0,0:0:0:0:
256,192,40536,1,0,0:0:0:0:
256,192,40721,1,8,0:0:0:0:
256,192,40906,1,0,0:0:0:0:
256,192,41461,1,8,0:0:0:0:
256,192,41554,1,0,0:0:0:0:
256,192,41832,1,8,0:0:0:0:
256,192,42017,1,0,0:0:0:0:
256,192,42202,1,8,0:0:0:0:
256,192,42387,1,0,0:0:0:0:
256,192,42480,1,0,0:0:0:0:
256,192,42573,1,0,0:0:0:0:
256,192,42758,1,8,0:0:0:0:
256,96,42943,1,4,0:0:0:0:
256,192,43313,1,8,0:0:0:0:
256,192,43499,1,8,0:0:0:0:
256,192,43591,1,8,0:0:0:0:
256,192,43684,1,8,0:0:0:0:
256,192,43869,1,0,0:0:0:0:
256,192,44054,1,8,0:0:0:0:
256,192,44239,1,8,0:0:0:0:
256,192,44424,1,0,0:0:0:0:
256,192,44610,1,0,0:0:0:0:
256,192,44795,1,8,0:0:0:0:
256,192,44980,1,0,0:0:0:0:
256,192,45536,1,0,0:0:0:0:
256,192,45721,1,0,0:0:0:0:
256,96,45906,1,12,0:0:0:0:
256,192,46276,1,8,0:0:0:0:
256,192,46461,1,8,0:0:0:0:
256,192,46554,1,8,0:0:0:0:
256,192,46647,1,8,0:0:0:0:
256,192,46832,1,8,0:0:0:0:
256,192,47017,1,8,0:0:0:0:
256,192,47202,1,0,0:0:0:0:
256,96,47387,1,12,0:0:0:0:
256,96,47665,1,12,0:0:0:0:
256,96,47943,1,4,0:0:0:0:
256,96,48221,1,4,0:0:0:0:
256,96,48499,1,12,0:0:0:0:
256,192,48684,1,8,0:0:0:0:
256,96,48869,1,4,0:0:0:0:
256,192,49239,1,8,0:0:0:0:
256,192,49517,1,8,0:0:0:0:
256,192,49795,1,8,0:0:0:0:
256,192,50073,1,8,0:0:0:0:
256,96,50350,1,4,0:0:0:0:
256,192,50721,1,8,0:0:0:0:
256,192,50999,1,8,0:0:0:0:
256,192,51276,1,8,0:0:0:0:
256,192,51554,1,8,0:0:0:0:
256,96,51832,1,4,0:0:0:0:
256,192,52387,1,8,0:0:0:0:
256,192,52480,1,8,0:0:0:0:
256,192,52573,1,8,0:0:0:0:
256,192,52850,1,0,0:0:0:0:
256,192,53128,1,8,0:0:0:0:
256,192,53221,1,8,0:0:0:0:
256,192,53313,1,8,0:0:0:0:
256,192,53591,1,8,0:0:0:0:
256,192,53869,1,0,0:0:0:0:
256,192,54054,1,8,0:0:0:0:
256,192,54332,1,0,0:0:0:0:
256,192,54424,1,8,0:0:0:0:
256,192,54795,2,0,L|320:192,8,47.2500001802444
256,192,64424,12,0,65535,0:0:0:0:
256,192,65906,5,0,0:0:0:0:
256,192,66276,1,8,0:0:0:0:
256,192,66523,1,0,0:0:0:0:
256,192,66647,1,0,0:0:0:0:
256,192,66770,1,0,0:0:0:0:
256,96,67017,1,12,0:0:0:0:
256,192,67387,1,0,0:0:0:0:
256,192,67573,1,0,0:0:0:0:
256,192,67758,1,8,0:0:0:0:
256,192,68035,1,8,0:0:0:0:
256,192,68498,1,0,0:0:0:0:
256,192,68684,1,8,0:0:0:0:
256,192,68776,1,8,0:0:0:0:
256,192,68869,1,8,0:0:0:0:
256,192,69054,1,0,0:0:0:0:
256,192,69239,1,8,0:0:0:0:
256,192,69517,1,8,0:0:0:0:
256,192,69980,1,0,0:0:0:0:
256,192,70073,1,0,0:0:0:0:
256,192,70165,1,0,0:0:0:0:
256,192,70350,1,8,0:0:0:0:
256,192,70535,1,0,0:0:0:0:
256,192,70721,1,8,0:0:0:0:
256,192,70998,1,8,0:0:0:0:
256,192,71461,1,0,0:0:0:0:
256,192,71647,1,8,0:0:0:0:
256,192,71739,1,8,0:0:0:0:
256,192,71832,1,8,0:0:0:0:
256,192,72017,1,0,0:0:0:0:
256,192,72202,1,8,0:0:0:0:
256,192,72480,1,8,0:0:0:0:
256,96,72943,1,4,0:0:0:0:
256,192,73313,1,8,0:0:0:0:
256,192,73498,1,8,0:0:0:0:
256,192,73684,1,0,0:0:0:0:
256,192,73869,1,0,0:0:0:0:
256,192,74054,1,8,0:0:0:0:
256,192,74239,1,8,0:0:0:0:
256,192,74424,1,0,0:0:0:0:
256,192,74610,1,0,0:0:0:0:
256,192,74795,1,8,0:0:0:0:
256,192,74980,1,8,0:0:0:0:
256,192,75165,1,0,0:0:0:0:
256,192,75350,1,0,0:0:0:0:
256,192,75443,1,0,0:0:0:0:
256,192,75535,1,0,0:0:0:0:
256,192,75721,1,0,0:0:0:0:
256,192,76276,1,8,0:0:0:0:
256,192,76461,1,0,0:0:0:0:
256,192,76647,1,8,0:0:0:0:
256,192,76832,1,0,0:0:0:0:
256,192,77017,1,8,0:0:0:0:
256,192,77110,1,8,0:0:0:0:
256,192,77202,1,8,0:0:0:0:
256,192,77387,1,8,0:0:0:0:
256,192,77573,1,0,0:0:0:0:
256,192,77758,12,0,78498,0:0:0:0:
256,96,78869,5,4,0:0:0:0:
256,96,79239,1,12,0:0:0:0:
256,192,79610,1,0,0:0:0:0:
256,192,79887,1,8,0:0:0:0:
256,192,80073,1,0,0:0:0:0:
256,192,80165,1,8,0:0:0:0:
256,192,80350,1,0,0:0:0:0:
256,192,80535,1,0,0:0:0:0:
256,192,80721,1,8,0:0:0:0:
256,192,81091,1,0,0:0:0:0:
256,192,81369,1,8,0:0:0:0:
256,192,81554,1,8,0:0:0:0:
256,192,81647,1,0,0:0:0:0:
256,192,81832,1,8,0:0:0:0:
256,192,82017,1,0,0:0:0:0:
256,192,82202,1,8,0:0:0:0:
256,192,82480,1,8,0:0:0:0:
256,192,82758,1,8,0:0:0:0:
256,192,82850,1,8,0:0:0:0:
256,192,82943,1,8,0:0:0:0:
256,192,83221,1,8,0:0:0:0:
256,192,83498,1,0,0:0:0:0:
256,192,83684,1,8,0:0:0:0:
256,192,83869,1,0,0:0:0:0:
256,192,83961,1,8,0:0:0:0:
256,192,84239,1,0,0:0:0:0:
256,192,84517,1,8,0:0:0:0:
256,192,84795,1,0,0:0:0:0:
256,192,84980,1,8,0:0:0:0:
256,96,85165,1,4,0:0:0:0:
256,192,85721,1,0,0:0:0:0:
256,192,85906,1,8,0:0:0:0:
256,192,85998,1,8,0:0:0:0:
256,192,86091,1,8,0:0:0:0:
256,192,86276,1,0,0:0:0:0:
256,192,86461,1,8,0:0:0:0:
256,192,86554,1,8,0:0:0:0:
256,192,86832,1,8,0:0:0:0:
256,192,87017,1,0,0:0:0:0:
256,192,87202,1,0,0:0:0:0:
256,192,87295,1,0,0:0:0:0:
256,192,87387,1,0,0:0:0:0:
256,192,87573,1,8,0:0:0:0:
256,192,87758,1,0,0:0:0:0:
256,192,87943,1,0,0:0:0:0:
256,192,88128,1,8,0:0:0:0:
256,192,88498,1,8,0:0:0:0:
256,192,88684,1,0,0:0:0:0:
256,192,88776,1,0,0:0:0:0:
256,192,89054,1,0,0:0:0:0:
256,192,89239,1,8,0:0:0:0:
256,192,89424,1,8,0:0:0:0:
256,192,89517,1,8,0:0:0:0:
256,192,89610,1,8,0:0:0:0:
256,192,89887,1,8,0:0:0:0:
256,192,90165,1,0,0:0:0:0:
256,192,90721,1,8,0:0:0:0:
256,192,90906,1,0,0:0:0:0:
256,192,91091,1,8,0:0:0:0:
256,96,91461,1,4,0:0:0:0:
256,192,91739,1,8,0:0:0:0:
256,192,91924,1,0,0:0:0:0:
256,192,92017,1,8,0:0:0:0:
256,192,92202,1,8,0:0:0:0:
256,192,92387,1,0,0:0:0:0:
256,192,92573,1,8,0:0:0:0:
256,192,92943,1,8,0:0:0:0:
256,192,93221,1,0,0:0:0:0:
256,192,93406,1,8,0:0:0:0:
256,192,93498,1,0,0:0:0:0:
256,192,93684,1,8,0:0:0:0:
256,192,93869,1,0,0:0:0:0:
256,192,94054,1,8,0:0:0:0:
256,192,94332,1,8,0:0:0:0:
256,192,94610,1,8,0:0:0:0:
256,192,94702,1,8,0:0:0:0:
256,192,94795,1,8,0:0:0:0:
256,192,95073,1,8,0:0:0:0:
256,192,95350,1,0,0:0:0:0:
256,192,95535,1,8,0:0:0:0:
256,192,95721,1,0,0:0:0:0:
256,192,95813,1,8,0:0:0:0:
256,192,96091,1,0,0:0:0:0:
256,192,96369,1,8,0:0:0:0:
256,192,96647,1,0,0:0:0:0:
256,192,96832,1,8,0:0:0:0:
256,96,97017,1,4,0:0:0:0:
256,192,97573,1,0,0:0:0:0:
256,192,97758,1,8,0:0:0:0:
256,192,97850,1,8,0:0:0:0:
256,192,97943,1,8,0:0:0:0:
256,192,98128,1,0,0:0:0:0:
256,192,98313,1,8,0:0:0:0:
256,192,98406,1,8,0:0:0:0:
256,192,98684,1,8,0:0:0:0:
256,192,98869,1,0,0:0:0:0:
256,192,99054,1,0,0:0:0:0:
256,192,99147,1,0,0:0:0:0:
256,192,99239,1,0,0:0:0:0:
256,192,99424,1,8,0:0:0:0:
256,192,99610,1,0,0:0:0:0:
256,192,99795,1,0,0:0:0:0:
256,192,99980,1,8,0:0:0:0:
256,192,100350,1,8,0:0:0:0:
256,192,100535,1,0,0:0:0:0:
256,192,100628,1,0,0:0:0:0:
256,192,100906,1,0,0:0:0:0:
256,192,101091,1,8,0:0:0:0:
256,192,101276,1,8,0:0:0:0:
256,192,101369,1,8,0:0:0:0:
256,192,101461,1,8,0:0:0:0:
256,192,101739,1,8,0:0:0:0:
256,192,102017,1,0,0:0:0:0:
256,192,102573,1,8,0:0:0:0:
256,192,102758,1,8,0:0:0:0:
256,192,102850,1,8,0:0:0:0:
256,192,102943,1,8,0:0:0:0:
256,192,103313,1,0,0:0:0:0:
256,192,103591,1,8,0:0:0:0:
256,192,103776,1,0,0:0:0:0:
256,192,103869,1,8,0:0:0:0:
256,192,104054,1,0,0:0:0:0:
256,192,104239,1,0,0:0:0:0:
256,192,104424,1,8,0:0:0:0:
256,192,104610,1,0,0:0:0:0:
256,192,104795,1,8,0:0:0:0:
256,192,105073,1,8,0:0:0:0:
256,192,105258,1,8,0:0:0:0:
256,192,105350,1,0,0:0:0:0:
256,192,105535,1,8,0:0:0:0:
256,192,105721,1,0,0:0:0:0:
256,192,105906,1,8,0:0:0:0:
256,192,107387,12,0,108869,0:0:0:0:
256,96,109239,5,4,0:0:0:0:
256,192,109610,1,8,0:0:0:0:
256,192,109887,1,0,0:0:0:0:
256,192,110165,1,8,0:0:0:0:
256,192,110535,1,8,0:0:0:0:
256,192,110721,1,8,0:0:0:0:
256,192,110906,1,0,0:0:0:0:
256,192,111091,1,8,0:0:0:0:
256,192,111184,1,8,0:0:0:0:
256,192,111369,1,8,0:0:0:0:
256,192,111554,1,0,0:0:0:0:
256,192,111832,1,8,0:0:0:0:
256,192,112202,1,8,0:0:0:0:
256,192,112573,1,0,0:0:0:0:
256,192,112850,1,8,0:0:0:0:
256,192,113128,1,0,0:0:0:0:
256,192,113498,1,8,0:0:0:0:
256,192,113684,1,0,0:0:0:0:
256,192,114054,1,8,0:0:0:0:
256,192,114610,1,0,0:0:0:0:
256,192,114795,1,8,0:0:0:0:
256,192,115165,1,0,0:0:0:0:
256,96,115535,1,12,0:0:0:0:
256,96,115813,1,12,0:0:0:0:
256,96,116091,1,4,0:0:0:0:
256,192,116461,1,8,0:0:0:0:
256,192,116647,1,8,0:0:0:0:
256,192,116832,1,0,0:0:0:0:
256,192,117017,1,8,0:0:0:0:
256,192,117110,1,8,0:0:0:0:
256,192,117295,1,8,0:0:0:0:
256,192,117480,1,0,0:0:0:0:
256,192,117758,1,8,0:0:0:0:
256,192,118128,1,0,0:0:0:0:
256,192,118498,1,8,0:0:0:0:
256,192,118776,1,8,0:0:0:0:
256,192,119054,1,0,0:0:0:0:
256,192,119424,1,8,0:0:0:0:
256,192,119610,1,8,0:0:0:0:
256,192,119980,1,8,0:0:0:0:
256,192,120258,1,0,0:0:0:0:
256,192,120535,1,8,0:0:0:0:
256,96,120721,1,4,0:0:0:0:
256,192,121276,1,0,0:0:0:0:
256,192,121461,1,8,0:0:0:0:
256,192,121832,1,8,0:0:0:0:
256,192,122017,1,0,0:0:0:0:
256,192,122110,1,0,0:0:0:0:
256,192,122202,1,0,0:0:0:0:
256,192,122758,1,8,0:0:0:0:
256,192,122943,1,0,0:0:0:0:
256,192,123313,1,0,0:0:0:0:
256,192,123498,1,0,0:0:0:0:
256,192,123591,1,0,0:0:0:0:
256,192,123684,1,0,0:0:0:0:
256,192,124239,1,0,0:0:0:0:
256,192,124424,1,8,0:0:0:0:
256,192,124795,1,8,0:0:0:0:
256,192,124980,1,0,0:0:0:0:
256,192,125165,1,0,0:0:0:0:
256,192,125258,1,0,0:0:0:0:
256,192,125443,1,0,0:0:0:0:
256,192,125535,1,0,0:0:0:0:
256,192,125628,1,0,0:0:0:0:
256,192,125813,1,0,0:0:0:0:
256,96,126647,1,4,0:0:0:0:
256,192,126924,1,0,0:0:0:0:
256,192,127110,1,0,0:0:0:0:
256,192,127202,1,8,0:0:0:0:
256,192,127387,1,0,0:0:0:0:
256,192,127665,1,8,0:0:0:0:
256,192,127943,1,8,0:0:0:0:
256,192,128128,1,0,0:0:0:0:
256,192,128406,1,0,0:0:0:0:
256,192,128591,1,0,0:0:0:0:
256,192,128684,1,8,0:0:0:0:
256,192,128869,1,0,0:0:0:0:
256,192,129147,1,8,0:0:0:0:
256,192,129610,1,0,0:0:0:0:
256,192,129795,1,0,0:0:0:0:
256,192,129887,1,0,0:0:0:0:
256,192,129980,1,0,0:0:0:0:
256,192,130165,1,8,0:0:0:0:
256,192,130350,1,0,0:0:0:0:
256,192,130535,1,8,0:0:0:0:
256,192,130628,1,8,0:0:0:0:
256,192,130721,1,8,0:0:0:0:
256,192,130906,1,8,0:0:0:0:
256,192,131091,1,0,0:0:0:0:
256,192,131276,1,0,0:0:0:0:
256,192,131369,1,0,0:0:0:0:
256,192,131461,1,0,0:0:0:0:
256,192,131554,1,0,0:0:0:0:
256,192,131647,1,0,0:0:0:0:
256,192,131832,1,8,0:0:0:0:
256,96,132202,1,4,0:0:0:0:
