osu file format v14

[General]
AudioFilename: audio.mp3
AudioLeadIn: 0
PreviewTime: 55015
Countdown: 0
SampleSet: Normal
StackLeniency: 0.7
Mode: 1
LetterboxInBreaks: 0
WidescreenStoryboard: 0

[Editor]
Bookmarks: 5799,16177,26555,31745,42123,55096,65474,82339,88988,97258
DistanceSpacing: 0.8
BeatDivisor: 4
GridSize: 32
TimelineZoom: 1.6

[Metadata]
Title:Yappari Mya-nee Number One
TitleUnicode:やっぱりみゃー姉なんばーわん
Artist:Hoshino Hinata (CV: Nagae Rika)
ArtistUnicode:星野ひなた (CV: 長江里加)
Creator:Faputa
Version:Muzukashii
Source:私に天使が舞い降りた!
Tags:jacky10186 Tyistiana Cut Version Short No. 1 Loli cute voice Character Song みやこ Miyako Neechan Wataten! An Angel Flew Down to Me Watashi ni Tenshi ga Maiorita! Anime Japanese
BeatmapID:1970279
BeatmapSetID:943437

[Difficulty]
HPDrainRate:6
CircleSize:2
OverallDifficulty:4.5
ApproachRate:10
SliderMultiplier:1.4
SliderTickRate:1

[Events]
//Background and Video events
0,0,"MyaneeYabariKawaiiSo.jpg",0,18
//Break Periods
//Storyboard Layer 0 (Background)
//Storyboard Layer 1 (Fail)
//Storyboard Layer 2 (Pass)
//Storyboard Layer 3 (Foreground)
//Storyboard Layer 4 (Overlay)
//Storyboard Sound Samples

[TimingPoints]
610,324.324324324324,4,1,0,60,1,0
610,-105.263157894737,4,1,0,60,0,0
5474,-100,4,1,0,95,0,0
5799,-100,4,1,0,90,0,0
16177,-100,4,1,0,80,0,0
26231,-100,4,1,0,95,0,0
26555,-100,4,1,0,90,0,0
31745,-100,4,1,0,85,0,0
41799,-100,4,1,0,95,0,0
42123,-100,4,1,0,90,0,0
46988,-100,4,1,0,95,0,0
47312,-100,4,1,0,90,0,0
52177,-100,4,1,0,95,0,0
52501,-100,4,1,0,85,0,0
52988,-100,4,1,0,88,0,0
53474,-100,4,1,0,91,0,0
53961,-100,4,1,0,94,0,0
54772,-100,4,1,0,97,0,0
55096,-98.0392156862745,4,1,0,100,0,1
65474,-95.2380952380952,4,1,0,100,0,1
82339,-100,4,1,0,95,0,0
95312,-100,4,1,0,80,0,0

[HitObjects]
256,192,610,5,8,0:0:0:0:
256,192,934,1,8,0:0:0:0:
256,192,1096,1,0,0:0:0:0:
256,192,1582,1,0,0:0:0:0:
256,192,1907,1,8,0:0:0:0:
256,192,2231,1,8,0:0:0:0:
256,192,2393,1,0,0:0:0:0:
256,192,2718,1,0,0:0:0:0:
256,192,2880,1,8,0:0:0:0:
256,192,3204,1,8,0:0:0:0:
256,192,3528,1,8,0:0:0:0:
256,192,3691,1,0,0:0:0:0:
256,192,4177,1,0,0:0:0:0:
256,192,4501,1,8,0:0:0:0:
256,192,4826,1,8,0:0:0:0:
256,192,5150,1,8,0:0:0:0:
256,192,5474,1,4,0:0:0:0:
256,192,5799,1,12,0:0:0:0:
256,192,6123,1,8,0:0:0:0:
256,192,6285,1,0,0:0:0:0:
256,192,6447,1,8,0:0:0:0:
256,192,6528,1,8,0:0:0:0:
256,192,6609,1,8,0:0:0:0:
256,192,6934,1,8,0:0:0:0:
256,192,7258,1,0,0:0:0:0:
256,192,7582,1,0,0:0:0:0:
256,192,7745,1,8,0:0:0:0:
256,192,7907,1,0,0:0:0:0:
256,192,8231,1,0,0:0:0:0:
256,192,8393,1,8,0:0:0:0:
256,192,8718,1,8,0:0:0:0:
256,192,8880,1,0,0:0:0:0:
256,192,9042,1,8,0:0:0:0:
256,192,9123,1,8,0:0:0:0:
256,192,9204,1,8,0:0:0:0:
256,192,9528,1,8,0:0:0:0:
256,192,9853,1,0,0:0:0:0:
256,192,10177,1,8,0:0:0:0:
256,192,10664,1,0,0:0:0:0:
256,192,10988,1,8,0:0:0:0:
256,192,11312,1,8,0:0:0:0:
256,192,11474,1,0,0:0:0:0:
256,192,11637,1,8,0:0:0:0:
256,192,11718,1,8,0:0:0:0:
256,192,11799,1,8,0:0:0:0:
256,192,12123,1,8,0:0:0:0:
256,192,12447,1,0,0:0:0:0:
256,192,12772,1,0,0:0:0:0:
256,192,13096,1,8,0:0:0:0:
256,192,13420,1,0,0:0:0:0:
256,192,13582,1,8,0:0:0:0:
256,192,13907,1,8,0:0:0:0:
256,192,14069,1,8,0:0:0:0:
256,192,14231,1,0,0:0:0:0:
256,192,14393,1,8,0:0:0:0:
256,192,14555,1,8,0:0:0:0:
256,192,14880,1,8,0:0:0:0:
256,192,15042,1,0,0:0:0:0:
256,192,15204,1,8,0:0:0:0:
256,192,15366,1,0,0:0:0:0:
256,192,15528,1,8,0:0:0:0:
256,192,15609,1,8,0:0:0:0:
256,192,15691,1,8,0:0:0:0:
256,192,15853,1,0,0:0:0:0:
256,192,16177,1,12,0:0:0:0:
256,192,16501,1,0,0:0:0:0:
256,192,16826,1,8,0:0:0:0:
256,192,16988,1,0,0:0:0:0:
256,192,17150,1,8,0:0:0:0:
256,192,17312,1,8,0:0:0:0:
256,192,17474,1,0,0:0:0:0:
256,192,17799,1,0,0:0:0:0:
256,192,18123,1,0,0:0:0:0:
256,192,18772,1,0,0:0:0:0:
256,192,19096,1,8,0:0:0:0:
256,192,19420,1,0,0:0:0:0:
256,192,19582,1,8,0:0:0:0:
256,192,19745,1,0,0:0:0:0:
256,192,19907,1,0,0:0:0:0:
256,192,20069,1,8,0:0:0:0:
256,192,20393,1,8,0:0:0:0:
256,192,20718,1,8,0:0:0:0:
256,192,21366,1,8,0:0:0:0:
256,192,21691,1,0,0:0:0:0:
256,192,22015,1,8,0:0:0:0:
256,192,22177,1,8,0:0:0:0:
256,192,22339,1,0,0:0:0:0:
256,192,22501,1,0,0:0:0:0:
256,192,22664,1,8,0:0:0:0:
256,192,22988,1,8,0:0:0:0:
256,192,23312,1,8,0:0:0:0:
256,192,23961,1,8,0:0:0:0:
256,192,24123,1,0,0:0:0:0:
256,192,24285,1,0,0:0:0:0:
256,192,24447,1,8,0:0:0:0:
256,192,24609,1,0,0:0:0:0:
256,192,24934,1,8,0:0:0:0:
256,192,25096,1,8,0:0:0:0:
256,192,25258,1,0,0:0:0:0:
256,192,25582,1,0,0:0:0:0:
256,192,25745,1,8,0:0:0:0:
256,192,25907,1,0,0:0:0:0:
256,192,26231,1,12,0:0:0:0:
256,192,26555,1,4,0:0:0:0:
256,192,26718,1,8,0:0:0:0:
256,192,26799,1,8,0:0:0:0:
256,192,26880,1,8,0:0:0:0:
256,192,27042,1,8,0:0:0:0:
256,192,27204,1,0,0:0:0:0:
256,192,27366,1,8,0:0:0:0:
256,192,27691,1,0,0:0:0:0:
256,192,27853,1,8,0:0:0:0:
256,192,28177,1,8,0:0:0:0:
256,192,28339,1,0,0:0:0:0:
256,192,28664,1,8,0:0:0:0:
256,192,28826,1,8,0:0:0:0:
256,192,29312,1,8,0:0:0:0:
256,192,29393,1,8,0:0:0:0:
256,192,29474,1,8,0:0:0:0:
256,192,29637,1,8,0:0:0:0:
256,192,29799,1,0,0:0:0:0:
256,192,29961,1,8,0:0:0:0:
256,192,30285,1,0,0:0:0:0:
256,192,30447,1,8,0:0:0:0:
256,192,30772,1,8,0:0:0:0:
256,192,30934,1,8,0:0:0:0:
256,192,31258,1,0,0:0:0:0:
256,192,31420,1,8,0:0:0:0:
256,192,31745,1,12,0:0:0:0:
256,192,32069,1,0,0:0:0:0:
256,192,32231,1,0,0:0:0:0:
256,192,32393,1,8,0:0:0:0:
256,192,32555,1,0,0:0:0:0:
256,192,32718,1,8,0:0:0:0:
256,192,33042,1,8,0:0:0:0:
256,192,33366,1,0,0:0:0:0:
256,192,33528,1,0,0:0:0:0:
256,192,33691,1,8,0:0:0:0:
256,192,34339,1,0,0:0:0:0:
256,192,34664,1,8,0:0:0:0:
256,192,34826,1,8,0:0:0:0:
256,192,34988,1,0,0:0:0:0:
256,192,35150,1,8,0:0:0:0:
256,192,35312,1,0,0:0:0:0:
256,192,35637,1,8,0:0:0:0:
256,192,35961,1,0,0:0:0:0:
256,192,36123,1,8,0:0:0:0:
256,192,36285,1,0,0:0:0:0:
256,192,36934,1,8,0:0:0:0:
256,192,37096,1,8,0:0:0:0:
256,192,37258,1,0,0:0:0:0:
256,192,37420,1,8,0:0:0:0:
256,192,37582,1,8,0:0:0:0:
256,192,37907,1,0,0:0:0:0:
256,192,38069,1,0,0:0:0:0:
256,192,38231,1,8,0:0:0:0:
256,192,38555,1,8,0:0:0:0:
256,192,38880,1,8,0:0:0:0:
256,192,39528,1,8,0:0:0:0:
256,192,39691,1,0,0:0:0:0:
256,192,39853,1,0,0:0:0:0:
256,192,40015,1,8,0:0:0:0:
256,192,40177,1,8,0:0:0:0:
256,192,40501,1,8,0:0:0:0:
256,192,40664,1,8,0:0:0:0:
256,192,40826,1,0,0:0:0:0:
256,192,40907,1,0,0:0:0:0:
256,192,40988,1,0,0:0:0:0:
256,192,41150,1,8,0:0:0:0:
256,192,41231,1,8,0:0:0:0:
256,192,41312,1,8,0:0:0:0:
256,192,41474,1,0,0:0:0:0:
256,192,41799,1,12,0:0:0:0:
256,192,42123,1,4,0:0:0:0:
256,192,42447,1,8,0:0:0:0:
256,192,42609,1,0,0:0:0:0:
256,192,42772,1,8,0:0:0:0:
256,192,43420,1,0,0:0:0:0:
256,192,43582,1,8,0:0:0:0:
256,192,43745,1,0,0:0:0:0:
256,192,43907,1,0,0:0:0:0:
256,192,44069,1,8,0:0:0:0:
256,192,44718,1,0,0:0:0:0:
256,192,44880,1,8,0:0:0:0:
256,192,45042,1,0,0:0:0:0:
256,192,45204,1,8,0:0:0:0:
256,192,45366,1,0,0:0:0:0:
256,192,46015,1,0,0:0:0:0:
256,192,46177,1,8,0:0:0:0:
256,192,46339,1,0,0:0:0:0:
256,192,46664,1,8,0:0:0:0:
256,192,46988,1,4,0:0:0:0:
256,192,47312,1,12,0:0:0:0:
256,192,47637,1,0,0:0:0:0:
256,192,47799,1,0,0:0:0:0:
256,192,47961,1,8,0:0:0:0:
256,192,48609,1,8,0:0:0:0:
256,192,48934,1,8,0:0:0:0:
256,192,49096,1,8,0:0:0:0:
256,192,49258,1,8,0:0:0:0:
256,192,49907,1,0,0:0:0:0:
256,192,50231,1,8,0:0:0:0:
256,192,50393,1,8,0:0:0:0:
256,192,50555,1,0,0:0:0:0:
256,192,50718,1,8,0:0:0:0:
256,192,50880,1,8,0:0:0:0:
256,192,51204,1,0,0:0:0:0:
256,192,51528,1,0,0:0:0:0:
256,192,51853,1,8,0:0:0:0:
256,192,52177,1,4,0:0:0:0:
256,192,52501,1,0,0:0:0:0:
256,192,52664,1,0,0:0:0:0:
256,192,52988,1,8,0:0:0:0:
256,192,53150,1,8,0:0:0:0:
256,192,53474,1,0,0:0:0:0:
256,192,53637,1,0,0:0:0:0:
256,192,53961,1,8,0:0:0:0:
256,192,54123,1,8,0:0:0:0:
256,192,54772,1,12,0:0:0:0:
256,192,55096,1,4,0:0:0:0:
256,192,55420,1,0,0:0:0:0:
256,192,55582,1,0,0:0:0:0:
256,192,55745,1,0,0:0:0:0:
256,192,56231,1,8,0:0:0:0:
256,192,56555,1,8,0:0:0:0:
256,192,56718,1,0,0:0:0:0:
256,192,56799,1,0,0:0:0:0:
256,192,56880,1,0,0:0:0:0:
256,192,57042,1,8,0:0:0:0:
256,192,57204,1,0,0:0:0:0:
256,192,57366,1,8,0:0:0:0:
256,192,57691,1,0,0:0:0:0:
256,192,58015,1,0,0:0:0:0:
256,192,58177,1,8,0:0:0:0:
256,192,58339,1,0,0:0:0:0:
256,192,58664,1,8,0:0:0:0:
256,192,58826,1,0,0:0:0:0:
256,192,58988,1,8,0:0:0:0:
256,192,59150,1,8,0:0:0:0:
256,192,59312,1,0,0:0:0:0:
256,192,59474,1,0,0:0:0:0:
256,192,59637,1,8,0:0:0:0:
256,192,59961,1,12,0:0:0:0:
256,192,60285,1,0,0:0:0:0:
256,192,60609,1,0,0:0:0:0:
256,192,60772,1,0,0:0:0:0:
256,192,60934,1,0,0:0:0:0:
256,192,61420,1,8,0:0:0:0:
256,192,61745,1,8,0:0:0:0:
256,192,61907,1,0,0:0:0:0:
256,192,62069,1,8,0:0:0:0:
256,192,62231,1,0,0:0:0:0:
256,192,62312,1,0,0:0:0:0:
256,192,62393,1,0,0:0:0:0:
256,192,62555,1,8,0:0:0:0:
256,192,62880,1,12,0:0:0:0:
256,192,63204,1,0,0:0:0:0:
256,192,63366,1,0,0:0:0:0:
256,192,63528,1,12,0:0:0:0:
256,192,63853,1,0,0:0:0:0:
256,192,64177,1,12,0:0:0:0:
256,192,64501,1,8,0:0:0:0:
256,192,64826,1,0,0:0:0:0:
256,192,65150,1,12,0:0:0:0:
256,192,65474,1,4,0:0:0:0:
256,192,65799,1,0,0:0:0:0:
256,192,65961,1,0,0:0:0:0:
256,192,66123,1,0,0:0:0:0:
256,192,66609,1,8,0:0:0:0:
256,192,66934,1,8,0:0:0:0:
256,192,67096,1,0,0:0:0:0:
256,192,67177,1,0,0:0:0:0:
256,192,67258,1,0,0:0:0:0:
256,192,67420,1,8,0:0:0:0:
256,192,67582,1,0,0:0:0:0:
256,192,67745,1,8,0:0:0:0:
256,192,68069,1,0,0:0:0:0:
256,192,68393,1,0,0:0:0:0:
256,192,68555,1,8,0:0:0:0:
256,192,68718,1,0,0:0:0:0:
256,192,69042,1,8,0:0:0:0:
256,192,69204,1,0,0:0:0:0:
256,192,69366,1,8,0:0:0:0:
256,192,69447,1,8,0:0:0:0:
256,192,69528,1,8,0:0:0:0:
256,192,69691,1,0,0:0:0:0:
256,192,69853,1,0,0:0:0:0:
256,192,70015,1,8,0:0:0:0:
256,192,70339,1,12,0:0:0:0:
256,192,70664,1,0,0:0:0:0:
256,192,70988,1,0,0:0:0:0:
256,192,71150,1,0,0:0:0:0:
256,192,71312,1,0,0:0:0:0:
256,192,71799,1,8,0:0:0:0:
256,192,72123,1,8,0:0:0:0:
256,192,72285,1,0,0:0:0:0:
256,192,72447,1,8,0:0:0:0:
256,192,72609,1,0,0:0:0:0:
256,192,72691,1,0,0:0:0:0:
256,192,72772,1,0,0:0:0:0:
256,192,72934,1,8,0:0:0:0:
256,192,73258,1,12,0:0:0:0:
256,192,73582,1,0,0:0:0:0:
256,192,73907,1,12,0:0:0:0:
256,192,74069,1,8,0:0:0:0:
256,192,74231,1,0,0:0:0:0:
256,192,74393,1,0,0:0:0:0:
256,192,74555,1,12,0:0:0:0:
256,192,74880,1,8,0:0:0:0:
256,192,75204,1,0,0:0:0:0:
256,192,75528,1,12,0:0:0:0:
256,192,75853,1,12,0:0:0:0:
256,192,76177,1,0,0:0:0:0:
256,192,76501,1,12,0:0:0:0:
256,192,76826,1,0,0:0:0:0:
256,192,76988,1,0,0:0:0:0:
256,192,77150,1,12,0:0:0:0:
256,192,77474,1,8,0:0:0:0:
256,192,77799,1,0,0:0:0:0:
256,192,78123,1,12,0:0:0:0:
256,192,78447,1,12,0:0:0:0:
256,192,78772,1,0,0:0:0:0:
256,192,78934,1,0,0:0:0:0:
256,192,79096,1,12,0:0:0:0:
256,192,79420,1,8,0:0:0:0:
256,192,79745,1,4,0:0:0:0:
256,192,80069,1,0,0:0:0:0:
256,192,80231,1,8,0:0:0:0:
256,192,80393,1,0,0:0:0:0:
256,192,80555,1,8,0:0:0:0:
256,192,80718,1,0,0:0:0:0:
256,192,80880,1,0,0:0:0:0:
256,192,81042,1,8,0:0:0:0:
256,192,81123,1,8,0:0:0:0:
256,192,81204,1,8,0:0:0:0:
256,192,81366,1,0,0:0:0:0:
256,192,81447,1,0,0:0:0:0:
256,192,81528,1,0,0:0:0:0:
256,192,81691,1,8,0:0:0:0:
256,192,82015,1,4,0:0:0:0:
256,192,82339,1,12,0:0:0:0:
256,192,82664,1,8,0:0:0:0:
256,192,82826,1,0,0:0:0:0:
256,192,82988,1,8,0:0:0:0:
256,192,83069,1,8,0:0:0:0:
256,192,83150,1,8,0:0:0:0:
256,192,83312,1,0,0:0:0:0:
256,192,83474,1,8,0:0:0:0:
256,192,83799,1,0,0:0:0:0:
256,192,84123,1,0,0:0:0:0:
256,192,84285,1,8,0:0:0:0:
256,192,84447,1,0,0:0:0:0:
256,192,84772,1,0,0:0:0:0:
256,192,84934,1,8,0:0:0:0:
256,192,85258,1,8,0:0:0:0:
256,192,85420,1,0,0:0:0:0:
256,192,85582,1,8,0:0:0:0:
256,192,85664,1,8,0:0:0:0:
256,192,85745,1,8,0:0:0:0:
256,192,85907,1,0,0:0:0:0:
256,192,86069,1,8,0:0:0:0:
256,192,86393,1,0,0:0:0:0:
256,192,86718,1,8,0:0:0:0:
256,192,87204,1,0,0:0:0:0:
256,192,87528,1,8,0:0:0:0:
256,192,87853,1,8,0:0:0:0:
256,192,88015,1,0,0:0:0:0:
256,192,88177,1,8,0:0:0:0:
256,192,88258,1,8,0:0:0:0:
256,192,88339,1,8,0:0:0:0:
256,192,88501,1,0,0:0:0:0:
256,192,88664,1,8,0:0:0:0:
256,192,88988,1,0,0:0:0:0:
256,192,89312,1,0,0:0:0:0:
256,192,89637,1,8,0:0:0:0:
256,192,89961,1,0,0:0:0:0:
256,192,90123,1,8,0:0:0:0:
256,192,90447,1,8,0:0:0:0:
256,192,90609,1,8,0:0:0:0:
256,192,90772,1,0,0:0:0:0:
256,192,90934,1,8,0:0:0:0:
256,192,91096,1,8,0:0:0:0:
256,192,91420,1,8,0:0:0:0:
256,192,91582,1,0,0:0:0:0:
256,192,91745,1,8,0:0:0:0:
256,192,91907,1,0,0:0:0:0:
256,192,92069,1,8,0:0:0:0:
256,192,92150,1,8,0:0:0:0:
256,192,92231,1,8,0:0:0:0:
256,192,92393,1,0,0:0:0:0:
256,192,92718,1,8,0:0:0:0:
256,192,92880,1,8,0:0:0:0:
256,192,93204,1,0,0:0:0:0:
256,192,93366,1,0,0:0:0:0:
256,192,93691,1,8,0:0:0:0:
256,192,93853,1,8,0:0:0:0:
256,192,94177,1,0,0:0:0:0:
256,192,94339,1,0,0:0:0:0:
256,192,94664,1,8,0:0:0:0:
256,192,94826,1,8,0:0:0:0:
256,192,95150,1,4,0:0:0:0:
256,192,95312,12,0,97258,0:0:0:0:
