osu file format v14

[General]
AudioFilename: audio.mp3
AudioLeadIn: 0
PreviewTime: 55096
Countdown: 0
SampleSet: Soft
StackLeniency: 0.7
Mode: 3
LetterboxInBreaks: 0
SpecialStyle: 0
WidescreenStoryboard: 0

[Editor]
DistanceSpacing: 0.8
BeatDivisor: 5
GridSize: 32
TimelineZoom: 2

[Metadata]
Title:Yappari Mya-nee Number One (Cut Ver.)
TitleUnicode:やっぱりみゃー姉なんばーわん (Cut Ver.)
Artist:Hoshino Hinata (CV: Nagae Rika)
ArtistUnicode:星野ひなた (CV: 長江里加)
Creator:Seiran-
Version:LN NO.1!
Source:私に天使が舞い降りた!
Tags:KinoHimari keksikosu Ainer Cut Version Short No. 1 Loli cute voice Character Song みやこ Miyako Neechan Wataten! An Angel Flew Down to Me Watashi ni Tenshi ga Maiorita! ~天使のうたごえ~ ~Tenshi no Utagoe~ Track 02 Ayato Shinozaki Ryosuke Tachibana 橘亮祐 篠崎あやと Anime Japanese Pop Jpop
BeatmapID:4422858
BeatmapSetID:2107491

[Difficulty]
HPDrainRate:8.5
CircleSize:4
OverallDifficulty:7.5
ApproachRate:5
SliderMultiplier:1.4
SliderTickRate:1

[Events]
//Background and Video events
0,0,"MyaneeYabariKawaiiSo.jpg",0,0
//Break Periods
//Storyboard Layer 0 (Background)
//Storyboard Layer 1 (Fail)
//Storyboard Layer 2 (Pass)
//Storyboard Layer 3 (Foreground)
//Storyboard Layer 4 (Overlay)
//Storyboard Sound Samples

[TimingPoints]
610,324.324324324324,4,2,1,20,1,0

[HitObjects]
320,192,610,5,0,0:0:0:0:
448,192,610,1,0,0:0:0:0:
64,192,610,128,0,772:0:0:0:0:
192,192,772,1,0,0:0:0:0:
320,192,853,1,0,0:0:0:0:
64,192,934,1,0,0:0:0:0:
448,192,934,128,0,1096:0:0:0:0:
320,192,1096,128,0,1177:0:0:0:0:
192,192,1177,1,0,0:0:0:0:
448,192,1258,1,0,0:0:0:0:
192,192,1420,128,0,1582:0:0:0:0:
320,192,1501,1,0,0:0:0:0:
448,192,1582,1,0,0:0:0:0:
64,192,1582,128,0,1745:0:0:0:0:
192,192,1745,128,0,1907:0:0:0:0:
320,192,1826,1,0,0:0:0:0:
64,192,1907,128,0,2069:0:0:0:0:
192,192,2069,1,0,0:0:0:0:
320,192,2150,1,0,0:0:0:0:
64,192,2231,1,0,0:0:0:0:
448,192,2231,128,0,2393:0:0:0:0:
320,192,2393,128,0,2474:0:0:0:0:
192,192,2474,1,0,0:0:0:0:
448,192,2555,1,0,0:0:0:0:
320,192,2718,128,0,2880:0:0:0:0:
192,192,2799,1,0,0:0:0:0:
448,192,2880,128,0,3042:0:0:0:0:
64,192,2880,1,0,0:0:0:0:
320,192,3042,128,0,3204:0:0:0:0:
192,192,3123,1,0,0:0:0:0:
448,192,3204,128,0,3366:0:0:0:0:
192,192,3366,1,0,0:0:0:0:
320,192,3447,1,0,0:0:0:0:
448,192,3528,1,0,0:0:0:0:
64,192,3528,128,0,3691:0:0:0:0:
192,192,3691,128,0,3772:0:0:0:0:
320,192,3772,1,0,0:0:0:0:
448,192,3853,1,0,0:0:0:0:
192,192,4015,128,0,4177:0:0:0:0:
320,192,4096,1,0,0:0:0:0:
64,192,4177,128,0,4339:0:0:0:0:
448,192,4177,1,0,0:0:0:0:
192,192,4339,128,0,4501:0:0:0:0:
320,192,4420,1,0,0:0:0:0:
64,192,4501,128,0,4664:0:0:0:0:
320,192,4664,1,0,0:0:0:0:
192,192,4745,1,0,0:0:0:0:
448,192,4826,1,0,0:0:0:0:
64,192,4826,128,0,4988:0:0:0:0:
320,192,4988,1,0,0:0:0:0:
192,192,5069,1,0,0:0:0:0:
64,192,5150,128,0,5312:0:0:0:0:
64,192,5474,128,0,5718:0:0:0:0:
448,192,5474,128,0,5718:0:0:0:0:
192,192,5474,1,0,0:0:0:0:
320,192,5474,1,0,0:0:0:0:
64,192,5799,128,0,5961:0:0:0:0:
320,192,5799,1,0,0:0:0:0:
448,192,5799,128,0,6204:0:0:0:0:
192,192,5961,1,0,0:0:0:0:
320,192,6042,1,0,0:0:0:0:
192,192,6123,1,0,0:0:0:0:
64,192,6123,128,0,6366:0:0:0:0:
320,192,6285,1,0,0:0:0:0:
448,192,6285,1,0,0:0:0:0:
448,192,6447,128,0,6691:0:0:0:0:
64,192,6447,1,0,0:0:0:0:
320,192,6528,128,0,6691:0:0:0:0:
192,192,6609,128,0,6691:0:0:0:0:
64,192,6609,128,0,6691:0:0:0:0:
192,192,6772,1,0,0:0:0:0:
64,192,6772,1,0,0:0:0:0:
448,192,6772,1,0,0:0:0:0:
320,192,6934,1,0,0:0:0:0:
192,192,6934,1,0,0:0:0:0:
320,192,7096,1,0,0:0:0:0:
448,192,7096,128,0,7177:0:0:0:0:
64,192,7096,128,0,7501:0:0:0:0:
192,192,7258,1,0,0:0:0:0:
448,192,7258,1,0,0:0:0:0:
320,192,7420,1,0,0:0:0:0:
448,192,7420,128,0,7664:0:0:0:0:
192,192,7582,1,0,0:0:0:0:
64,192,7582,1,0,0:0:0:0:
64,192,7745,128,0,7988:0:0:0:0:
448,192,7745,1,0,0:0:0:0:
192,192,7826,128,0,7988:0:0:0:0:
320,192,7907,128,0,7988:0:0:0:0:
448,192,7907,128,0,7988:0:0:0:0:
192,192,8069,1,0,0:0:0:0:
64,192,8069,1,0,0:0:0:0:
448,192,8069,1,0,0:0:0:0:
192,192,8231,1,0,0:0:0:0:
448,192,8231,1,0,0:0:0:0:
320,192,8393,1,0,0:0:0:0:
64,192,8393,128,0,8555:0:0:0:0:
448,192,8474,1,0,0:0:0:0:
320,192,8555,1,0,0:0:0:0:
192,192,8718,128,0,8880:0:0:0:0:
448,192,8718,1,0,0:0:0:0:
64,192,8718,1,0,0:0:0:0:
320,192,8799,1,0,0:0:0:0:
448,192,8880,1,0,0:0:0:0:
448,192,9042,128,0,9204:0:0:0:0:
64,192,9042,1,0,0:0:0:0:
192,192,9123,1,0,0:0:0:0:
320,192,9204,1,0,0:0:0:0:
448,192,9366,1,0,0:0:0:0:
64,192,9366,128,0,9609:0:0:0:0:
192,192,9366,1,0,0:0:0:0:
320,192,9447,1,0,0:0:0:0:
192,192,9528,128,0,9609:0:0:0:0:
192,192,9691,128,0,9934:0:0:0:0:
448,192,9691,128,0,9772:0:0:0:0:
448,192,9853,128,0,10177:0:0:0:0:
320,192,9934,1,0,0:0:0:0:
64,192,10015,1,0,0:0:0:0:
192,192,10015,128,0,10177:0:0:0:0:
320,192,10177,1,0,0:0:0:0:
192,192,10258,1,0,0:0:0:0:
320,192,10339,128,0,10420:0:0:0:0:
448,192,10339,128,0,10582:0:0:0:0:
64,192,10339,128,0,10664:0:0:0:0:
192,192,10420,128,0,10501:0:0:0:0:
320,192,10501,128,0,10582:0:0:0:0:
192,192,10582,128,0,10664:0:0:0:0:
320,192,10664,1,0,0:0:0:0:
448,192,10664,1,0,0:0:0:0:
192,192,10745,1,0,0:0:0:0:
448,192,10826,1,0,0:0:0:0:
192,192,10907,1,0,0:0:0:0:
64,192,10988,128,0,11150:0:0:0:0:
320,192,10988,1,0,0:0:0:0:
448,192,10988,128,0,11393:0:0:0:0:
192,192,11150,1,0,0:0:0:0:
320,192,11231,1,0,0:0:0:0:
192,192,11312,1,0,0:0:0:0:
64,192,11312,128,0,11555:0:0:0:0:
320,192,11474,1,0,0:0:0:0:
448,192,11474,1,0,0:0:0:0:
448,192,11637,128,0,11880:0:0:0:0:
64,192,11637,1,0,0:0:0:0:
320,192,11718,128,0,11880:0:0:0:0:
192,192,11799,128,0,11880:0:0:0:0:
64,192,11799,128,0,11880:0:0:0:0:
192,192,11961,1,0,0:0:0:0:
64,192,11961,1,0,0:0:0:0:
448,192,11961,1,0,0:0:0:0:
320,192,12123,1,0,0:0:0:0:
192,192,12123,1,0,0:0:0:0:
320,192,12285,1,0,0:0:0:0:
448,192,12285,128,0,12366:0:0:0:0:
64,192,12285,128,0,12691:0:0:0:0:
192,192,12447,1,0,0:0:0:0:
448,192,12447,1,0,0:0:0:0:
448,192,12609,128,0,12934:0:0:0:0:
320,192,12609,1,0,0:0:0:0:
192,192,12772,1,0,0:0:0:0:
64,192,12772,1,0,0:0:0:0:
320,192,12934,1,0,0:0:0:0:
64,192,12934,128,0,13177:0:0:0:0:
192,192,13015,128,0,13177:0:0:0:0:
320,192,13096,128,0,13177:0:0:0:0:
448,192,13096,128,0,13177:0:0:0:0:
192,192,13258,1,0,0:0:0:0:
64,192,13258,1,0,0:0:0:0:
448,192,13258,1,0,0:0:0:0:
192,192,13420,1,0,0:0:0:0:
448,192,13420,1,0,0:0:0:0:
320,192,13582,128,0,13745:0:0:0:0:
64,192,13582,128,0,13907:0:0:0:0:
192,192,13745,1,0,0:0:0:0:
192,192,13907,128,0,14069:0:0:0:0:
320,192,13907,1,0,0:0:0:0:
448,192,13907,128,0,14231:0:0:0:0:
64,192,14069,128,0,14393:0:0:0:0:
320,192,14231,128,0,14393:0:0:0:0:
192,192,14231,1,0,0:0:0:0:
448,192,14393,128,0,14555:0:0:0:0:
320,192,14555,1,0,0:0:0:0:
64,192,14555,1,0,0:0:0:0:
192,192,14555,1,0,0:0:0:0:
320,192,14718,128,0,14880:0:0:0:0:
64,192,14880,128,0,15042:0:0:0:0:
192,192,14880,128,0,15042:0:0:0:0:
320,192,15042,128,0,15366:0:0:0:0:
64,192,15204,1,0,0:0:0:0:
192,192,15204,128,0,15528:0:0:0:0:
448,192,15204,1,0,0:0:0:0:
448,192,15366,128,0,15691:0:0:0:0:
320,192,15528,128,0,15609:0:0:0:0:
64,192,15528,128,0,15691:0:0:0:0:
192,192,15609,128,0,15772:0:0:0:0:
320,192,15691,128,0,15853:0:0:0:0:
448,192,15772,128,0,15934:0:0:0:0:
64,192,15853,1,0,0:0:0:0:
192,192,15853,128,0,16096:0:0:0:0:
320,192,15934,128,0,16015:0:0:0:0:
64,192,16015,128,0,16177:0:0:0:0:
320,192,16177,1,0,0:0:0:0:
448,192,16177,1,0,0:0:0:0:
192,192,16258,1,0,0:0:0:0:
64,192,16339,1,0,0:0:0:0:
320,192,16420,1,0,0:0:0:0:
64,192,16501,1,0,0:0:0:0:
448,192,16501,1,0,0:0:0:0:
192,192,16582,1,0,0:0:0:0:
320,192,16664,1,0,0:0:0:0:
64,192,16745,1,0,0:0:0:0:
448,192,16826,1,0,0:0:0:0:
320,192,16826,1,0,0:0:0:0:
192,192,16907,1,0,0:0:0:0:
64,192,16988,1,0,0:0:0:0:
320,192,17069,1,0,0:0:0:0:
448,192,17150,1,0,0:0:0:0:
64,192,17150,1,0,0:0:0:0:
192,192,17231,1,0,0:0:0:0:
320,192,17312,1,0,0:0:0:0:
64,192,17393,1,0,0:0:0:0:
320,192,17474,128,0,17555:0:0:0:0:
448,192,17474,128,0,17718:0:0:0:0:
192,192,17637,1,0,0:0:0:0:
320,192,17718,1,0,0:0:0:0:
192,192,17799,128,0,17880:0:0:0:0:
64,192,17799,128,0,18042:0:0:0:0:
448,192,17799,1,0,0:0:0:0:
320,192,17961,1,0,0:0:0:0:
192,192,18042,1,0,0:0:0:0:
320,192,18123,128,0,18204:0:0:0:0:
448,192,18123,128,0,18366:0:0:0:0:
192,192,18285,1,0,0:0:0:0:
320,192,18366,1,0,0:0:0:0:
192,192,18447,1,0,0:0:0:0:
64,192,18447,1,0,0:0:0:0:
448,192,18447,1,0,0:0:0:0:
320,192,18609,1,0,0:0:0:0:
192,192,18772,1,0,0:0:0:0:
64,192,18772,1,0,0:0:0:0:
320,192,18853,1,0,0:0:0:0:
448,192,18934,1,0,0:0:0:0:
192,192,19015,1,0,0:0:0:0:
448,192,19096,1,0,0:0:0:0:
64,192,19096,1,0,0:0:0:0:
320,192,19177,1,0,0:0:0:0:
192,192,19258,1,0,0:0:0:0:
448,192,19339,1,0,0:0:0:0:
64,192,19420,1,0,0:0:0:0:
192,192,19420,1,0,0:0:0:0:
320,192,19501,1,0,0:0:0:0:
448,192,19582,1,0,0:0:0:0:
192,192,19664,1,0,0:0:0:0:
64,192,19745,1,0,0:0:0:0:
448,192,19745,1,0,0:0:0:0:
320,192,19826,1,0,0:0:0:0:
192,192,19907,1,0,0:0:0:0:
448,192,19988,1,0,0:0:0:0:
192,192,20069,128,0,20150:0:0:0:0:
64,192,20069,128,0,20231:0:0:0:0:
320,192,20231,1,0,0:0:0:0:
192,192,20312,1,0,0:0:0:0:
320,192,20393,128,0,20474:0:0:0:0:
448,192,20393,128,0,20555:0:0:0:0:
64,192,20393,1,0,0:0:0:0:
192,192,20555,1,0,0:0:0:0:
320,192,20637,1,0,0:0:0:0:
192,192,20718,128,0,20799:0:0:0:0:
64,192,20718,128,0,20880:0:0:0:0:
320,192,20880,1,0,0:0:0:0:
192,192,20961,1,0,0:0:0:0:
320,192,21042,1,0,0:0:0:0:
448,192,21042,1,0,0:0:0:0:
64,192,21042,1,0,0:0:0:0:
192,192,21204,1,0,0:0:0:0:
64,192,21366,1,0,0:0:0:0:
448,192,21366,1,0,0:0:0:0:
320,192,21447,1,0,0:0:0:0:
192,192,21528,1,0,0:0:0:0:
448,192,21609,1,0,0:0:0:0:
192,192,21691,1,0,0:0:0:0:
320,192,21691,1,0,0:0:0:0:
64,192,21772,1,0,0:0:0:0:
320,192,21853,1,0,0:0:0:0:
192,192,21934,1,0,0:0:0:0:
64,192,22015,1,0,0:0:0:0:
448,192,22015,1,0,0:0:0:0:
320,192,22096,1,0,0:0:0:0:
192,192,22177,1,0,0:0:0:0:
448,192,22258,5,0,0:0:0:0:
192,192,22339,1,0,0:0:0:0:
64,192,22339,1,0,0:0:0:0:
320,192,22420,1,0,0:0:0:0:
448,192,22501,1,0,0:0:0:0:
192,192,22582,1,0,0:0:0:0:
64,192,22664,128,0,22745:0:0:0:0:
448,192,22664,128,0,22826:0:0:0:0:
192,192,22745,128,0,22826:0:0:0:0:
64,192,22826,128,0,22907:0:0:0:0:
448,192,22988,128,0,23069:0:0:0:0:
64,192,22988,128,0,23150:0:0:0:0:
192,192,22988,1,0,0:0:0:0:
320,192,23069,128,0,23150:0:0:0:0:
448,192,23150,128,0,23231:0:0:0:0:
64,192,23312,128,0,23393:0:0:0:0:
448,192,23312,128,0,23474:0:0:0:0:
192,192,23393,128,0,23474:0:0:0:0:
64,192,23474,128,0,23555:0:0:0:0:
64,192,23637,1,0,0:0:0:0:
448,192,23637,1,0,0:0:0:0:
192,192,23637,1,0,0:0:0:0:
320,192,23799,1,0,0:0:0:0:
448,192,23961,128,0,24204:0:0:0:0:
192,192,23961,128,0,24042:0:0:0:0:
320,192,24123,128,0,24204:0:0:0:0:
192,192,24204,128,0,24285:0:0:0:0:
320,192,24285,128,0,24528:0:0:0:0:
448,192,24285,128,0,24366:0:0:0:0:
64,192,24285,1,0,0:0:0:0:
192,192,24447,128,0,24528:0:0:0:0:
192,192,24609,128,0,24853:0:0:0:0:
64,192,24609,128,0,24691:0:0:0:0:
320,192,24772,1,0,0:0:0:0:
448,192,24853,1,0,0:0:0:0:
64,192,24934,128,0,25177:0:0:0:0:
320,192,24934,128,0,25015:0:0:0:0:
192,192,24934,1,0,0:0:0:0:
192,192,25096,128,0,25177:0:0:0:0:
320,192,25258,128,0,25339:0:0:0:0:
448,192,25258,128,0,25501:0:0:0:0:
320,192,25420,1,0,0:0:0:0:
192,192,25501,1,0,0:0:0:0:
320,192,25582,1,0,0:0:0:0:
64,192,25582,1,0,0:0:0:0:
448,192,25582,128,0,25826:0:0:0:0:
320,192,25745,128,0,25826:0:0:0:0:
192,192,25826,1,0,0:0:0:0:
448,192,25907,128,0,26231:0:0:0:0:
320,192,25907,128,0,26069:0:0:0:0:
320,192,26231,1,0,0:0:0:0:
192,192,26231,1,0,0:0:0:0:
64,192,26231,1,0,0:0:0:0:
448,192,26555,128,0,26799:0:0:0:0:
192,192,26555,128,0,26718:0:0:0:0:
64,192,26555,1,0,0:0:0:0:
320,192,26718,128,0,26799:0:0:0:0:
64,192,26718,128,0,26799:0:0:0:0:
192,192,26799,128,0,26880:0:0:0:0:
64,192,26880,128,0,27123:0:0:0:0:
448,192,26880,128,0,27123:0:0:0:0:
320,192,26880,1,0,0:0:0:0:
320,192,27042,128,0,27123:0:0:0:0:
192,192,27042,128,0,27123:0:0:0:0:
192,192,27204,128,0,27447:0:0:0:0:
448,192,27204,1,0,0:0:0:0:
320,192,27204,128,0,27285:0:0:0:0:
64,192,27366,128,0,27447:0:0:0:0:
320,192,27447,128,0,27609:0:0:0:0:
192,192,27528,128,0,27609:0:0:0:0:
448,192,27528,1,0,0:0:0:0:
64,192,27528,1,0,0:0:0:0:
192,192,27691,128,0,27853:0:0:0:0:
320,192,27691,128,0,27772:0:0:0:0:
448,192,27853,128,0,28096:0:0:0:0:
64,192,27853,128,0,28096:0:0:0:0:
320,192,27853,1,0,0:0:0:0:
192,192,28015,128,0,28096:0:0:0:0:
320,192,28177,1,0,0:0:0:0:
64,192,28177,128,0,28420:0:0:0:0:
448,192,28177,128,0,28420:0:0:0:0:
192,192,28339,128,0,28420:0:0:0:0:
320,192,28339,128,0,28582:0:0:0:0:
192,192,28501,128,0,28664:0:0:0:0:
64,192,28501,128,0,28664:0:0:0:0:
448,192,28501,128,0,28582:0:0:0:0:
320,192,28664,128,0,28988:0:0:0:0:
64,192,28826,128,0,28988:0:0:0:0:
192,192,28826,128,0,28988:0:0:0:0:
448,192,28826,1,0,0:0:0:0:
64,192,29150,128,0,29393:0:0:0:0:
320,192,29150,128,0,29312:0:0:0:0:
192,192,29312,128,0,29393:0:0:0:0:
448,192,29312,128,0,29393:0:0:0:0:
320,192,29393,128,0,29474:0:0:0:0:
64,192,29474,1,0,0:0:0:0:
192,192,29474,128,0,29718:0:0:0:0:
448,192,29474,1,0,0:0:0:0:
320,192,29637,128,0,29718:0:0:0:0:
64,192,29637,128,0,29880:0:0:0:0:
192,192,29799,128,0,30042:0:0:0:0:
448,192,29799,128,0,29880:0:0:0:0:
64,192,29961,128,0,30042:0:0:0:0:
448,192,29961,128,0,30204:0:0:0:0:
192,192,30123,128,0,30204:0:0:0:0:
320,192,30123,1,0,0:0:0:0:
64,192,30123,1,0,0:0:0:0:
192,192,30285,128,0,30447:0:0:0:0:
320,192,30285,128,0,30366:0:0:0:0:
64,192,30447,1,0,0:0:0:0:
448,192,30447,128,0,30691:0:0:0:0:
320,192,30528,128,0,30691:0:0:0:0:
192,192,30609,128,0,30691:0:0:0:0:
320,192,30772,1,0,0:0:0:0:
64,192,30772,128,0,31015:0:0:0:0:
448,192,30772,1,0,0:0:0:0:
192,192,30934,128,0,31015:0:0:0:0:
448,192,30934,128,0,31015:0:0:0:0:
192,192,31096,128,0,31177:0:0:0:0:
64,192,31096,128,0,31339:0:0:0:0:
448,192,31096,128,0,31339:0:0:0:0:
320,192,31177,128,0,31258:0:0:0:0:
192,192,31258,128,0,31339:0:0:0:0:
320,192,31339,128,0,31420:0:0:0:0:
448,192,31420,128,0,31501:0:0:0:0:
64,192,31420,128,0,31664:0:0:0:0:
192,192,31501,128,0,31664:0:0:0:0:
320,192,31582,128,0,31664:0:0:0:0:
448,192,31745,1,0,0:0:0:0:
320,192,31745,1,0,0:0:0:0:
64,192,31745,1,0,0:0:0:0:
192,192,31826,1,0,0:0:0:0:
64,192,31907,1,0,0:0:0:0:
320,192,31988,1,0,0:0:0:0:
64,192,32069,1,0,0:0:0:0:
448,192,32069,1,0,0:0:0:0:
192,192,32150,1,0,0:0:0:0:
320,192,32231,1,0,0:0:0:0:
64,192,32312,1,0,0:0:0:0:
448,192,32393,1,0,0:0:0:0:
320,192,32393,1,0,0:0:0:0:
192,192,32474,1,0,0:0:0:0:
64,192,32555,1,0,0:0:0:0:
320,192,32637,1,0,0:0:0:0:
448,192,32718,1,0,0:0:0:0:
64,192,32718,1,0,0:0:0:0:
192,192,32799,1,0,0:0:0:0:
320,192,32880,1,0,0:0:0:0:
64,192,32961,1,0,0:0:0:0:
320,192,33042,128,0,33123:0:0:0:0:
448,192,33042,128,0,33285:0:0:0:0:
192,192,33204,1,0,0:0:0:0:
320,192,33285,1,0,0:0:0:0:
192,192,33366,128,0,33447:0:0:0:0:
64,192,33366,128,0,33609:0:0:0:0:
448,192,33366,1,0,0:0:0:0:
320,192,33528,128,0,33772:0:0:0:0:
448,192,33609,1,0,0:0:0:0:
64,192,33691,128,0,33934:0:0:0:0:
192,192,33691,128,0,33853:0:0:0:0:
448,192,33853,1,0,0:0:0:0:
320,192,33934,1,0,0:0:0:0:
192,192,34015,1,0,0:0:0:0:
64,192,34015,1,0,0:0:0:0:
448,192,34015,1,0,0:0:0:0:
192,192,34177,1,0,0:0:0:0:
192,192,34339,1,0,0:0:0:0:
64,192,34339,1,0,0:0:0:0:
320,192,34420,1,0,0:0:0:0:
448,192,34501,1,0,0:0:0:0:
192,192,34582,1,0,0:0:0:0:
448,192,34664,1,0,0:0:0:0:
64,192,34664,1,0,0:0:0:0:
320,192,34745,1,0,0:0:0:0:
192,192,34826,1,0,0:0:0:0:
448,192,34907,1,0,0:0:0:0:
64,192,34988,1,0,0:0:0:0:
192,192,34988,1,0,0:0:0:0:
320,192,35069,1,0,0:0:0:0:
448,192,35150,1,0,0:0:0:0:
192,192,35231,1,0,0:0:0:0:
64,192,35312,1,0,0:0:0:0:
448,192,35312,1,0,0:0:0:0:
320,192,35393,1,0,0:0:0:0:
192,192,35474,1,0,0:0:0:0:
448,192,35555,1,0,0:0:0:0:
192,192,35637,128,0,35718:0:0:0:0:
64,192,35637,128,0,35880:0:0:0:0:
320,192,35799,1,0,0:0:0:0:
192,192,35880,1,0,0:0:0:0:
320,192,35961,128,0,36042:0:0:0:0:
448,192,35961,128,0,36204:0:0:0:0:
64,192,35961,1,0,0:0:0:0:
192,192,36123,128,0,36447:0:0:0:0:
320,192,36204,1,0,0:0:0:0:
448,192,36285,128,0,36366:0:0:0:0:
64,192,36285,128,0,36528:0:0:0:0:
320,192,36447,1,0,0:0:0:0:
192,192,36528,1,0,0:0:0:0:
320,192,36609,1,0,0:0:0:0:
448,192,36609,1,0,0:0:0:0:
64,192,36609,1,0,0:0:0:0:
320,192,36772,1,0,0:0:0:0:
64,192,36934,1,0,0:0:0:0:
448,192,36934,1,0,0:0:0:0:
320,192,37015,1,0,0:0:0:0:
192,192,37096,1,0,0:0:0:0:
448,192,37177,1,0,0:0:0:0:
192,192,37258,1,0,0:0:0:0:
320,192,37258,1,0,0:0:0:0:
64,192,37339,1,0,0:0:0:0:
320,192,37420,1,0,0:0:0:0:
192,192,37501,1,0,0:0:0:0:
64,192,37582,1,0,0:0:0:0:
448,192,37582,1,0,0:0:0:0:
320,192,37664,1,0,0:0:0:0:
192,192,37745,1,0,0:0:0:0:
448,192,37826,5,0,0:0:0:0:
192,192,37907,1,0,0:0:0:0:
64,192,37907,1,0,0:0:0:0:
320,192,37988,1,0,0:0:0:0:
448,192,38069,1,0,0:0:0:0:
192,192,38150,1,0,0:0:0:0:
64,192,38231,128,0,38312:0:0:0:0:
448,192,38231,128,0,38393:0:0:0:0:
320,192,38272,128,0,38353:0:0:0:0:
192,192,38393,128,0,38474:0:0:0:0:
448,192,38555,128,0,38637:0:0:0:0:
64,192,38555,128,0,38718:0:0:0:0:
192,192,38596,128,0,38677:0:0:0:0:
320,192,38718,128,0,38799:0:0:0:0:
64,192,38880,128,0,38961:0:0:0:0:
448,192,38880,128,0,39042:0:0:0:0:
320,192,38920,128,0,39001:0:0:0:0:
192,192,39042,128,0,39123:0:0:0:0:
64,192,39204,1,0,0:0:0:0:
448,192,39204,1,0,0:0:0:0:
192,192,39204,1,0,0:0:0:0:
192,192,39366,1,0,0:0:0:0:
192,192,39528,128,0,39772:0:0:0:0:
320,192,39528,128,0,39609:0:0:0:0:
64,192,39691,128,0,39772:0:0:0:0:
320,192,39772,1,0,0:0:0:0:
192,192,39853,128,0,40096:0:0:0:0:
64,192,39853,1,0,0:0:0:0:
448,192,39853,128,0,39934:0:0:0:0:
448,192,40015,128,0,40096:0:0:0:0:
64,192,40177,128,0,40420:0:0:0:0:
448,192,40177,1,0,0:0:0:0:
192,192,40339,128,0,40420:0:0:0:0:
320,192,40420,1,0,0:0:0:0:
448,192,40501,128,0,40745:0:0:0:0:
192,192,40501,1,0,0:0:0:0:
64,192,40501,128,0,40745:0:0:0:0:
320,192,40664,128,0,40745:0:0:0:0:
192,192,40826,1,0,0:0:0:0:
64,192,40826,1,0,0:0:0:0:
320,192,40907,1,0,0:0:0:0:
448,192,40907,1,0,0:0:0:0:
192,192,40988,1,0,0:0:0:0:
64,192,40988,1,0,0:0:0:0:
320,192,41069,1,0,0:0:0:0:
448,192,41069,1,0,0:0:0:0:
64,192,41150,1,0,0:0:0:0:
192,192,41150,1,0,0:0:0:0:
320,192,41231,1,0,0:0:0:0:
448,192,41231,1,0,0:0:0:0:
192,192,41312,1,0,0:0:0:0:
64,192,41312,1,0,0:0:0:0:
320,192,41393,1,0,0:0:0:0:
448,192,41393,1,0,0:0:0:0:
64,192,41474,1,0,0:0:0:0:
192,192,41474,128,0,41961:0:0:0:0:
64,192,41799,128,0,41961:0:0:0:0:
320,192,41799,128,0,41961:0:0:0:0:
448,192,41799,128,0,41961:0:0:0:0:
64,192,42123,128,0,42366:0:0:0:0:
320,192,42123,128,0,42204:0:0:0:0:
448,192,42123,128,0,42366:0:0:0:0:
192,192,42285,128,0,42528:0:0:0:0:
320,192,42447,128,0,42691:0:0:0:0:
64,192,42447,128,0,42528:0:0:0:0:
448,192,42447,1,0,0:0:0:0:
448,192,42609,128,0,42691:0:0:0:0:
192,192,42609,128,0,42691:0:0:0:0:
64,192,42772,1,0,0:0:0:0:
448,192,42772,1,0,0:0:0:0:
320,192,42837,1,0,0:0:0:0:
192,192,42901,1,0,0:0:0:0:
320,192,42966,1,0,0:0:0:0:
192,192,43031,1,0,0:0:0:0:
448,192,43096,1,0,0:0:0:0:
64,192,43096,1,0,0:0:0:0:
320,192,43096,1,0,0:0:0:0:
320,192,43258,1,0,0:0:0:0:
192,192,43258,1,0,0:0:0:0:
64,192,43420,128,0,43501:0:0:0:0:
192,192,43420,128,0,43664:0:0:0:0:
64,192,43582,128,0,43826:0:0:0:0:
192,192,43745,128,0,43826:0:0:0:0:
320,192,43745,128,0,43988:0:0:0:0:
448,192,43745,1,0,0:0:0:0:
192,192,43907,128,0,43988:0:0:0:0:
448,192,43907,128,0,43988:0:0:0:0:
64,192,44069,1,0,0:0:0:0:
448,192,44069,1,0,0:0:0:0:
192,192,44134,1,0,0:0:0:0:
320,192,44199,1,0,0:0:0:0:
192,192,44264,1,0,0:0:0:0:
320,192,44328,1,0,0:0:0:0:
448,192,44393,1,0,0:0:0:0:
192,192,44393,1,0,0:0:0:0:
64,192,44393,1,0,0:0:0:0:
320,192,44555,1,0,0:0:0:0:
448,192,44555,1,0,0:0:0:0:
64,192,44718,128,0,44799:0:0:0:0:
192,192,44718,128,0,44961:0:0:0:0:
320,192,44880,128,0,44961:0:0:0:0:
192,192,45042,128,0,45123:0:0:0:0:
320,192,45042,128,0,45285:0:0:0:0:
64,192,45042,1,0,0:0:0:0:
448,192,45204,128,0,45285:0:0:0:0:
64,192,45204,128,0,45366:0:0:0:0:
448,192,45366,1,0,0:0:0:0:
320,192,45366,1,0,0:0:0:0:
192,192,45420,1,0,0:0:0:0:
64,192,45474,1,0,0:0:0:0:
320,192,45528,1,0,0:0:0:0:
192,192,45691,1,0,0:0:0:0:
64,192,45691,1,0,0:0:0:0:
448,192,45691,1,0,0:0:0:0:
320,192,45853,1,0,0:0:0:0:
192,192,45853,1,0,0:0:0:0:
64,192,46015,128,0,46258:0:0:0:0:
320,192,46015,128,0,46096:0:0:0:0:
320,192,46177,128,0,46339:0:0:0:0:
64,192,46339,1,0,0:0:0:0:
448,192,46339,1,0,0:0:0:0:
192,192,46393,1,0,0:0:0:0:
320,192,46447,128,0,46664:0:0:0:0:
64,192,46501,128,0,46664:0:0:0:0:
192,192,46664,128,0,46728:0:0:0:0:
448,192,46664,128,0,46793:0:0:0:0:
64,192,46728,128,0,46858:0:0:0:0:
320,192,46793,128,0,46858:0:0:0:0:
192,192,46858,128,0,46923:0:0:0:0:
320,192,46923,128,0,46988:0:0:0:0:
64,192,46988,1,0,0:0:0:0:
448,192,46988,1,0,0:0:0:0:
192,192,46988,1,0,0:0:0:0:
192,192,47150,1,0,0:0:0:0:
320,192,47150,1,0,0:0:0:0:
448,192,47312,128,0,47393:0:0:0:0:
320,192,47312,128,0,47880:0:0:0:0:
64,192,47312,128,0,47393:0:0:0:0:
192,192,47474,1,0,0:0:0:0:
64,192,47555,1,0,0:0:0:0:
192,192,47637,128,0,47799:0:0:0:0:
448,192,47637,128,0,47718:0:0:0:0:
448,192,47799,128,0,47961:0:0:0:0:
64,192,47799,1,0,0:0:0:0:
64,192,47961,1,0,0:0:0:0:
320,192,47961,1,0,0:0:0:0:
448,192,48026,1,0,0:0:0:0:
192,192,48091,1,0,0:0:0:0:
320,192,48155,1,0,0:0:0:0:
64,192,48220,1,0,0:0:0:0:
448,192,48285,1,0,0:0:0:0:
192,192,48285,1,0,0:0:0:0:
320,192,48285,1,0,0:0:0:0:
64,192,48447,1,0,0:0:0:0:
320,192,48447,1,0,0:0:0:0:
64,192,48609,1,0,0:0:0:0:
192,192,48609,128,0,48691:0:0:0:0:
320,192,48650,128,0,48731:0:0:0:0:
448,192,48691,128,0,48772:0:0:0:0:
192,192,48772,1,0,0:0:0:0:
64,192,48853,1,0,0:0:0:0:
448,192,48934,128,0,49015:0:0:0:0:
192,192,48934,128,0,49177:0:0:0:0:
320,192,49096,128,0,49177:0:0:0:0:
448,192,49096,128,0,49258:0:0:0:0:
64,192,49258,1,0,0:0:0:0:
192,192,49258,1,0,0:0:0:0:
320,192,49323,1,0,0:0:0:0:
448,192,49388,1,0,0:0:0:0:
64,192,49420,1,0,0:0:0:0:
320,192,49453,1,0,0:0:0:0:
192,192,49518,1,0,0:0:0:0:
64,192,49582,1,0,0:0:0:0:
448,192,49582,1,0,0:0:0:0:
448,192,49745,1,0,0:0:0:0:
192,192,49745,1,0,0:0:0:0:
64,192,49907,128,0,50150:0:0:0:0:
448,192,49907,1,0,0:0:0:0:
192,192,49907,128,0,49988:0:0:0:0:
320,192,50069,1,0,0:0:0:0:
192,192,50150,1,0,0:0:0:0:
320,192,50231,128,0,50474:0:0:0:0:
448,192,50231,128,0,50312:0:0:0:0:
64,192,50231,1,0,0:0:0:0:
192,192,50393,128,0,50637:0:0:0:0:
448,192,50555,128,0,50637:0:0:0:0:
64,192,50555,128,0,50799:0:0:0:0:
320,192,50637,128,0,50718:0:0:0:0:
448,192,50718,128,0,50799:0:0:0:0:
192,192,50799,128,0,50880:0:0:0:0:
320,192,50880,128,0,50961:0:0:0:0:
64,192,50880,1,0,0:0:0:0:
448,192,50880,1,0,0:0:0:0:
192,192,50961,128,0,51204:0:0:0:0:
320,192,51204,128,0,51285:0:0:0:0:
448,192,51204,128,0,51285:0:0:0:0:
64,192,51204,128,0,51609:0:0:0:0:
192,192,51528,128,0,51609:0:0:0:0:
320,192,51528,128,0,51609:0:0:0:0:
448,192,51528,128,0,51934:0:0:0:0:
320,192,51853,128,0,51934:0:0:0:0:
64,192,51853,128,0,52096:0:0:0:0:
192,192,51853,128,0,52096:0:0:0:0:
448,192,52015,1,0,0:0:0:0:
192,192,52177,1,0,0:0:0:0:
64,192,52177,1,0,0:0:0:0:
448,192,52177,1,0,0:0:0:0:
320,192,52339,1,0,0:0:0:0:
64,192,52339,1,0,0:0:0:0:
448,192,52501,128,0,52582:0:0:0:0:
320,192,52501,1,0,0:0:0:0:
192,192,52501,1,0,0:0:0:0:
64,192,52664,1,0,0:0:0:0:
192,192,52664,1,0,0:0:0:0:
320,192,52664,128,0,52745:0:0:0:0:
320,192,52988,128,0,53069:0:0:0:0:
448,192,52988,128,0,53069:0:0:0:0:
64,192,52988,1,0,0:0:0:0:
320,192,53150,128,0,53231:0:0:0:0:
192,192,53150,128,0,53231:0:0:0:0:
64,192,53150,1,0,0:0:0:0:
320,192,53474,128,0,53555:0:0:0:0:
448,192,53474,128,0,53555:0:0:0:0:
192,192,53474,128,0,53555:0:0:0:0:
320,192,53637,128,0,53718:0:0:0:0:
192,192,53637,128,0,53718:0:0:0:0:
64,192,53637,128,0,53718:0:0:0:0:
64,192,53961,128,0,54042:0:0:0:0:
192,192,53961,128,0,54042:0:0:0:0:
320,192,53961,128,0,54042:0:0:0:0:
448,192,53961,128,0,54042:0:0:0:0:
64,192,54123,128,0,54609:0:0:0:0:
448,192,54123,128,0,54772:0:0:0:0:
192,192,54123,128,0,54609:0:0:0:0:
320,192,54123,128,0,54609:0:0:0:0:
64,192,54772,1,0,0:0:0:0:
192,192,54772,1,0,0:0:0:0:
320,192,54772,1,0,0:0:0:0:
448,192,55096,128,0,55258:0:0:0:0:
64,192,55096,128,0,55177:0:0:0:0:
192,192,55096,1,0,0:0:0:0:
320,192,55177,1,0,0:0:0:0:
192,192,55258,1,0,0:0:0:0:
320,192,55339,1,0,0:0:0:0:
64,192,55420,128,0,55501:0:0:0:0:
448,192,55420,128,0,55582:0:0:0:0:
192,192,55501,1,0,0:0:0:0:
320,192,55582,1,0,0:0:0:0:
192,192,55664,1,0,0:0:0:0:
448,192,55745,128,0,55907:0:0:0:0:
64,192,55745,128,0,55826:0:0:0:0:
320,192,55826,1,0,0:0:0:0:
192,192,55907,1,0,0:0:0:0:
64,192,55988,1,0,0:0:0:0:
320,192,56069,1,0,0:0:0:0:
448,192,56069,1,0,0:0:0:0:
192,192,56150,1,0,0:0:0:0:
64,192,56231,128,0,56312:0:0:0:0:
448,192,56231,128,0,56393:0:0:0:0:
320,192,56312,1,0,0:0:0:0:
192,192,56393,1,0,0:0:0:0:
64,192,56393,1,0,0:0:0:0:
448,192,56474,1,0,0:0:0:0:
64,192,56555,128,0,56637:0:0:0:0:
320,192,56555,128,0,56718:0:0:0:0:
192,192,56637,1,0,0:0:0:0:
64,192,56718,1,0,0:0:0:0:
448,192,56718,1,0,0:0:0:0:
320,192,56799,1,0,0:0:0:0:
64,192,56880,128,0,56961:0:0:0:0:
192,192,56880,128,0,57042:0:0:0:0:
320,192,56961,1,0,0:0:0:0:
448,192,57042,1,0,0:0:0:0:
64,192,57042,128,0,57204:0:0:0:0:
192,192,57123,128,0,57204:0:0:0:0:
320,192,57204,1,0,0:0:0:0:
192,192,57285,1,0,0:0:0:0:
448,192,57366,128,0,57528:0:0:0:0:
64,192,57366,1,0,0:0:0:0:
320,192,57447,128,0,57528:0:0:0:0:
192,192,57528,1,0,0:0:0:0:
64,192,57609,1,0,0:0:0:0:
320,192,57691,1,0,0:0:0:0:
448,192,57691,128,0,57853:0:0:0:0:
192,192,57772,1,0,0:0:0:0:
64,192,57853,1,0,0:0:0:0:
320,192,57934,1,0,0:0:0:0:
448,192,58015,1,0,0:0:0:0:
64,192,58015,128,0,58177:0:0:0:0:
192,192,58096,1,0,0:0:0:0:
320,192,58177,1,0,0:0:0:0:
64,192,58258,1,0,0:0:0:0:
192,192,58339,128,0,58420:0:0:0:0:
448,192,58339,128,0,58501:0:0:0:0:
320,192,58420,1,0,0:0:0:0:
192,192,58501,1,0,0:0:0:0:
448,192,58582,1,0,0:0:0:0:
320,192,58664,128,0,58745:0:0:0:0:
64,192,58664,128,0,58826:0:0:0:0:
192,192,58745,1,0,0:0:0:0:
320,192,58826,1,0,0:0:0:0:
192,192,58907,1,0,0:0:0:0:
64,192,58988,1,0,0:0:0:0:
448,192,58988,128,0,59150:0:0:0:0:
320,192,59069,1,0,0:0:0:0:
192,192,59150,1,0,0:0:0:0:
64,192,59231,1,0,0:0:0:0:
320,192,59312,128,0,59393:0:0:0:0:
448,192,59312,128,0,59474:0:0:0:0:
192,192,59393,1,0,0:0:0:0:
320,192,59474,1,0,0:0:0:0:
64,192,59555,1,0,0:0:0:0:
192,192,59637,128,0,59718:0:0:0:0:
320,192,59637,128,0,59718:0:0:0:0:
448,192,59637,128,0,59799:0:0:0:0:
64,192,59718,1,0,0:0:0:0:
192,192,59799,1,0,0:0:0:0:
320,192,59880,1,0,0:0:0:0:
64,192,59961,128,0,60123:0:0:0:0:
448,192,59961,128,0,60123:0:0:0:0:
192,192,60042,128,0,60204:0:0:0:0:
320,192,60042,128,0,60204:0:0:0:0:
64,192,60285,128,0,60447:0:0:0:0:
448,192,60285,128,0,60366:0:0:0:0:
320,192,60285,1,0,0:0:0:0:
192,192,60366,1,0,0:0:0:0:
320,192,60447,1,0,0:0:0:0:
192,192,60528,1,0,0:0:0:0:
448,192,60609,128,0,60691:0:0:0:0:
64,192,60609,128,0,60772:0:0:0:0:
320,192,60691,1,0,0:0:0:0:
192,192,60772,1,0,0:0:0:0:
320,192,60853,1,0,0:0:0:0:
64,192,60934,128,0,61096:0:0:0:0:
448,192,60934,128,0,61015:0:0:0:0:
192,192,61015,1,0,0:0:0:0:
320,192,61096,1,0,0:0:0:0:
448,192,61177,1,0,0:0:0:0:
192,192,61258,1,0,0:0:0:0:
64,192,61258,1,0,0:0:0:0:
320,192,61339,1,0,0:0:0:0:
448,192,61420,128,0,61501:0:0:0:0:
64,192,61420,128,0,61582:0:0:0:0:
192,192,61501,1,0,0:0:0:0:
320,192,61582,1,0,0:0:0:0:
448,192,61582,1,0,0:0:0:0:
64,192,61664,1,0,0:0:0:0:
448,192,61745,128,0,61826:0:0:0:0:
192,192,61745,128,0,61907:0:0:0:0:
320,192,61826,1,0,0:0:0:0:
448,192,61907,1,0,0:0:0:0:
64,192,61907,1,0,0:0:0:0:
192,192,61988,1,0,0:0:0:0:
448,192,62069,128,0,62150:0:0:0:0:
320,192,62069,128,0,62231:0:0:0:0:
192,192,62150,1,0,0:0:0:0:
64,192,62231,1,0,0:0:0:0:
448,192,62231,128,0,62393:0:0:0:0:
320,192,62312,128,0,62393:0:0:0:0:
192,192,62393,1,0,0:0:0:0:
320,192,62474,1,0,0:0:0:0:
64,192,62555,128,0,62718:0:0:0:0:
448,192,62555,1,0,0:0:0:0:
192,192,62637,128,0,62718:0:0:0:0:
448,192,62718,1,0,0:0:0:0:
320,192,62799,1,0,0:0:0:0:
192,192,62880,128,0,62961:0:0:0:0:
448,192,62880,1,0,0:0:0:0:
64,192,62880,128,0,63123:0:0:0:0:
320,192,63042,1,0,0:0:0:0:
192,192,63123,1,0,0:0:0:0:
320,192,63204,128,0,63447:0:0:0:0:
448,192,63204,128,0,63285:0:0:0:0:
192,192,63366,128,0,63447:0:0:0:0:
320,192,63528,128,0,63609:0:0:0:0:
448,192,63528,128,0,63772:0:0:0:0:
64,192,63528,1,0,0:0:0:0:
192,192,63691,1,0,0:0:0:0:
320,192,63772,1,0,0:0:0:0:
64,192,63853,128,0,64096:0:0:0:0:
192,192,63853,128,0,63934:0:0:0:0:
448,192,63853,128,0,64096:0:0:0:0:
64,192,64177,1,0,0:0:0:0:
320,192,64177,128,0,64420:0:0:0:0:
448,192,64177,128,0,64258:0:0:0:0:
192,192,64339,128,0,64420:0:0:0:0:
448,192,64420,1,0,0:0:0:0:
64,192,64501,128,0,64582:0:0:0:0:
192,192,64501,128,0,64745:0:0:0:0:
320,192,64501,1,0,0:0:0:0:
320,192,64664,128,0,64745:0:0:0:0:
448,192,64745,1,0,0:0:0:0:
320,192,64826,128,0,65069:0:0:0:0:
64,192,64826,128,0,65069:0:0:0:0:
192,192,64826,1,0,0:0:0:0:
64,192,65150,128,0,65312:0:0:0:0:
448,192,65150,128,0,65312:0:0:0:0:
320,192,65231,128,0,65393:0:0:0:0:
192,192,65231,128,0,65393:0:0:0:0:
64,192,65474,1,0,0:0:0:0:
192,192,65474,128,0,65637:0:0:0:0:
448,192,65474,1,0,0:0:0:0:
320,192,65555,128,0,65718:0:0:0:0:
64,192,65637,128,0,65718:0:0:0:0:
192,192,65718,128,0,65799:0:0:0:0:
320,192,65799,128,0,65961:0:0:0:0:
448,192,65799,1,0,0:0:0:0:
192,192,65880,128,0,66042:0:0:0:0:
448,192,65961,128,0,66042:0:0:0:0:
320,192,66042,128,0,66123:0:0:0:0:
192,192,66123,128,0,66285:0:0:0:0:
64,192,66123,1,0,0:0:0:0:
320,192,66204,128,0,66366:0:0:0:0:
64,192,66285,128,0,66366:0:0:0:0:
192,192,66366,128,0,66447:0:0:0:0:
320,192,66447,128,0,66528:0:0:0:0:
448,192,66447,1,0,0:0:0:0:
192,192,66528,128,0,66609:0:0:0:0:
64,192,66609,128,0,66691:0:0:0:0:
448,192,66609,128,0,66853:0:0:0:0:
320,192,66691,128,0,66772:0:0:0:0:
64,192,66772,1,0,0:0:0:0:
192,192,66772,128,0,66853:0:0:0:0:
320,192,66853,128,0,66934:0:0:0:0:
64,192,66934,128,0,67177:0:0:0:0:
448,192,66934,128,0,67015:0:0:0:0:
192,192,67015,128,0,67096:0:0:0:0:
448,192,67096,1,0,0:0:0:0:
320,192,67096,128,0,67177:0:0:0:0:
192,192,67177,128,0,67258:0:0:0:0:
448,192,67258,128,0,67501:0:0:0:0:
64,192,67258,128,0,67339:0:0:0:0:
320,192,67339,128,0,67420:0:0:0:0:
64,192,67420,1,0,0:0:0:0:
192,192,67420,128,0,67664:0:0:0:0:
320,192,67501,128,0,67582:0:0:0:0:
448,192,67582,128,0,67745:0:0:0:0:
320,192,67664,128,0,67745:0:0:0:0:
64,192,67745,128,0,67907:0:0:0:0:
192,192,67745,128,0,67826:0:0:0:0:
448,192,67826,128,0,67988:0:0:0:0:
320,192,67907,128,0,67988:0:0:0:0:
192,192,67988,128,0,68069:0:0:0:0:
64,192,68069,128,0,68312:0:0:0:0:
320,192,68069,1,0,0:0:0:0:
192,192,68150,1,0,0:0:0:0:
448,192,68231,1,0,0:0:0:0:
320,192,68312,1,0,0:0:0:0:
192,192,68393,128,0,68637:0:0:0:0:
64,192,68393,128,0,68474:0:0:0:0:
448,192,68474,1,0,0:0:0:0:
320,192,68555,1,0,0:0:0:0:
64,192,68637,1,0,0:0:0:0:
448,192,68718,128,0,68961:0:0:0:0:
192,192,68718,1,0,0:0:0:0:
320,192,68799,1,0,0:0:0:0:
64,192,68880,1,0,0:0:0:0:
192,192,68961,1,0,0:0:0:0:
320,192,69042,128,0,69285:0:0:0:0:
448,192,69042,128,0,69123:0:0:0:0:
64,192,69123,1,0,0:0:0:0:
192,192,69204,1,0,0:0:0:0:
448,192,69285,1,0,0:0:0:0:
320,192,69366,128,0,69447:0:0:0:0:
64,192,69366,128,0,69609:0:0:0:0:
192,192,69447,1,0,0:0:0:0:
320,192,69528,128,0,69772:0:0:0:0:
448,192,69609,1,0,0:0:0:0:
64,192,69691,128,0,69934:0:0:0:0:
192,192,69691,1,0,0:0:0:0:
448,192,69772,1,0,0:0:0:0:
320,192,69853,128,0,70177:0:0:0:0:
192,192,69934,1,0,0:0:0:0:
64,192,70015,128,0,70177:0:0:0:0:
448,192,70015,128,0,70177:0:0:0:0:
192,192,70177,1,0,0:0:0:0:
320,192,70258,1,0,0:0:0:0:
64,192,70339,128,0,70501:0:0:0:0:
448,192,70339,128,0,70501:0:0:0:0:
192,192,70420,128,0,70582:0:0:0:0:
320,192,70420,128,0,70582:0:0:0:0:
64,192,70664,1,0,0:0:0:0:
192,192,70664,128,0,70826:0:0:0:0:
448,192,70664,1,0,0:0:0:0:
320,192,70745,128,0,70907:0:0:0:0:
64,192,70826,128,0,70907:0:0:0:0:
192,192,70907,128,0,70988:0:0:0:0:
320,192,70988,128,0,71150:0:0:0:0:
448,192,70988,1,0,0:0:0:0:
192,192,71069,128,0,71231:0:0:0:0:
448,192,71150,128,0,71231:0:0:0:0:
320,192,71231,128,0,71312:0:0:0:0:
192,192,71312,128,0,71474:0:0:0:0:
64,192,71312,1,0,0:0:0:0:
320,192,71393,128,0,71555:0:0:0:0:
64,192,71474,128,0,71555:0:0:0:0:
192,192,71555,128,0,71637:0:0:0:0:
320,192,71637,128,0,71718:0:0:0:0:
448,192,71637,1,0,0:0:0:0:
192,192,71718,128,0,71799:0:0:0:0:
64,192,71799,128,0,71880:0:0:0:0:
448,192,71799,128,0,72042:0:0:0:0:
320,192,71880,128,0,71961:0:0:0:0:
64,192,71961,1,0,0:0:0:0:
192,192,71961,128,0,72042:0:0:0:0:
320,192,72042,128,0,72123:0:0:0:0:
64,192,72123,128,0,72366:0:0:0:0:
448,192,72123,128,0,72204:0:0:0:0:
192,192,72204,128,0,72285:0:0:0:0:
448,192,72285,1,0,0:0:0:0:
320,192,72285,128,0,72366:0:0:0:0:
192,192,72366,128,0,72447:0:0:0:0:
448,192,72447,128,0,72691:0:0:0:0:
64,192,72447,128,0,72528:0:0:0:0:
320,192,72528,128,0,72609:0:0:0:0:
64,192,72609,1,0,0:0:0:0:
192,192,72609,128,0,72853:0:0:0:0:
320,192,72691,128,0,72772:0:0:0:0:
448,192,72772,128,0,72934:0:0:0:0:
320,192,72853,128,0,72934:0:0:0:0:
64,192,72934,128,0,73096:0:0:0:0:
192,192,72934,128,0,73015:0:0:0:0:
448,192,73015,128,0,73177:0:0:0:0:
320,192,73096,128,0,73177:0:0:0:0:
192,192,73177,128,0,73258:0:0:0:0:
64,192,73258,128,0,73501:0:0:0:0:
448,192,73258,128,0,73501:0:0:0:0:
320,192,73258,128,0,73339:0:0:0:0:
192,192,73420,128,0,73501:0:0:0:0:
320,192,73501,1,0,0:0:0:0:
192,192,73582,128,0,73745:0:0:0:0:
64,192,73582,128,0,73745:0:0:0:0:
448,192,73582,128,0,73745:0:0:0:0:
448,192,73907,128,0,74150:0:0:0:0:
64,192,73907,128,0,74150:0:0:0:0:
192,192,73907,128,0,73988:0:0:0:0:
320,192,74069,128,0,74150:0:0:0:0:
192,192,74150,1,0,0:0:0:0:
320,192,74231,128,0,74393:0:0:0:0:
448,192,74231,128,0,74393:0:0:0:0:
64,192,74231,128,0,74393:0:0:0:0:
192,192,74393,1,0,0:0:0:0:
192,192,74555,128,0,74637:0:0:0:0:
64,192,74555,128,0,74799:0:0:0:0:
448,192,74555,128,0,74799:0:0:0:0:
320,192,74718,128,0,74961:0:0:0:0:
448,192,74880,128,0,75123:0:0:0:0:
64,192,74880,128,0,75123:0:0:0:0:
192,192,74880,128,0,74961:0:0:0:0:
320,192,75042,128,0,75123:0:0:0:0:
192,192,75123,1,0,0:0:0:0:
64,192,75204,128,0,75447:0:0:0:0:
320,192,75204,128,0,75447:0:0:0:0:
448,192,75204,128,0,75447:0:0:0:0:
64,192,75528,128,0,75691:0:0:0:0:
448,192,75528,128,0,75691:0:0:0:0:
320,192,75609,128,0,75772:0:0:0:0:
192,192,75609,128,0,75772:0:0:0:0:
448,192,75853,128,0,76096:0:0:0:0:
64,192,75853,128,0,76096:0:0:0:0:
192,192,75853,128,0,75934:0:0:0:0:
320,192,76015,128,0,76096:0:0:0:0:
192,192,76096,1,0,0:0:0:0:
320,192,76177,128,0,76339:0:0:0:0:
448,192,76177,128,0,76339:0:0:0:0:
64,192,76177,128,0,76339:0:0:0:0:
64,192,76501,128,0,76745:0:0:0:0:
448,192,76501,128,0,76745:0:0:0:0:
320,192,76501,128,0,76582:0:0:0:0:
192,192,76664,128,0,76745:0:0:0:0:
320,192,76745,1,0,0:0:0:0:
192,192,76826,128,0,76988:0:0:0:0:
64,192,76826,128,0,76988:0:0:0:0:
448,192,76826,128,0,76988:0:0:0:0:
320,192,76988,1,0,0:0:0:0:
320,192,77150,128,0,77231:0:0:0:0:
448,192,77150,128,0,77393:0:0:0:0:
64,192,77150,128,0,77393:0:0:0:0:
192,192,77312,128,0,77555:0:0:0:0:
64,192,77474,128,0,77718:0:0:0:0:
448,192,77474,128,0,77718:0:0:0:0:
320,192,77474,128,0,77555:0:0:0:0:
192,192,77637,128,0,77718:0:0:0:0:
320,192,77718,1,0,0:0:0:0:
448,192,77799,128,0,78042:0:0:0:0:
192,192,77799,128,0,78042:0:0:0:0:
64,192,77799,128,0,78042:0:0:0:0:
320,192,78123,128,0,78285:0:0:0:0:
64,192,78123,128,0,78285:0:0:0:0:
192,192,78204,128,0,78366:0:0:0:0:
448,192,78204,128,0,78366:0:0:0:0:
448,192,78447,128,0,78691:0:0:0:0:
64,192,78447,128,0,78691:0:0:0:0:
192,192,78447,128,0,78528:0:0:0:0:
320,192,78609,128,0,78691:0:0:0:0:
192,192,78691,1,0,0:0:0:0:
320,192,78772,128,0,78934:0:0:0:0:
448,192,78772,128,0,78934:0:0:0:0:
64,192,78772,128,0,78934:0:0:0:0:
192,192,78934,1,0,0:0:0:0:
64,192,79096,128,0,79339:0:0:0:0:
448,192,79096,128,0,79339:0:0:0:0:
320,192,79096,128,0,79177:0:0:0:0:
192,192,79258,128,0,79339:0:0:0:0:
320,192,79339,1,0,0:0:0:0:
192,192,79420,128,0,79582:0:0:0:0:
64,192,79420,128,0,79582:0:0:0:0:
448,192,79420,128,0,79582:0:0:0:0:
320,192,79582,1,0,0:0:0:0:
192,192,79745,128,0,79826:0:0:0:0:
64,192,79745,128,0,79826:0:0:0:0:
448,192,79745,128,0,79988:0:0:0:0:
192,192,79907,128,0,79988:0:0:0:0:
320,192,79907,128,0,79988:0:0:0:0:
320,192,80069,128,0,80150:0:0:0:0:
448,192,80069,128,0,80150:0:0:0:0:
64,192,80069,128,0,80312:0:0:0:0:
320,192,80231,128,0,80312:0:0:0:0:
192,192,80231,128,0,80312:0:0:0:0:
192,192,80393,128,0,80474:0:0:0:0:
64,192,80393,128,0,80474:0:0:0:0:
448,192,80393,128,0,80637:0:0:0:0:
192,192,80555,128,0,80637:0:0:0:0:
320,192,80555,128,0,80637:0:0:0:0:
320,192,80718,128,0,80799:0:0:0:0:
448,192,80718,128,0,80799:0:0:0:0:
64,192,80718,128,0,80961:0:0:0:0:
192,192,80880,128,0,80961:0:0:0:0:
320,192,80880,128,0,80961:0:0:0:0:
192,192,81042,128,0,81123:0:0:0:0:
64,192,81042,128,0,81123:0:0:0:0:
320,192,81123,128,0,81204:0:0:0:0:
448,192,81123,128,0,81204:0:0:0:0:
192,192,81204,128,0,81285:0:0:0:0:
64,192,81204,128,0,81285:0:0:0:0:
320,192,81285,128,0,81366:0:0:0:0:
448,192,81285,128,0,81366:0:0:0:0:
192,192,81366,128,0,81447:0:0:0:0:
64,192,81366,128,0,81447:0:0:0:0:
448,192,81447,128,0,81528:0:0:0:0:
320,192,81447,128,0,81528:0:0:0:0:
192,192,81528,128,0,81609:0:0:0:0:
64,192,81528,128,0,81609:0:0:0:0:
320,192,81609,128,0,81691:0:0:0:0:
64,192,81691,128,0,82177:0:0:0:0:
448,192,81691,128,0,82177:0:0:0:0:
320,192,82015,128,0,82258:0:0:0:0:
192,192,82015,128,0,82258:0:0:0:0:
448,192,82339,5,0,0:0:0:0:
192,192,82339,128,0,82420:0:0:0:0:
64,192,82339,128,0,82501:0:0:0:0:
320,192,82420,1,0,0:0:0:0:
192,192,82501,1,0,0:0:0:0:
64,192,82582,1,0,0:0:0:0:
320,192,82664,128,0,82745:0:0:0:0:
448,192,82664,128,0,82826:0:0:0:0:
64,192,82745,1,0,0:0:0:0:
192,192,82826,1,0,0:0:0:0:
320,192,82907,1,0,0:0:0:0:
64,192,82988,128,0,83150:0:0:0:0:
192,192,82988,128,0,83069:0:0:0:0:
448,192,83069,1,0,0:0:0:0:
320,192,83150,1,0,0:0:0:0:
192,192,83150,128,0,83312:0:0:0:0:
64,192,83231,128,0,83312:0:0:0:0:
448,192,83312,1,0,0:0:0:0:
320,192,83312,1,0,0:0:0:0:
64,192,83393,1,0,0:0:0:0:
192,192,83474,1,0,0:0:0:0:
320,192,83555,1,0,0:0:0:0:
448,192,83555,1,0,0:0:0:0:
64,192,83637,128,0,83799:0:0:0:0:
192,192,83637,128,0,83718:0:0:0:0:
448,192,83718,1,0,0:0:0:0:
320,192,83799,1,0,0:0:0:0:
192,192,83880,1,0,0:0:0:0:
320,192,83961,128,0,84042:0:0:0:0:
448,192,83961,128,0,84123:0:0:0:0:
64,192,84042,1,0,0:0:0:0:
192,192,84123,1,0,0:0:0:0:
320,192,84204,1,0,0:0:0:0:
64,192,84285,128,0,84366:0:0:0:0:
192,192,84285,128,0,84447:0:0:0:0:
448,192,84366,1,0,0:0:0:0:
64,192,84447,128,0,84609:0:0:0:0:
320,192,84447,1,0,0:0:0:0:
192,192,84528,128,0,84609:0:0:0:0:
320,192,84609,1,0,0:0:0:0:
448,192,84609,1,0,0:0:0:0:
192,192,84691,1,0,0:0:0:0:
64,192,84772,1,0,0:0:0:0:
448,192,84772,1,0,0:0:0:0:
320,192,84853,1,0,0:0:0:0:
192,192,84934,128,0,85015:0:0:0:0:
64,192,84934,128,0,85096:0:0:0:0:
448,192,85015,1,0,0:0:0:0:
320,192,85096,1,0,0:0:0:0:
64,192,85177,1,0,0:0:0:0:
192,192,85258,128,0,85420:0:0:0:0:
320,192,85258,128,0,85339:0:0:0:0:
448,192,85339,1,0,0:0:0:0:
320,192,85420,1,0,0:0:0:0:
64,192,85501,1,0,0:0:0:0:
320,192,85582,128,0,85664:0:0:0:0:
448,192,85582,128,0,85745:0:0:0:0:
64,192,85664,1,0,0:0:0:0:
192,192,85745,1,0,0:0:0:0:
448,192,85826,1,0,0:0:0:0:
192,192,85907,128,0,85988:0:0:0:0:
320,192,85907,128,0,86069:0:0:0:0:
64,192,85988,1,0,0:0:0:0:
192,192,86069,128,0,86231:0:0:0:0:
448,192,86069,1,0,0:0:0:0:
320,192,86150,128,0,86231:0:0:0:0:
64,192,86231,128,0,86474:0:0:0:0:
448,192,86231,1,0,0:0:0:0:
192,192,86312,128,0,86393:0:0:0:0:
320,192,86393,128,0,86637:0:0:0:0:
192,192,86474,128,0,86555:0:0:0:0:
64,192,86555,128,0,86637:0:0:0:0:
448,192,86555,128,0,86718:0:0:0:0:
192,192,86637,128,0,86718:0:0:0:0:
320,192,86718,128,0,86799:0:0:0:0:
448,192,86799,128,0,86880:0:0:0:0:
64,192,86880,128,0,87123:0:0:0:0:
192,192,86880,128,0,86961:0:0:0:0:
448,192,86961,128,0,87123:0:0:0:0:
320,192,87042,128,0,87204:0:0:0:0:
192,192,87123,128,0,87204:0:0:0:0:
64,192,87204,1,0,0:0:0:0:
448,192,87204,1,0,0:0:0:0:
192,192,87285,1,0,0:0:0:0:
448,192,87366,1,0,0:0:0:0:
320,192,87447,1,0,0:0:0:0:
448,192,87528,1,0,0:0:0:0:
192,192,87528,128,0,87609:0:0:0:0:
64,192,87528,128,0,87691:0:0:0:0:
320,192,87609,1,0,0:0:0:0:
192,192,87691,1,0,0:0:0:0:
64,192,87772,1,0,0:0:0:0:
320,192,87853,128,0,87934:0:0:0:0:
448,192,87853,128,0,88015:0:0:0:0:
64,192,87934,1,0,0:0:0:0:
192,192,88015,1,0,0:0:0:0:
320,192,88096,1,0,0:0:0:0:
64,192,88177,128,0,88339:0:0:0:0:
192,192,88177,128,0,88258:0:0:0:0:
448,192,88258,1,0,0:0:0:0:
320,192,88339,1,0,0:0:0:0:
192,192,88339,128,0,88501:0:0:0:0:
64,192,88420,128,0,88501:0:0:0:0:
448,192,88501,1,0,0:0:0:0:
320,192,88501,1,0,0:0:0:0:
64,192,88582,1,0,0:0:0:0:
192,192,88664,1,0,0:0:0:0:
320,192,88745,1,0,0:0:0:0:
448,192,88745,1,0,0:0:0:0:
64,192,88826,128,0,88988:0:0:0:0:
192,192,88826,128,0,88907:0:0:0:0:
448,192,88907,1,0,0:0:0:0:
320,192,88988,1,0,0:0:0:0:
192,192,89069,1,0,0:0:0:0:
320,192,89150,128,0,89231:0:0:0:0:
448,192,89150,128,0,89312:0:0:0:0:
64,192,89231,1,0,0:0:0:0:
192,192,89312,1,0,0:0:0:0:
320,192,89393,1,0,0:0:0:0:
64,192,89474,128,0,89555:0:0:0:0:
192,192,89474,128,0,89637:0:0:0:0:
448,192,89555,1,0,0:0:0:0:
64,192,89637,128,0,89799:0:0:0:0:
320,192,89637,1,0,0:0:0:0:
192,192,89718,128,0,89799:0:0:0:0:
320,192,89799,1,0,0:0:0:0:
448,192,89799,1,0,0:0:0:0:
192,192,89880,1,0,0:0:0:0:
64,192,89961,1,0,0:0:0:0:
448,192,89961,1,0,0:0:0:0:
320,192,90042,1,0,0:0:0:0:
192,192,90123,128,0,90204:0:0:0:0:
64,192,90123,128,0,90285:0:0:0:0:
448,192,90204,1,0,0:0:0:0:
320,192,90285,1,0,0:0:0:0:
64,192,90366,1,0,0:0:0:0:
192,192,90447,128,0,90609:0:0:0:0:
320,192,90447,128,0,90528:0:0:0:0:
448,192,90528,1,0,0:0:0:0:
320,192,90609,128,0,90772:0:0:0:0:
64,192,90609,1,0,0:0:0:0:
192,192,90691,128,0,90772:0:0:0:0:
64,192,90772,128,0,90934:0:0:0:0:
448,192,90772,128,0,90853:0:0:0:0:
320,192,90853,128,0,90934:0:0:0:0:
192,192,90934,128,0,91015:0:0:0:0:
320,192,91015,128,0,91096:0:0:0:0:
448,192,91096,128,0,91258:0:0:0:0:
64,192,91096,128,0,91258:0:0:0:0:
192,192,91177,128,0,91339:0:0:0:0:
320,192,91258,128,0,91339:0:0:0:0:
448,192,91339,128,0,91420:0:0:0:0:
64,192,91420,128,0,91664:0:0:0:0:
192,192,91420,128,0,91501:0:0:0:0:
320,192,91501,128,0,91745:0:0:0:0:
448,192,91582,1,0,0:0:0:0:
192,192,91664,128,0,91907:0:0:0:0:
448,192,91745,128,0,91826:0:0:0:0:
64,192,91745,128,0,91826:0:0:0:0:
320,192,91826,128,0,91988:0:0:0:0:
64,192,91907,128,0,91988:0:0:0:0:
192,192,91988,128,0,92069:0:0:0:0:
64,192,92069,1,0,0:0:0:0:
448,192,92069,128,0,92285:0:0:0:0:
320,192,92123,128,0,92231:0:0:0:0:
192,192,92177,1,0,0:0:0:0:
64,192,92231,1,0,0:0:0:0:
192,192,92285,1,0,0:0:0:0:
320,192,92339,1,0,0:0:0:0:
64,192,92393,128,0,92609:0:0:0:0:
448,192,92393,1,0,0:0:0:0:
192,192,92447,128,0,92555:0:0:0:0:
320,192,92501,1,0,0:0:0:0:
448,192,92555,1,0,0:0:0:0:
320,192,92609,1,0,0:0:0:0:
192,192,92664,1,0,0:0:0:0:
64,192,92718,128,0,92799:0:0:0:0:
448,192,92718,1,0,0:0:0:0:
320,192,92880,1,0,0:0:0:0:
448,192,92880,1,0,0:0:0:0:
192,192,92880,128,0,92961:0:0:0:0:
448,192,93204,1,0,0:0:0:0:
64,192,93204,128,0,93285:0:0:0:0:
192,192,93204,128,0,93285:0:0:0:0:
448,192,93366,1,0,0:0:0:0:
192,192,93366,128,0,93447:0:0:0:0:
320,192,93366,128,0,93447:0:0:0:0:
64,192,93691,128,0,93772:0:0:0:0:
192,192,93691,128,0,93772:0:0:0:0:
320,192,93691,128,0,93772:0:0:0:0:
192,192,93853,128,0,93934:0:0:0:0:
320,192,93853,128,0,93934:0:0:0:0:
448,192,93853,128,0,93934:0:0:0:0:
64,192,94177,128,0,94258:0:0:0:0:
192,192,94177,128,0,94258:0:0:0:0:
320,192,94177,128,0,94258:0:0:0:0:
192,192,94339,128,0,94420:0:0:0:0:
320,192,94339,128,0,94420:0:0:0:0:
448,192,94339,128,0,94420:0:0:0:0:
64,192,94339,1,0,0:0:0:0:
64,192,94664,128,0,94745:0:0:0:0:
192,192,94664,128,0,94745:0:0:0:0:
320,192,94664,128,0,94745:0:0:0:0:
448,192,94664,128,0,94745:0:0:0:0:
192,192,94826,128,0,94907:0:0:0:0:
64,192,94826,128,0,94907:0:0:0:0:
320,192,94826,128,0,94907:0:0:0:0:
448,192,94826,128,0,94907:0:0:0:0:
192,192,95150,1,0,0:0:0:0:
320,192,95150,1,0,0:0:0:0:
448,192,95150,128,0,97258:0:0:0:0:
64,192,95150,128,0,97258:0:0:0:0:
