osu file format v14

[General]
AudioFilename: audio.mp3
AudioLeadIn: 0
PreviewTime: 55096
Countdown: 0
SampleSet: Soft
StackLeniency: 0.7
Mode: 3
LetterboxInBreaks: 0
SpecialStyle: 0
WidescreenStoryboard: 1

[Editor]
DistanceSpacing: 0.8
BeatDivisor: 4
GridSize: 32
TimelineZoom: 1.5

[Metadata]
Title:Yappari Mya-nee Number One (Cut Ver.)
TitleUnicode:やっぱりみゃー姉なんばーわん (Cut Ver.)
Artist:Hoshino Hinata (CV: Nagae Rika)
ArtistUnicode:星野ひなた (CV: 長江里加)
Creator:Seiran-
Version:Insane
Source:私に天使が舞い降りた!
Tags:KinoHimari keksikosu Ainer Cut Version Short No. 1 Loli cute voice Character Song みやこ Miyako Neechan Wataten! An Angel Flew Down to Me Watashi ni Tenshi ga Maiorita! ~天使のうたごえ~ ~Tenshi no Utagoe~ Track 02 Ayato Shinozaki Ryosuke Tachibana 橘亮祐 篠崎あやと Anime Japanese Pop Jpop
BeatmapID:4424039
BeatmapSetID:2107491

[Difficulty]
HPDrainRate:8.3
CircleSize:4
OverallDifficulty:8
ApproachRate:5
SliderMultiplier:1.4
SliderTickRate:1

[Events]
//Background and Video events
0,0,"MyaneeYabariKawaiiSo.jpg",0,0
//Break Periods
//Storyboard Layer 0 (Background)
//Storyboard Layer 1 (Fail)
//Storyboard Layer 2 (Pass)
//Storyboard Layer 3 (Foreground)
//Storyboard Layer 4 (Overlay)
//Storyboard Sound Samples

[TimingPoints]
610,324.324324324324,4,2,1,20,1,0

[HitObjects]
448,192,610,5,0,0:0:0:0:
192,192,610,128,0,772:0:0:0:0:
320,192,772,1,0,0:0:0:0:
448,192,853,1,0,0:0:0:0:
192,192,934,128,0,1096:0:0:0:0:
320,192,1096,128,0,1177:0:0:0:0:
448,192,1177,1,0,0:0:0:0:
320,192,1420,128,0,1582:0:0:0:0:
448,192,1501,1,0,0:0:0:0:
192,192,1582,128,0,1745:0:0:0:0:
320,192,1745,128,0,1907:0:0:0:0:
448,192,1826,1,0,0:0:0:0:
64,192,1907,128,0,2069:0:0:0:0:
192,192,2069,1,0,0:0:0:0:
320,192,2150,1,0,0:0:0:0:
64,192,2231,128,0,2393:0:0:0:0:
192,192,2393,128,0,2474:0:0:0:0:
320,192,2474,1,0,0:0:0:0:
192,192,2718,128,0,2880:0:0:0:0:
320,192,2799,1,0,0:0:0:0:
64,192,2880,128,0,3042:0:0:0:0:
192,192,3042,128,0,3204:0:0:0:0:
320,192,3123,1,0,0:0:0:0:
448,192,3204,128,0,3366:0:0:0:0:
192,192,3366,1,0,0:0:0:0:
64,192,3447,1,0,0:0:0:0:
320,192,3528,128,0,3691:0:0:0:0:
192,192,3691,128,0,3772:0:0:0:0:
64,192,3772,1,0,0:0:0:0:
192,192,4015,128,0,4177:0:0:0:0:
64,192,4096,1,0,0:0:0:0:
320,192,4177,128,0,4339:0:0:0:0:
192,192,4339,128,0,4501:0:0:0:0:
64,192,4420,1,0,0:0:0:0:
448,192,4501,128,0,4664:0:0:0:0:
320,192,4664,1,0,0:0:0:0:
192,192,4745,1,0,0:0:0:0:
448,192,4826,128,0,4988:0:0:0:0:
320,192,4988,1,0,0:0:0:0:
192,192,5069,1,0,0:0:0:0:
448,192,5150,128,0,5312:0:0:0:0:
448,192,5474,1,0,0:0:0:0:
192,192,5474,1,0,0:0:0:0:
64,192,5474,1,0,0:0:0:0:
192,192,5799,1,0,0:0:0:0:
64,192,5799,1,0,0:0:0:0:
448,192,5799,1,0,0:0:0:0:
320,192,5961,1,0,0:0:0:0:
192,192,5961,1,0,0:0:0:0:
320,192,6123,1,0,0:0:0:0:
448,192,6123,1,0,0:0:0:0:
64,192,6123,1,0,0:0:0:0:
192,192,6285,1,0,0:0:0:0:
448,192,6285,1,0,0:0:0:0:
64,192,6447,1,0,0:0:0:0:
192,192,6447,1,0,0:0:0:0:
320,192,6528,1,0,0:0:0:0:
448,192,6609,1,0,0:0:0:0:
64,192,6609,1,0,0:0:0:0:
192,192,6691,1,0,0:0:0:0:
448,192,6772,1,0,0:0:0:0:
320,192,6772,1,0,0:0:0:0:
320,192,6934,128,0,7096:0:0:0:0:
64,192,7096,1,0,0:0:0:0:
192,192,7096,1,0,0:0:0:0:
448,192,7096,1,0,0:0:0:0:
320,192,7258,1,0,0:0:0:0:
192,192,7258,1,0,0:0:0:0:
320,192,7420,1,0,0:0:0:0:
448,192,7420,1,0,0:0:0:0:
64,192,7420,1,0,0:0:0:0:
192,192,7582,1,0,0:0:0:0:
64,192,7582,1,0,0:0:0:0:
448,192,7745,1,0,0:0:0:0:
320,192,7745,1,0,0:0:0:0:
192,192,7826,1,0,0:0:0:0:
64,192,7907,1,0,0:0:0:0:
448,192,7907,1,0,0:0:0:0:
320,192,7988,1,0,0:0:0:0:
192,192,8069,1,0,0:0:0:0:
64,192,8069,1,0,0:0:0:0:
192,192,8231,128,0,8393:0:0:0:0:
320,192,8393,1,0,0:0:0:0:
448,192,8393,1,0,0:0:0:0:
64,192,8474,1,0,0:0:0:0:
320,192,8555,1,0,0:0:0:0:
64,192,8718,1,0,0:0:0:0:
192,192,8718,1,0,0:0:0:0:
448,192,8799,1,0,0:0:0:0:
192,192,8880,1,0,0:0:0:0:
64,192,9042,1,0,0:0:0:0:
320,192,9042,1,0,0:0:0:0:
448,192,9123,1,0,0:0:0:0:
192,192,9204,1,0,0:0:0:0:
320,192,9366,1,0,0:0:0:0:
448,192,9366,1,0,0:0:0:0:
64,192,9447,1,0,0:0:0:0:
192,192,9528,1,0,0:0:0:0:
448,192,9528,1,0,0:0:0:0:
64,192,9691,1,0,0:0:0:0:
192,192,9691,1,0,0:0:0:0:
448,192,9772,1,0,0:0:0:0:
64,192,9853,1,0,0:0:0:0:
320,192,9853,1,0,0:0:0:0:
192,192,9934,1,0,0:0:0:0:
320,192,10015,1,0,0:0:0:0:
448,192,10015,1,0,0:0:0:0:
192,192,10096,1,0,0:0:0:0:
64,192,10177,1,0,0:0:0:0:
320,192,10258,1,0,0:0:0:0:
448,192,10339,128,0,10664:0:0:0:0:
64,192,10339,128,0,10664:0:0:0:0:
192,192,10339,128,0,10501:0:0:0:0:
192,192,10664,1,0,0:0:0:0:
320,192,10664,1,0,0:0:0:0:
448,192,10826,1,0,0:0:0:0:
320,192,10988,1,0,0:0:0:0:
448,192,10988,1,0,0:0:0:0:
64,192,10988,1,0,0:0:0:0:
192,192,11150,1,0,0:0:0:0:
320,192,11150,1,0,0:0:0:0:
192,192,11312,1,0,0:0:0:0:
64,192,11312,1,0,0:0:0:0:
448,192,11312,1,0,0:0:0:0:
320,192,11474,1,0,0:0:0:0:
64,192,11474,1,0,0:0:0:0:
448,192,11637,1,0,0:0:0:0:
320,192,11637,1,0,0:0:0:0:
192,192,11718,1,0,0:0:0:0:
64,192,11799,1,0,0:0:0:0:
448,192,11799,1,0,0:0:0:0:
320,192,11880,1,0,0:0:0:0:
64,192,11961,1,0,0:0:0:0:
192,192,11961,1,0,0:0:0:0:
192,192,12123,128,0,12285:0:0:0:0:
448,192,12285,1,0,0:0:0:0:
320,192,12285,1,0,0:0:0:0:
64,192,12285,1,0,0:0:0:0:
192,192,12447,1,0,0:0:0:0:
320,192,12447,1,0,0:0:0:0:
192,192,12609,1,0,0:0:0:0:
64,192,12609,1,0,0:0:0:0:
448,192,12609,1,0,0:0:0:0:
320,192,12772,1,0,0:0:0:0:
448,192,12772,1,0,0:0:0:0:
64,192,12934,1,0,0:0:0:0:
192,192,12934,1,0,0:0:0:0:
320,192,13015,1,0,0:0:0:0:
448,192,13096,1,0,0:0:0:0:
64,192,13096,1,0,0:0:0:0:
192,192,13177,1,0,0:0:0:0:
320,192,13258,1,0,0:0:0:0:
448,192,13258,1,0,0:0:0:0:
320,192,13420,128,0,13582:0:0:0:0:
192,192,13582,1,0,0:0:0:0:
64,192,13582,1,0,0:0:0:0:
448,192,13664,1,0,0:0:0:0:
192,192,13745,1,0,0:0:0:0:
448,192,13907,1,0,0:0:0:0:
320,192,13907,1,0,0:0:0:0:
64,192,13988,1,0,0:0:0:0:
192,192,14069,1,0,0:0:0:0:
320,192,14069,1,0,0:0:0:0:
448,192,14231,1,0,0:0:0:0:
192,192,14231,1,0,0:0:0:0:
64,192,14312,1,0,0:0:0:0:
320,192,14393,1,0,0:0:0:0:
448,192,14393,1,0,0:0:0:0:
64,192,14555,1,0,0:0:0:0:
320,192,14555,1,0,0:0:0:0:
448,192,14637,1,0,0:0:0:0:
192,192,14718,1,0,0:0:0:0:
448,192,14880,1,0,0:0:0:0:
320,192,14880,1,0,0:0:0:0:
64,192,14961,1,0,0:0:0:0:
320,192,15042,1,0,0:0:0:0:
192,192,15204,1,0,0:0:0:0:
64,192,15204,1,0,0:0:0:0:
320,192,15285,1,0,0:0:0:0:
448,192,15366,1,0,0:0:0:0:
64,192,15366,1,0,0:0:0:0:
192,192,15447,1,0,0:0:0:0:
320,192,15528,128,0,15691:0:0:0:0:
448,192,15528,128,0,16015:0:0:0:0:
64,192,15528,128,0,15853:0:0:0:0:
192,192,15853,1,0,0:0:0:0:
320,192,15853,128,0,16015:0:0:0:0:
64,192,16015,1,0,0:0:0:0:
64,192,16177,5,0,0:0:0:0:
448,192,16177,1,0,0:0:0:0:
320,192,16258,1,0,0:0:0:0:
192,192,16339,1,0,0:0:0:0:
64,192,16420,1,0,0:0:0:0:
320,192,16501,1,0,0:0:0:0:
448,192,16501,1,0,0:0:0:0:
192,192,16664,1,0,0:0:0:0:
64,192,16826,1,0,0:0:0:0:
448,192,16826,1,0,0:0:0:0:
192,192,16907,1,0,0:0:0:0:
320,192,16988,1,0,0:0:0:0:
448,192,17069,1,0,0:0:0:0:
192,192,17150,1,0,0:0:0:0:
64,192,17150,1,0,0:0:0:0:
320,192,17312,1,0,0:0:0:0:
448,192,17474,1,0,0:0:0:0:
64,192,17474,1,0,0:0:0:0:
192,192,17555,1,0,0:0:0:0:
64,192,17637,1,0,0:0:0:0:
192,192,17799,1,0,0:0:0:0:
448,192,17799,1,0,0:0:0:0:
320,192,17880,1,0,0:0:0:0:
192,192,17961,1,0,0:0:0:0:
320,192,18123,1,0,0:0:0:0:
64,192,18123,1,0,0:0:0:0:
448,192,18204,1,0,0:0:0:0:
320,192,18285,1,0,0:0:0:0:
192,192,18447,1,0,0:0:0:0:
448,192,18447,1,0,0:0:0:0:
320,192,18609,1,0,0:0:0:0:
448,192,18772,1,0,0:0:0:0:
64,192,18772,1,0,0:0:0:0:
192,192,18853,1,0,0:0:0:0:
320,192,18934,1,0,0:0:0:0:
448,192,19015,1,0,0:0:0:0:
192,192,19096,1,0,0:0:0:0:
64,192,19096,1,0,0:0:0:0:
320,192,19258,1,0,0:0:0:0:
448,192,19420,1,0,0:0:0:0:
64,192,19420,1,0,0:0:0:0:
320,192,19501,1,0,0:0:0:0:
192,192,19582,1,0,0:0:0:0:
64,192,19664,1,0,0:0:0:0:
320,192,19745,1,0,0:0:0:0:
448,192,19745,1,0,0:0:0:0:
192,192,19907,1,0,0:0:0:0:
64,192,20069,1,0,0:0:0:0:
448,192,20069,1,0,0:0:0:0:
320,192,20150,1,0,0:0:0:0:
448,192,20231,1,0,0:0:0:0:
320,192,20393,1,0,0:0:0:0:
64,192,20393,1,0,0:0:0:0:
192,192,20474,1,0,0:0:0:0:
320,192,20555,1,0,0:0:0:0:
192,192,20718,1,0,0:0:0:0:
448,192,20718,1,0,0:0:0:0:
64,192,20799,1,0,0:0:0:0:
192,192,20880,1,0,0:0:0:0:
320,192,21042,1,0,0:0:0:0:
448,192,21042,1,0,0:0:0:0:
192,192,21204,1,0,0:0:0:0:
64,192,21366,1,0,0:0:0:0:
448,192,21366,1,0,0:0:0:0:
320,192,21447,1,0,0:0:0:0:
192,192,21528,1,0,0:0:0:0:
64,192,21609,1,0,0:0:0:0:
320,192,21691,1,0,0:0:0:0:
448,192,21691,1,0,0:0:0:0:
192,192,21853,1,0,0:0:0:0:
64,192,22015,1,0,0:0:0:0:
320,192,22015,1,0,0:0:0:0:
448,192,22096,1,0,0:0:0:0:
192,192,22177,1,0,0:0:0:0:
320,192,22258,1,0,0:0:0:0:
448,192,22339,1,0,0:0:0:0:
64,192,22339,1,0,0:0:0:0:
320,192,22501,1,0,0:0:0:0:
448,192,22664,1,0,0:0:0:0:
192,192,22664,1,0,0:0:0:0:
64,192,22745,1,0,0:0:0:0:
192,192,22826,1,0,0:0:0:0:
448,192,22988,1,0,0:0:0:0:
320,192,22988,1,0,0:0:0:0:
192,192,23069,1,0,0:0:0:0:
320,192,23150,1,0,0:0:0:0:
448,192,23312,1,0,0:0:0:0:
64,192,23312,1,0,0:0:0:0:
320,192,23393,1,0,0:0:0:0:
448,192,23474,1,0,0:0:0:0:
64,192,23637,1,0,0:0:0:0:
192,192,23637,1,0,0:0:0:0:
320,192,23799,1,0,0:0:0:0:
448,192,23961,1,0,0:0:0:0:
64,192,23961,1,0,0:0:0:0:
192,192,24042,1,0,0:0:0:0:
320,192,24123,1,0,0:0:0:0:
64,192,24204,1,0,0:0:0:0:
448,192,24285,1,0,0:0:0:0:
320,192,24285,128,0,24447:0:0:0:0:
192,192,24447,128,0,24609:0:0:0:0:
64,192,24609,1,0,0:0:0:0:
448,192,24609,1,0,0:0:0:0:
320,192,24691,1,0,0:0:0:0:
192,192,24772,1,0,0:0:0:0:
448,192,24853,1,0,0:0:0:0:
192,192,24934,128,0,25096:0:0:0:0:
64,192,24934,1,0,0:0:0:0:
448,192,25096,128,0,25258:0:0:0:0:
320,192,25258,1,0,0:0:0:0:
64,192,25258,1,0,0:0:0:0:
192,192,25420,1,0,0:0:0:0:
64,192,25501,1,0,0:0:0:0:
448,192,25582,1,0,0:0:0:0:
192,192,25582,1,0,0:0:0:0:
320,192,25745,1,0,0:0:0:0:
448,192,25826,1,0,0:0:0:0:
64,192,25907,1,0,0:0:0:0:
320,192,25907,1,0,0:0:0:0:
320,192,26231,1,0,0:0:0:0:
448,192,26231,1,0,0:0:0:0:
64,192,26231,1,0,0:0:0:0:
64,192,26555,1,0,0:0:0:0:
448,192,26555,1,0,0:0:0:0:
320,192,26718,1,0,0:0:0:0:
448,192,26718,1,0,0:0:0:0:
192,192,26799,1,0,0:0:0:0:
64,192,26799,1,0,0:0:0:0:
320,192,26880,128,0,26961:0:0:0:0:
448,192,26880,128,0,26961:0:0:0:0:
320,192,27042,128,0,27123:0:0:0:0:
192,192,27042,128,0,27123:0:0:0:0:
192,192,27204,128,0,27285:0:0:0:0:
64,192,27204,128,0,27285:0:0:0:0:
192,192,27366,1,0,0:0:0:0:
320,192,27366,1,0,0:0:0:0:
64,192,27447,1,0,0:0:0:0:
320,192,27528,128,0,27609:0:0:0:0:
448,192,27528,128,0,27609:0:0:0:0:
192,192,27691,128,0,27772:0:0:0:0:
320,192,27691,128,0,27772:0:0:0:0:
192,192,27853,128,0,28015:0:0:0:0:
448,192,27853,128,0,28015:0:0:0:0:
64,192,28015,1,0,0:0:0:0:
192,192,28177,128,0,28339:0:0:0:0:
448,192,28177,128,0,28339:0:0:0:0:
64,192,28339,128,0,28582:0:0:0:0:
320,192,28339,128,0,28582:0:0:0:0:
192,192,28501,1,0,0:0:0:0:
448,192,28501,1,0,0:0:0:0:
320,192,28664,128,0,28826:0:0:0:0:
64,192,28664,128,0,28826:0:0:0:0:
192,192,28826,128,0,28988:0:0:0:0:
448,192,28826,128,0,28988:0:0:0:0:
448,192,29150,1,0,0:0:0:0:
64,192,29150,1,0,0:0:0:0:
192,192,29312,1,0,0:0:0:0:
64,192,29312,1,0,0:0:0:0:
320,192,29393,1,0,0:0:0:0:
448,192,29393,1,0,0:0:0:0:
192,192,29474,128,0,29555:0:0:0:0:
64,192,29474,128,0,29555:0:0:0:0:
192,192,29637,128,0,29718:0:0:0:0:
320,192,29637,128,0,29718:0:0:0:0:
320,192,29799,128,0,29880:0:0:0:0:
448,192,29799,128,0,29880:0:0:0:0:
320,192,29961,1,0,0:0:0:0:
192,192,29961,1,0,0:0:0:0:
448,192,30042,1,0,0:0:0:0:
192,192,30123,128,0,30204:0:0:0:0:
64,192,30123,128,0,30204:0:0:0:0:
320,192,30285,128,0,30366:0:0:0:0:
192,192,30285,128,0,30366:0:0:0:0:
448,192,30447,128,0,30609:0:0:0:0:
64,192,30447,128,0,30609:0:0:0:0:
320,192,30609,1,0,0:0:0:0:
192,192,30772,128,0,30934:0:0:0:0:
448,192,30772,128,0,30934:0:0:0:0:
64,192,30934,128,0,31096:0:0:0:0:
320,192,30934,128,0,31420:0:0:0:0:
192,192,31096,1,0,0:0:0:0:
448,192,31096,1,0,0:0:0:0:
64,192,31258,1,0,0:0:0:0:
64,192,31420,1,0,0:0:0:0:
448,192,31420,1,0,0:0:0:0:
320,192,31582,1,0,0:0:0:0:
64,192,31745,1,0,0:0:0:0:
448,192,31745,1,0,0:0:0:0:
320,192,31826,1,0,0:0:0:0:
192,192,31907,1,0,0:0:0:0:
448,192,31988,1,0,0:0:0:0:
320,192,32069,1,0,0:0:0:0:
192,192,32069,1,0,0:0:0:0:
64,192,32069,1,0,0:0:0:0:
64,192,32231,1,0,0:0:0:0:
320,192,32393,1,0,0:0:0:0:
448,192,32393,1,0,0:0:0:0:
64,192,32474,1,0,0:0:0:0:
192,192,32555,1,0,0:0:0:0:
320,192,32637,1,0,0:0:0:0:
448,192,32718,1,0,0:0:0:0:
64,192,32718,1,0,0:0:0:0:
192,192,32718,1,0,0:0:0:0:
320,192,32880,1,0,0:0:0:0:
448,192,33042,1,0,0:0:0:0:
64,192,33042,1,0,0:0:0:0:
192,192,33123,1,0,0:0:0:0:
320,192,33204,1,0,0:0:0:0:
192,192,33366,1,0,0:0:0:0:
448,192,33366,1,0,0:0:0:0:
64,192,33366,1,0,0:0:0:0:
320,192,33447,1,0,0:0:0:0:
64,192,33528,1,0,0:0:0:0:
192,192,33609,1,0,0:0:0:0:
320,192,33691,1,0,0:0:0:0:
448,192,33691,1,0,0:0:0:0:
64,192,33772,1,0,0:0:0:0:
192,192,33853,1,0,0:0:0:0:
64,192,34015,1,0,0:0:0:0:
320,192,34015,1,0,0:0:0:0:
448,192,34015,1,0,0:0:0:0:
320,192,34177,1,0,0:0:0:0:
448,192,34339,1,0,0:0:0:0:
64,192,34339,1,0,0:0:0:0:
192,192,34420,1,0,0:0:0:0:
320,192,34501,1,0,0:0:0:0:
64,192,34582,1,0,0:0:0:0:
192,192,34664,1,0,0:0:0:0:
320,192,34664,1,0,0:0:0:0:
448,192,34664,1,0,0:0:0:0:
448,192,34826,1,0,0:0:0:0:
192,192,34988,1,0,0:0:0:0:
64,192,34988,1,0,0:0:0:0:
448,192,35069,1,0,0:0:0:0:
320,192,35150,1,0,0:0:0:0:
192,192,35231,1,0,0:0:0:0:
64,192,35312,1,0,0:0:0:0:
448,192,35312,1,0,0:0:0:0:
320,192,35312,1,0,0:0:0:0:
192,192,35474,1,0,0:0:0:0:
64,192,35637,1,0,0:0:0:0:
448,192,35637,1,0,0:0:0:0:
192,192,35718,1,0,0:0:0:0:
448,192,35799,1,0,0:0:0:0:
320,192,35961,1,0,0:0:0:0:
64,192,35961,1,0,0:0:0:0:
192,192,35961,1,0,0:0:0:0:
448,192,36042,1,0,0:0:0:0:
192,192,36123,1,0,0:0:0:0:
320,192,36204,1,0,0:0:0:0:
64,192,36285,1,0,0:0:0:0:
448,192,36285,1,0,0:0:0:0:
192,192,36366,1,0,0:0:0:0:
320,192,36447,1,0,0:0:0:0:
448,192,36609,1,0,0:0:0:0:
192,192,36609,1,0,0:0:0:0:
64,192,36609,1,0,0:0:0:0:
192,192,36772,1,0,0:0:0:0:
64,192,36934,1,0,0:0:0:0:
448,192,36934,1,0,0:0:0:0:
320,192,37015,1,0,0:0:0:0:
192,192,37096,1,0,0:0:0:0:
448,192,37177,1,0,0:0:0:0:
320,192,37258,1,0,0:0:0:0:
192,192,37258,1,0,0:0:0:0:
64,192,37258,1,0,0:0:0:0:
320,192,37420,1,0,0:0:0:0:
448,192,37582,1,0,0:0:0:0:
64,192,37582,1,0,0:0:0:0:
192,192,37664,1,0,0:0:0:0:
320,192,37745,1,0,0:0:0:0:
64,192,37826,1,0,0:0:0:0:
192,192,37907,1,0,0:0:0:0:
448,192,37907,1,0,0:0:0:0:
320,192,37907,1,0,0:0:0:0:
192,192,38069,1,0,0:0:0:0:
64,192,38231,1,0,0:0:0:0:
448,192,38231,1,0,0:0:0:0:
320,192,38312,1,0,0:0:0:0:
192,192,38393,1,0,0:0:0:0:
64,192,38555,1,0,0:0:0:0:
448,192,38555,1,0,0:0:0:0:
320,192,38555,1,0,0:0:0:0:
192,192,38637,1,0,0:0:0:0:
320,192,38718,1,0,0:0:0:0:
448,192,38880,1,0,0:0:0:0:
64,192,38880,1,0,0:0:0:0:
320,192,38961,1,0,0:0:0:0:
192,192,39042,1,0,0:0:0:0:
64,192,39204,1,0,0:0:0:0:
320,192,39204,1,0,0:0:0:0:
448,192,39204,1,0,0:0:0:0:
320,192,39366,1,0,0:0:0:0:
64,192,39528,1,0,0:0:0:0:
448,192,39528,1,0,0:0:0:0:
192,192,39609,1,0,0:0:0:0:
448,192,39691,1,0,0:0:0:0:
320,192,39772,1,0,0:0:0:0:
64,192,39853,1,0,0:0:0:0:
192,192,39853,128,0,40015:0:0:0:0:
448,192,39853,1,0,0:0:0:0:
320,192,40015,128,0,40177:0:0:0:0:
64,192,40177,1,0,0:0:0:0:
448,192,40177,1,0,0:0:0:0:
320,192,40258,1,0,0:0:0:0:
64,192,40339,1,0,0:0:0:0:
192,192,40420,1,0,0:0:0:0:
448,192,40501,1,0,0:0:0:0:
64,192,40501,1,0,0:0:0:0:
320,192,40501,128,0,40664:0:0:0:0:
192,192,40664,128,0,40826:0:0:0:0:
320,192,40826,1,0,0:0:0:0:
448,192,40826,1,0,0:0:0:0:
64,192,40907,1,0,0:0:0:0:
320,192,40988,1,0,0:0:0:0:
192,192,40988,1,0,0:0:0:0:
448,192,41069,1,0,0:0:0:0:
64,192,41150,1,0,0:0:0:0:
192,192,41150,1,0,0:0:0:0:
448,192,41231,1,0,0:0:0:0:
192,192,41312,1,0,0:0:0:0:
320,192,41312,1,0,0:0:0:0:
64,192,41393,1,0,0:0:0:0:
320,192,41474,1,0,0:0:0:0:
448,192,41474,1,0,0:0:0:0:
448,192,41799,1,0,0:0:0:0:
64,192,41799,1,0,0:0:0:0:
192,192,41799,1,0,0:0:0:0:
448,192,42123,1,0,0:0:0:0:
64,192,42123,128,0,42285:0:0:0:0:
192,192,42123,128,0,42285:0:0:0:0:
320,192,42285,1,0,0:0:0:0:
320,192,42447,1,0,0:0:0:0:
448,192,42447,1,0,0:0:0:0:
64,192,42447,1,0,0:0:0:0:
192,192,42609,128,0,42853:0:0:0:0:
448,192,42609,1,0,0:0:0:0:
320,192,42772,128,0,43015:0:0:0:0:
64,192,42772,128,0,42853:0:0:0:0:
448,192,42934,128,0,43177:0:0:0:0:
192,192,42934,128,0,43015:0:0:0:0:
320,192,43096,128,0,43177:0:0:0:0:
192,192,43096,1,0,0:0:0:0:
64,192,43096,1,0,0:0:0:0:
448,192,43258,128,0,43339:0:0:0:0:
64,192,43258,1,0,0:0:0:0:
320,192,43420,128,0,43582:0:0:0:0:
448,192,43420,128,0,43582:0:0:0:0:
192,192,43582,1,0,0:0:0:0:
448,192,43745,1,0,0:0:0:0:
192,192,43745,1,0,0:0:0:0:
64,192,43745,1,0,0:0:0:0:
320,192,43907,128,0,44150:0:0:0:0:
64,192,43907,1,0,0:0:0:0:
192,192,44069,128,0,44312:0:0:0:0:
448,192,44069,128,0,44150:0:0:0:0:
64,192,44231,128,0,44474:0:0:0:0:
320,192,44231,128,0,44312:0:0:0:0:
192,192,44393,128,0,44474:0:0:0:0:
320,192,44393,1,0,0:0:0:0:
448,192,44393,1,0,0:0:0:0:
64,192,44555,128,0,44637:0:0:0:0:
448,192,44555,1,0,0:0:0:0:
64,192,44718,128,0,44880:0:0:0:0:
192,192,44718,128,0,44880:0:0:0:0:
320,192,44880,1,0,0:0:0:0:
320,192,45042,1,0,0:0:0:0:
448,192,45042,1,0,0:0:0:0:
64,192,45042,1,0,0:0:0:0:
192,192,45204,128,0,45447:0:0:0:0:
448,192,45204,1,0,0:0:0:0:
320,192,45366,128,0,45609:0:0:0:0:
64,192,45366,128,0,45447:0:0:0:0:
448,192,45528,128,0,45772:0:0:0:0:
192,192,45528,128,0,45609:0:0:0:0:
320,192,45691,128,0,45772:0:0:0:0:
192,192,45691,1,0,0:0:0:0:
64,192,45691,1,0,0:0:0:0:
448,192,45853,128,0,45934:0:0:0:0:
64,192,45853,1,0,0:0:0:0:
64,192,46015,128,0,46177:0:0:0:0:
192,192,46015,128,0,46177:0:0:0:0:
448,192,46177,1,0,0:0:0:0:
448,192,46339,1,0,0:0:0:0:
64,192,46339,1,0,0:0:0:0:
192,192,46339,1,0,0:0:0:0:
192,192,46501,1,0,0:0:0:0:
320,192,46501,1,0,0:0:0:0:
320,192,46664,128,0,46745:0:0:0:0:
448,192,46664,128,0,46907:0:0:0:0:
320,192,46826,128,0,47069:0:0:0:0:
64,192,46826,1,0,0:0:0:0:
448,192,46988,128,0,47231:0:0:0:0:
64,192,46988,1,0,0:0:0:0:
192,192,46988,1,0,0:0:0:0:
320,192,47150,128,0,47231:0:0:0:0:
192,192,47150,1,0,0:0:0:0:
64,192,47312,1,0,0:0:0:0:
448,192,47312,128,0,47474:0:0:0:0:
320,192,47312,128,0,47474:0:0:0:0:
192,192,47474,1,0,0:0:0:0:
192,192,47637,1,0,0:0:0:0:
64,192,47637,1,0,0:0:0:0:
448,192,47637,1,0,0:0:0:0:
320,192,47799,128,0,48042:0:0:0:0:
64,192,47799,1,0,0:0:0:0:
192,192,47961,128,0,48204:0:0:0:0:
448,192,47961,128,0,48042:0:0:0:0:
64,192,48123,128,0,48366:0:0:0:0:
320,192,48123,128,0,48204:0:0:0:0:
192,192,48285,128,0,48366:0:0:0:0:
320,192,48285,1,0,0:0:0:0:
448,192,48285,1,0,0:0:0:0:
64,192,48447,128,0,48528:0:0:0:0:
448,192,48447,1,0,0:0:0:0:
192,192,48609,128,0,48772:0:0:0:0:
64,192,48609,128,0,48772:0:0:0:0:
320,192,48772,1,0,0:0:0:0:
64,192,48934,1,0,0:0:0:0:
320,192,48934,1,0,0:0:0:0:
448,192,48934,1,0,0:0:0:0:
192,192,49096,128,0,49339:0:0:0:0:
448,192,49096,1,0,0:0:0:0:
320,192,49258,128,0,49501:0:0:0:0:
64,192,49258,128,0,49339:0:0:0:0:
448,192,49420,128,0,49664:0:0:0:0:
192,192,49420,128,0,49501:0:0:0:0:
320,192,49582,128,0,49664:0:0:0:0:
192,192,49582,1,0,0:0:0:0:
64,192,49582,1,0,0:0:0:0:
448,192,49745,128,0,49826:0:0:0:0:
64,192,49745,1,0,0:0:0:0:
448,192,49907,128,0,50069:0:0:0:0:
320,192,49907,128,0,50069:0:0:0:0:
192,192,50069,1,0,0:0:0:0:
192,192,50231,1,0,0:0:0:0:
64,192,50231,1,0,0:0:0:0:
448,192,50231,1,0,0:0:0:0:
320,192,50393,128,0,50637:0:0:0:0:
64,192,50393,1,0,0:0:0:0:
192,192,50555,128,0,50799:0:0:0:0:
448,192,50555,128,0,50637:0:0:0:0:
64,192,50718,128,0,50961:0:0:0:0:
320,192,50718,128,0,50799:0:0:0:0:
192,192,50880,128,0,50961:0:0:0:0:
320,192,50880,1,0,0:0:0:0:
448,192,50880,1,0,0:0:0:0:
64,192,51042,128,0,51123:0:0:0:0:
448,192,51042,1,0,0:0:0:0:
64,192,51204,128,0,51366:0:0:0:0:
192,192,51204,128,0,51366:0:0:0:0:
320,192,51204,128,0,51366:0:0:0:0:
192,192,51528,128,0,51691:0:0:0:0:
320,192,51528,128,0,51691:0:0:0:0:
448,192,51528,128,0,51691:0:0:0:0:
448,192,51853,128,0,52015:0:0:0:0:
64,192,51853,128,0,52015:0:0:0:0:
320,192,51853,128,0,52015:0:0:0:0:
192,192,52015,1,0,0:0:0:0:
320,192,52177,1,0,0:0:0:0:
448,192,52177,1,0,0:0:0:0:
64,192,52177,1,0,0:0:0:0:
320,192,52339,1,0,0:0:0:0:
192,192,52501,1,0,0:0:0:0:
64,192,52501,1,0,0:0:0:0:
448,192,52501,1,0,0:0:0:0:
192,192,52664,1,0,0:0:0:0:
64,192,52664,1,0,0:0:0:0:
448,192,52664,1,0,0:0:0:0:
192,192,52988,1,0,0:0:0:0:
320,192,52988,1,0,0:0:0:0:
448,192,52988,1,0,0:0:0:0:
320,192,53150,1,0,0:0:0:0:
192,192,53150,1,0,0:0:0:0:
448,192,53150,1,0,0:0:0:0:
320,192,53474,1,0,0:0:0:0:
448,192,53474,1,0,0:0:0:0:
64,192,53474,1,0,0:0:0:0:
448,192,53637,1,0,0:0:0:0:
320,192,53637,1,0,0:0:0:0:
64,192,53637,1,0,0:0:0:0:
64,192,53961,5,0,0:0:0:0:
192,192,53961,1,0,0:0:0:0:
448,192,53961,1,0,0:0:0:0:
320,192,54123,1,0,0:0:0:0:
64,192,54123,128,0,54772:0:0:0:0:
448,192,54123,128,0,54772:0:0:0:0:
192,192,54772,1,0,0:0:0:0:
320,192,54772,1,0,0:0:0:0:
64,192,55096,5,0,0:0:0:0:
192,192,55096,1,0,0:0:0:0:
320,192,55177,1,0,0:0:0:0:
448,192,55258,1,0,0:0:0:0:
320,192,55339,1,0,0:0:0:0:
192,192,55420,1,0,0:0:0:0:
64,192,55420,1,0,0:0:0:0:
320,192,55501,1,0,0:0:0:0:
448,192,55582,1,0,0:0:0:0:
320,192,55664,1,0,0:0:0:0:
192,192,55745,1,0,0:0:0:0:
64,192,55745,1,0,0:0:0:0:
320,192,55826,1,0,0:0:0:0:
448,192,55907,1,0,0:0:0:0:
320,192,55988,1,0,0:0:0:0:
64,192,56069,1,0,0:0:0:0:
192,192,56069,1,0,0:0:0:0:
448,192,56150,1,0,0:0:0:0:
320,192,56231,1,0,0:0:0:0:
64,192,56231,1,0,0:0:0:0:
192,192,56312,1,0,0:0:0:0:
448,192,56393,1,0,0:0:0:0:
320,192,56474,1,0,0:0:0:0:
192,192,56555,1,0,0:0:0:0:
64,192,56555,1,0,0:0:0:0:
320,192,56637,1,0,0:0:0:0:
192,192,56718,1,0,0:0:0:0:
448,192,56799,1,0,0:0:0:0:
320,192,56880,1,0,0:0:0:0:
64,192,56880,1,0,0:0:0:0:
192,192,56961,1,0,0:0:0:0:
320,192,57042,1,0,0:0:0:0:
448,192,57042,1,0,0:0:0:0:
64,192,57123,1,0,0:0:0:0:
192,192,57204,1,0,0:0:0:0:
320,192,57285,1,0,0:0:0:0:
448,192,57366,1,0,0:0:0:0:
192,192,57366,1,0,0:0:0:0:
64,192,57447,1,0,0:0:0:0:
320,192,57528,1,0,0:0:0:0:
192,192,57609,1,0,0:0:0:0:
64,192,57691,1,0,0:0:0:0:
448,192,57691,1,0,0:0:0:0:
320,192,57772,1,0,0:0:0:0:
192,192,57853,1,0,0:0:0:0:
448,192,57934,1,0,0:0:0:0:
320,192,58015,1,0,0:0:0:0:
64,192,58015,1,0,0:0:0:0:
192,192,58096,1,0,0:0:0:0:
320,192,58177,1,0,0:0:0:0:
448,192,58258,1,0,0:0:0:0:
192,192,58339,1,0,0:0:0:0:
64,192,58339,1,0,0:0:0:0:
448,192,58420,1,0,0:0:0:0:
320,192,58501,1,0,0:0:0:0:
64,192,58582,1,0,0:0:0:0:
192,192,58664,1,0,0:0:0:0:
448,192,58664,1,0,0:0:0:0:
320,192,58745,1,0,0:0:0:0:
192,192,58826,1,0,0:0:0:0:
64,192,58907,1,0,0:0:0:0:
320,192,58988,1,0,0:0:0:0:
448,192,58988,1,0,0:0:0:0:
192,192,59069,1,0,0:0:0:0:
320,192,59150,1,0,0:0:0:0:
448,192,59231,1,0,0:0:0:0:
192,192,59312,1,0,0:0:0:0:
64,192,59312,1,0,0:0:0:0:
320,192,59393,1,0,0:0:0:0:
192,192,59474,1,0,0:0:0:0:
64,192,59555,1,0,0:0:0:0:
448,192,59637,1,0,0:0:0:0:
320,192,59637,1,0,0:0:0:0:
192,192,59718,1,0,0:0:0:0:
320,192,59799,1,0,0:0:0:0:
448,192,59880,1,0,0:0:0:0:
64,192,59961,128,0,60123:0:0:0:0:
192,192,59961,128,0,60123:0:0:0:0:
448,192,60285,1,0,0:0:0:0:
320,192,60285,1,0,0:0:0:0:
192,192,60366,1,0,0:0:0:0:
64,192,60447,1,0,0:0:0:0:
192,192,60528,1,0,0:0:0:0:
320,192,60609,1,0,0:0:0:0:
448,192,60609,1,0,0:0:0:0:
192,192,60691,1,0,0:0:0:0:
64,192,60772,1,0,0:0:0:0:
192,192,60853,1,0,0:0:0:0:
320,192,60934,1,0,0:0:0:0:
448,192,60934,1,0,0:0:0:0:
192,192,61015,1,0,0:0:0:0:
64,192,61096,1,0,0:0:0:0:
192,192,61177,1,0,0:0:0:0:
320,192,61258,1,0,0:0:0:0:
64,192,61339,1,0,0:0:0:0:
192,192,61420,1,0,0:0:0:0:
448,192,61420,1,0,0:0:0:0:
320,192,61501,1,0,0:0:0:0:
64,192,61582,1,0,0:0:0:0:
192,192,61664,1,0,0:0:0:0:
320,192,61745,1,0,0:0:0:0:
448,192,61745,1,0,0:0:0:0:
192,192,61826,1,0,0:0:0:0:
320,192,61907,1,0,0:0:0:0:
64,192,61988,1,0,0:0:0:0:
192,192,62069,1,0,0:0:0:0:
448,192,62069,1,0,0:0:0:0:
320,192,62150,1,0,0:0:0:0:
192,192,62231,1,0,0:0:0:0:
64,192,62231,1,0,0:0:0:0:
448,192,62312,1,0,0:0:0:0:
320,192,62393,1,0,0:0:0:0:
192,192,62474,1,0,0:0:0:0:
64,192,62555,1,0,0:0:0:0:
320,192,62555,1,0,0:0:0:0:
448,192,62637,1,0,0:0:0:0:
192,192,62718,1,0,0:0:0:0:
320,192,62799,1,0,0:0:0:0:
448,192,62880,1,0,0:0:0:0:
64,192,62880,1,0,0:0:0:0:
192,192,62880,1,0,0:0:0:0:
320,192,63042,1,0,0:0:0:0:
448,192,63123,1,0,0:0:0:0:
64,192,63204,1,0,0:0:0:0:
320,192,63204,128,0,63447:0:0:0:0:
64,192,63366,128,0,63447:0:0:0:0:
64,192,63528,1,0,0:0:0:0:
320,192,63528,1,0,0:0:0:0:
448,192,63528,1,0,0:0:0:0:
192,192,63691,1,0,0:0:0:0:
64,192,63772,1,0,0:0:0:0:
192,192,63853,128,0,64015:0:0:0:0:
448,192,63853,128,0,64015:0:0:0:0:
320,192,64177,128,0,64339:0:0:0:0:
448,192,64177,128,0,64339:0:0:0:0:
192,192,64177,128,0,64339:0:0:0:0:
64,192,64339,1,0,0:0:0:0:
192,192,64420,1,0,0:0:0:0:
320,192,64501,128,0,64664:0:0:0:0:
448,192,64501,128,0,64664:0:0:0:0:
64,192,64501,1,0,0:0:0:0:
192,192,64664,1,0,0:0:0:0:
320,192,64745,1,0,0:0:0:0:
448,192,64826,128,0,64988:0:0:0:0:
192,192,64826,1,0,0:0:0:0:
64,192,64826,1,0,0:0:0:0:
64,192,65150,128,0,65312:0:0:0:0:
192,192,65150,128,0,65312:0:0:0:0:
448,192,65150,1,0,0:0:0:0:
448,192,65474,1,0,0:0:0:0:
64,192,65474,1,0,0:0:0:0:
192,192,65555,1,0,0:0:0:0:
448,192,65637,1,0,0:0:0:0:
192,192,65718,1,0,0:0:0:0:
64,192,65799,1,0,0:0:0:0:
448,192,65799,1,0,0:0:0:0:
320,192,65880,1,0,0:0:0:0:
64,192,65961,1,0,0:0:0:0:
320,192,66042,1,0,0:0:0:0:
448,192,66123,1,0,0:0:0:0:
64,192,66123,1,0,0:0:0:0:
192,192,66204,1,0,0:0:0:0:
448,192,66285,1,0,0:0:0:0:
192,192,66366,1,0,0:0:0:0:
320,192,66447,1,0,0:0:0:0:
448,192,66528,1,0,0:0:0:0:
192,192,66609,1,0,0:0:0:0:
64,192,66609,1,0,0:0:0:0:
448,192,66691,1,0,0:0:0:0:
320,192,66772,1,0,0:0:0:0:
192,192,66853,1,0,0:0:0:0:
64,192,66934,1,0,0:0:0:0:
448,192,66934,1,0,0:0:0:0:
320,192,67015,1,0,0:0:0:0:
192,192,67096,1,0,0:0:0:0:
320,192,67177,1,0,0:0:0:0:
448,192,67258,1,0,0:0:0:0:
64,192,67258,1,0,0:0:0:0:
192,192,67339,1,0,0:0:0:0:
320,192,67420,1,0,0:0:0:0:
448,192,67420,1,0,0:0:0:0:
64,192,67501,1,0,0:0:0:0:
192,192,67582,1,0,0:0:0:0:
448,192,67664,1,0,0:0:0:0:
320,192,67745,1,0,0:0:0:0:
64,192,67745,1,0,0:0:0:0:
192,192,67826,1,0,0:0:0:0:
448,192,67907,1,0,0:0:0:0:
320,192,67988,1,0,0:0:0:0:
192,192,68069,1,0,0:0:0:0:
64,192,68069,1,0,0:0:0:0:
448,192,68150,1,0,0:0:0:0:
320,192,68231,1,0,0:0:0:0:
64,192,68312,1,0,0:0:0:0:
192,192,68393,1,0,0:0:0:0:
448,192,68393,1,0,0:0:0:0:
320,192,68474,1,0,0:0:0:0:
64,192,68555,1,0,0:0:0:0:
192,192,68637,1,0,0:0:0:0:
448,192,68718,1,0,0:0:0:0:
320,192,68718,1,0,0:0:0:0:
64,192,68799,1,0,0:0:0:0:
192,192,68880,1,0,0:0:0:0:
448,192,68961,1,0,0:0:0:0:
320,192,69042,1,0,0:0:0:0:
64,192,69042,1,0,0:0:0:0:
192,192,69123,1,0,0:0:0:0:
448,192,69204,1,0,0:0:0:0:
320,192,69285,1,0,0:0:0:0:
192,192,69366,1,0,0:0:0:0:
64,192,69366,1,0,0:0:0:0:
320,192,69447,1,0,0:0:0:0:
64,192,69528,1,0,0:0:0:0:
448,192,69528,1,0,0:0:0:0:
192,192,69609,1,0,0:0:0:0:
320,192,69691,1,0,0:0:0:0:
448,192,69691,1,0,0:0:0:0:
192,192,69772,1,0,0:0:0:0:
320,192,69853,1,0,0:0:0:0:
64,192,69853,1,0,0:0:0:0:
448,192,69934,1,0,0:0:0:0:
192,192,70015,1,0,0:0:0:0:
64,192,70015,1,0,0:0:0:0:
448,192,70096,1,0,0:0:0:0:
320,192,70177,1,0,0:0:0:0:
192,192,70258,1,0,0:0:0:0:
320,192,70339,1,0,0:0:0:0:
64,192,70339,128,0,70501:0:0:0:0:
448,192,70339,128,0,70501:0:0:0:0:
448,192,70664,1,0,0:0:0:0:
64,192,70664,1,0,0:0:0:0:
320,192,70745,1,0,0:0:0:0:
64,192,70826,1,0,0:0:0:0:
320,192,70907,1,0,0:0:0:0:
64,192,70988,1,0,0:0:0:0:
448,192,70988,1,0,0:0:0:0:
192,192,71069,1,0,0:0:0:0:
448,192,71150,1,0,0:0:0:0:
192,192,71231,1,0,0:0:0:0:
64,192,71312,1,0,0:0:0:0:
448,192,71312,1,0,0:0:0:0:
320,192,71393,1,0,0:0:0:0:
64,192,71474,1,0,0:0:0:0:
320,192,71555,1,0,0:0:0:0:
192,192,71637,1,0,0:0:0:0:
64,192,71718,1,0,0:0:0:0:
320,192,71799,1,0,0:0:0:0:
448,192,71799,1,0,0:0:0:0:
64,192,71880,1,0,0:0:0:0:
192,192,71961,1,0,0:0:0:0:
320,192,72042,1,0,0:0:0:0:
448,192,72123,1,0,0:0:0:0:
64,192,72123,1,0,0:0:0:0:
192,192,72204,1,0,0:0:0:0:
320,192,72285,1,0,0:0:0:0:
192,192,72366,1,0,0:0:0:0:
64,192,72447,1,0,0:0:0:0:
448,192,72447,1,0,0:0:0:0:
320,192,72528,1,0,0:0:0:0:
192,192,72609,1,0,0:0:0:0:
64,192,72609,1,0,0:0:0:0:
448,192,72691,1,0,0:0:0:0:
320,192,72772,1,0,0:0:0:0:
64,192,72853,1,0,0:0:0:0:
192,192,72934,1,0,0:0:0:0:
448,192,72934,1,0,0:0:0:0:
320,192,73015,1,0,0:0:0:0:
64,192,73096,1,0,0:0:0:0:
192,192,73177,1,0,0:0:0:0:
64,192,73258,1,0,0:0:0:0:
448,192,73258,1,0,0:0:0:0:
320,192,73258,1,0,0:0:0:0:
192,192,73420,1,0,0:0:0:0:
64,192,73501,1,0,0:0:0:0:
448,192,73582,128,0,73745:0:0:0:0:
192,192,73582,1,0,0:0:0:0:
320,192,73582,128,0,73745:0:0:0:0:
448,192,73907,1,0,0:0:0:0:
192,192,73907,1,0,0:0:0:0:
64,192,73907,1,0,0:0:0:0:
320,192,74069,1,0,0:0:0:0:
448,192,74150,1,0,0:0:0:0:
192,192,74231,1,0,0:0:0:0:
320,192,74231,128,0,74474:0:0:0:0:
64,192,74231,1,0,0:0:0:0:
64,192,74393,128,0,74474:0:0:0:0:
192,192,74555,128,0,74718:0:0:0:0:
64,192,74555,128,0,74718:0:0:0:0:
320,192,74555,128,0,74718:0:0:0:0:
448,192,74718,1,0,0:0:0:0:
320,192,74799,1,0,0:0:0:0:
192,192,74880,128,0,75042:0:0:0:0:
64,192,74880,128,0,75042:0:0:0:0:
448,192,74880,1,0,0:0:0:0:
320,192,75042,1,0,0:0:0:0:
192,192,75123,1,0,0:0:0:0:
64,192,75204,128,0,75366:0:0:0:0:
320,192,75204,1,0,0:0:0:0:
448,192,75204,1,0,0:0:0:0:
192,192,75528,128,0,75691:0:0:0:0:
448,192,75528,128,0,75691:0:0:0:0:
320,192,75528,1,0,0:0:0:0:
448,192,75853,1,0,0:0:0:0:
64,192,75853,1,0,0:0:0:0:
192,192,75853,1,0,0:0:0:0:
320,192,76015,1,0,0:0:0:0:
448,192,76096,1,0,0:0:0:0:
64,192,76177,128,0,76339:0:0:0:0:
192,192,76177,128,0,76339:0:0:0:0:
320,192,76177,1,0,0:0:0:0:
64,192,76501,1,0,0:0:0:0:
320,192,76501,1,0,0:0:0:0:
448,192,76501,1,0,0:0:0:0:
192,192,76664,1,0,0:0:0:0:
64,192,76745,1,0,0:0:0:0:
320,192,76826,1,0,0:0:0:0:
192,192,76826,128,0,77069:0:0:0:0:
448,192,76826,1,0,0:0:0:0:
448,192,76988,128,0,77069:0:0:0:0:
320,192,77150,128,0,77312:0:0:0:0:
448,192,77150,128,0,77312:0:0:0:0:
192,192,77150,128,0,77312:0:0:0:0:
64,192,77312,1,0,0:0:0:0:
192,192,77393,1,0,0:0:0:0:
320,192,77474,128,0,77637:0:0:0:0:
448,192,77474,128,0,77637:0:0:0:0:
64,192,77474,1,0,0:0:0:0:
192,192,77637,1,0,0:0:0:0:
320,192,77718,1,0,0:0:0:0:
448,192,77799,128,0,77961:0:0:0:0:
192,192,77799,1,0,0:0:0:0:
64,192,77799,1,0,0:0:0:0:
64,192,78123,128,0,78285:0:0:0:0:
192,192,78123,128,0,78285:0:0:0:0:
320,192,78123,1,0,0:0:0:0:
448,192,78447,1,0,0:0:0:0:
320,192,78447,1,0,0:0:0:0:
64,192,78447,1,0,0:0:0:0:
192,192,78609,1,0,0:0:0:0:
320,192,78691,1,0,0:0:0:0:
448,192,78772,1,0,0:0:0:0:
192,192,78772,1,0,0:0:0:0:
64,192,78772,128,0,79015:0:0:0:0:
320,192,78934,128,0,79015:0:0:0:0:
64,192,79096,1,0,0:0:0:0:
320,192,79096,128,0,79258:0:0:0:0:
448,192,79096,128,0,79258:0:0:0:0:
192,192,79258,1,0,0:0:0:0:
320,192,79339,1,0,0:0:0:0:
192,192,79420,128,0,79582:0:0:0:0:
64,192,79420,128,0,79582:0:0:0:0:
448,192,79420,1,0,0:0:0:0:
64,192,79745,1,0,0:0:0:0:
192,192,79745,1,0,0:0:0:0:
448,192,79745,1,0,0:0:0:0:
320,192,79907,1,0,0:0:0:0:
192,192,79907,1,0,0:0:0:0:
320,192,80069,1,0,0:0:0:0:
448,192,80069,1,0,0:0:0:0:
192,192,80231,1,0,0:0:0:0:
64,192,80231,1,0,0:0:0:0:
64,192,80393,1,0,0:0:0:0:
320,192,80393,1,0,0:0:0:0:
448,192,80393,1,0,0:0:0:0:
320,192,80555,1,0,0:0:0:0:
192,192,80555,1,0,0:0:0:0:
192,192,80718,1,0,0:0:0:0:
64,192,80718,1,0,0:0:0:0:
320,192,80880,1,0,0:0:0:0:
448,192,80880,1,0,0:0:0:0:
192,192,81042,1,0,0:0:0:0:
64,192,81042,1,0,0:0:0:0:
320,192,81123,1,0,0:0:0:0:
64,192,81204,1,0,0:0:0:0:
448,192,81204,1,0,0:0:0:0:
192,192,81285,1,0,0:0:0:0:
320,192,81366,1,0,0:0:0:0:
448,192,81366,1,0,0:0:0:0:
192,192,81447,1,0,0:0:0:0:
64,192,81528,1,0,0:0:0:0:
448,192,81528,1,0,0:0:0:0:
320,192,81609,1,0,0:0:0:0:
192,192,81691,128,0,82015:0:0:0:0:
320,192,82015,1,0,0:0:0:0:
448,192,82015,1,0,0:0:0:0:
64,192,82015,1,0,0:0:0:0:
192,192,82339,1,0,0:0:0:0:
64,192,82339,1,0,0:0:0:0:
320,192,82420,1,0,0:0:0:0:
448,192,82420,1,0,0:0:0:0:
64,192,82501,1,0,0:0:0:0:
192,192,82582,1,0,0:0:0:0:
320,192,82664,1,0,0:0:0:0:
448,192,82664,1,0,0:0:0:0:
192,192,82745,1,0,0:0:0:0:
64,192,82745,1,0,0:0:0:0:
448,192,82826,1,0,0:0:0:0:
320,192,82907,1,0,0:0:0:0:
64,192,82988,1,0,0:0:0:0:
192,192,82988,1,0,0:0:0:0:
320,192,83069,1,0,0:0:0:0:
448,192,83069,1,0,0:0:0:0:
64,192,83150,1,0,0:0:0:0:
192,192,83231,1,0,0:0:0:0:
320,192,83312,1,0,0:0:0:0:
448,192,83312,1,0,0:0:0:0:
64,192,83393,1,0,0:0:0:0:
320,192,83474,1,0,0:0:0:0:
448,192,83555,1,0,0:0:0:0:
192,192,83637,1,0,0:0:0:0:
64,192,83637,1,0,0:0:0:0:
320,192,83718,1,0,0:0:0:0:
448,192,83718,1,0,0:0:0:0:
64,192,83799,1,0,0:0:0:0:
192,192,83880,1,0,0:0:0:0:
320,192,83961,1,0,0:0:0:0:
448,192,83961,1,0,0:0:0:0:
192,192,84042,1,0,0:0:0:0:
64,192,84042,1,0,0:0:0:0:
448,192,84123,1,0,0:0:0:0:
320,192,84204,1,0,0:0:0:0:
192,192,84285,1,0,0:0:0:0:
64,192,84285,1,0,0:0:0:0:
320,192,84366,1,0,0:0:0:0:
448,192,84366,1,0,0:0:0:0:
64,192,84447,1,0,0:0:0:0:
192,192,84528,1,0,0:0:0:0:
320,192,84609,1,0,0:0:0:0:
448,192,84609,1,0,0:0:0:0:
192,192,84691,1,0,0:0:0:0:
64,192,84772,1,0,0:0:0:0:
320,192,84853,1,0,0:0:0:0:
64,192,84934,1,0,0:0:0:0:
192,192,84934,1,0,0:0:0:0:
448,192,85015,1,0,0:0:0:0:
320,192,85096,1,0,0:0:0:0:
64,192,85177,1,0,0:0:0:0:
192,192,85258,1,0,0:0:0:0:
448,192,85258,1,0,0:0:0:0:
320,192,85339,1,0,0:0:0:0:
64,192,85420,1,0,0:0:0:0:
192,192,85501,1,0,0:0:0:0:
320,192,85582,1,0,0:0:0:0:
448,192,85582,1,0,0:0:0:0:
192,192,85664,1,0,0:0:0:0:
64,192,85745,1,0,0:0:0:0:
320,192,85826,1,0,0:0:0:0:
192,192,85907,1,0,0:0:0:0:
64,192,85907,1,0,0:0:0:0:
320,192,85988,1,0,0:0:0:0:
448,192,86069,1,0,0:0:0:0:
192,192,86069,1,0,0:0:0:0:
64,192,86150,1,0,0:0:0:0:
320,192,86231,1,0,0:0:0:0:
448,192,86231,1,0,0:0:0:0:
192,192,86312,1,0,0:0:0:0:
64,192,86393,1,0,0:0:0:0:
448,192,86393,1,0,0:0:0:0:
320,192,86474,1,0,0:0:0:0:
192,192,86555,1,0,0:0:0:0:
64,192,86555,1,0,0:0:0:0:
448,192,86637,1,0,0:0:0:0:
320,192,86718,1,0,0:0:0:0:
64,192,86799,1,0,0:0:0:0:
192,192,86880,1,0,0:0:0:0:
448,192,86880,1,0,0:0:0:0:
320,192,86961,1,0,0:0:0:0:
64,192,87042,1,0,0:0:0:0:
192,192,87123,1,0,0:0:0:0:
320,192,87204,1,0,0:0:0:0:
448,192,87204,1,0,0:0:0:0:
192,192,87366,1,0,0:0:0:0:
320,192,87528,1,0,0:0:0:0:
448,192,87528,1,0,0:0:0:0:
192,192,87609,1,0,0:0:0:0:
64,192,87609,1,0,0:0:0:0:
448,192,87691,1,0,0:0:0:0:
320,192,87772,1,0,0:0:0:0:
192,192,87853,1,0,0:0:0:0:
64,192,87853,1,0,0:0:0:0:
320,192,87934,1,0,0:0:0:0:
448,192,87934,1,0,0:0:0:0:
64,192,88015,1,0,0:0:0:0:
192,192,88096,1,0,0:0:0:0:
448,192,88177,1,0,0:0:0:0:
320,192,88177,1,0,0:0:0:0:
192,192,88258,1,0,0:0:0:0:
64,192,88258,1,0,0:0:0:0:
448,192,88339,1,0,0:0:0:0:
320,192,88420,1,0,0:0:0:0:
192,192,88501,1,0,0:0:0:0:
64,192,88501,1,0,0:0:0:0:
448,192,88582,1,0,0:0:0:0:
192,192,88664,1,0,0:0:0:0:
64,192,88745,1,0,0:0:0:0:
320,192,88826,1,0,0:0:0:0:
448,192,88826,1,0,0:0:0:0:
192,192,88907,1,0,0:0:0:0:
64,192,88907,1,0,0:0:0:0:
448,192,88988,1,0,0:0:0:0:
320,192,89069,1,0,0:0:0:0:
192,192,89150,1,0,0:0:0:0:
64,192,89150,1,0,0:0:0:0:
320,192,89231,1,0,0:0:0:0:
448,192,89231,1,0,0:0:0:0:
64,192,89312,1,0,0:0:0:0:
192,192,89393,1,0,0:0:0:0:
320,192,89474,1,0,0:0:0:0:
448,192,89474,1,0,0:0:0:0:
192,192,89555,1,0,0:0:0:0:
64,192,89555,1,0,0:0:0:0:
448,192,89637,1,0,0:0:0:0:
320,192,89718,1,0,0:0:0:0:
192,192,89799,1,0,0:0:0:0:
64,192,89799,1,0,0:0:0:0:
320,192,89880,1,0,0:0:0:0:
448,192,89961,1,0,0:0:0:0:
192,192,90042,1,0,0:0:0:0:
448,192,90123,1,0,0:0:0:0:
320,192,90123,1,0,0:0:0:0:
64,192,90204,1,0,0:0:0:0:
192,192,90285,1,0,0:0:0:0:
448,192,90366,1,0,0:0:0:0:
320,192,90447,1,0,0:0:0:0:
64,192,90447,1,0,0:0:0:0:
192,192,90528,1,0,0:0:0:0:
448,192,90609,1,0,0:0:0:0:
320,192,90609,1,0,0:0:0:0:
192,192,90691,1,0,0:0:0:0:
64,192,90772,1,0,0:0:0:0:
448,192,90772,1,0,0:0:0:0:
320,192,90853,1,0,0:0:0:0:
192,192,90934,1,0,0:0:0:0:
64,192,90934,1,0,0:0:0:0:
320,192,91015,1,0,0:0:0:0:
448,192,91096,1,0,0:0:0:0:
192,192,91096,1,0,0:0:0:0:
64,192,91177,1,0,0:0:0:0:
320,192,91258,1,0,0:0:0:0:
448,192,91339,1,0,0:0:0:0:
192,192,91420,1,0,0:0:0:0:
64,192,91420,1,0,0:0:0:0:
320,192,91501,1,0,0:0:0:0:
448,192,91582,1,0,0:0:0:0:
192,192,91664,1,0,0:0:0:0:
320,192,91745,1,0,0:0:0:0:
448,192,91745,1,0,0:0:0:0:
64,192,91826,1,0,0:0:0:0:
192,192,91907,1,0,0:0:0:0:
320,192,91907,1,0,0:0:0:0:
448,192,91988,1,0,0:0:0:0:
64,192,92069,1,0,0:0:0:0:
192,192,92069,1,0,0:0:0:0:
320,192,92150,1,0,0:0:0:0:
448,192,92231,1,0,0:0:0:0:
192,192,92312,1,0,0:0:0:0:
64,192,92393,1,0,0:0:0:0:
448,192,92393,1,0,0:0:0:0:
320,192,92474,1,0,0:0:0:0:
192,192,92555,1,0,0:0:0:0:
448,192,92637,1,0,0:0:0:0:
320,192,92718,1,0,0:0:0:0:
192,192,92718,1,0,0:0:0:0:
64,192,92718,1,0,0:0:0:0:
64,192,92880,1,0,0:0:0:0:
192,192,92880,1,0,0:0:0:0:
320,192,92880,1,0,0:0:0:0:
192,192,93204,1,0,0:0:0:0:
320,192,93204,1,0,0:0:0:0:
448,192,93204,1,0,0:0:0:0:
320,192,93366,1,0,0:0:0:0:
192,192,93366,1,0,0:0:0:0:
448,192,93366,1,0,0:0:0:0:
320,192,93691,1,0,0:0:0:0:
448,192,93691,1,0,0:0:0:0:
64,192,93691,1,0,0:0:0:0:
448,192,93853,1,0,0:0:0:0:
320,192,93853,1,0,0:0:0:0:
64,192,93853,1,0,0:0:0:0:
64,192,94177,1,0,0:0:0:0:
192,192,94177,1,0,0:0:0:0:
448,192,94177,1,0,0:0:0:0:
64,192,94339,1,0,0:0:0:0:
320,192,94339,1,0,0:0:0:0:
448,192,94339,1,0,0:0:0:0:
320,192,94664,1,0,0:0:0:0:
448,192,94664,1,0,0:0:0:0:
192,192,94664,1,0,0:0:0:0:
320,192,94826,1,0,0:0:0:0:
192,192,94826,1,0,0:0:0:0:
64,192,94826,1,0,0:0:0:0:
192,192,95150,1,0,0:0:0:0:
448,192,95150,128,0,97258:0:0:0:0:
64,192,95150,128,0,97258:0:0:0:0:
