osu file format v14

[General]
AudioFilename: audio.mp3
AudioLeadIn: 0
PreviewTime: 113677
Countdown: 0
SampleSet: Soft
StackLeniency: 0.7
Mode: 0
LetterboxInBreaks: 0
WidescreenStoryboard: 0

[Editor]
DistanceSpacing: 0.8
BeatDivisor: 16
GridSize: 8
TimelineZoom: 1.350001

[Metadata]
Title:Koi
TitleUnicode:恋
Artist:Hoshino Gen(CV: kobasolo)
ArtistUnicode:星野 源(CV:コバソロ)
Creator:-scy-
Version:Insane
Source:
Tags:
BeatmapID:1516021
BeatmapSetID:717658

[Difficulty]
HPDrainRate:6
CircleSize:4
OverallDifficulty:8
ApproachRate:9
SliderMultiplier:1.6
SliderTickRate:1

[Events]
//Background and Video events
0,0,"anime couple pink.jpg",0,0
//Break Periods
//Storyboard Layer 0 (Background)
//Storyboard Layer 1 (Fail)
//Storyboard Layer 2 (Pass)
//Storyboard Layer 3 (Foreground)
//Storyboard Sound Samples

[TimingPoints]
1462,379.746835443038,4,2,0,100,1,0
1462,-133.333333333333,4,2,0,100,0,0
7537,-100,4,2,0,100,0,0
13993,-133.333333333333,4,2,0,100,0,0
49120,-100,4,2,0,100,0,0
50069,-100,4,2,0,100,0,1
50829,-83.3333333333333,4,2,0,100,0,1
54626,-133.333333333333,4,2,0,100,0,1
57664,-83.3333333333333,4,2,0,100,0,1
58993,-100,4,2,0,100,0,1
62031,-100,4,2,0,100,0,0
62221,-83.3333333333333,4,2,0,100,0,1
71145,-133.333333333333,4,2,0,100,0,1
72664,-100,4,2,0,100,0,1
74183,-83.3333333333333,4,2,0,100,0,1
77411,-133.333333333333,4,2,0,100,0,0
83487,-100,4,2,0,100,0,0
86525,-133.333333333333,4,2,0,100,0,0
101715,-100,4,2,0,100,0,0
113867,-83.3333333333333,4,2,0,100,0,1
125829,-83.3333333333333,4,2,0,100,0,0
126018,-83.3333333333333,4,2,0,100,0,1
141208,-100,4,2,0,100,0,0
165512,-133.333333333333,4,2,0,100,0,0
174436,-100,4,2,0,100,0,0
182126,-100,4,2,0,100,0,1
189626,-133.333333333333,4,2,0,100,0,1
192664,-133.333333333333,4,2,0,100,0,0
192854,-133.333333333333,4,2,0,100,0,1
194373,-83.3333333333333,4,2,0,100,0,1
201778,-100,4,2,0,100,0,1
212601,-100,4,2,0,100,0,0

[Colours]
Combo1 : 251,106,251
Combo2 : 0,94,149

[HitObjects]
89,131,1462,6,0,L|221:144,1,120.000004577637
349,149,2031,1,0,0:0:0:0:
254,326,2221,1,0,0:0:0:0:
254,326,2316,1,0,0:0:0:0:
254,326,2411,1,0,0:0:0:0:
448,326,2601,1,0,0:0:0:0:
248,321,2791,1,0,0:0:0:0:
67,206,2980,6,0,P|109:151|174:133,1,120.000004577637
248,321,3550,1,0,0:0:0:0:
250,118,3740,1,0,0:0:0:0:
250,118,3835,1,0,0:0:0:0:
250,118,3930,1,0,0:0:0:0:
428,193,4120,1,0,0:0:0:0:
250,118,4310,1,0,0:0:0:0:
384,325,4499,6,0,L|305:209,1,120.000004577637
210,46,5069,1,0,0:0:0:0:
136,199,5259,1,0,0:0:0:0:
136,199,5354,1,0,0:0:0:0:
136,199,5449,1,0,0:0:0:0:
51,46,5639,1,0,0:0:0:0:
136,199,5829,1,0,0:0:0:0:
289,32,6018,6,0,P|334:66|351:137,1,120.000004577637
353,294,6588,1,0,0:0:0:0:
105,279,6778,5,0,0:0:0:0:
85,265,6872,1,0,0:0:0:0:
69,247,6967,1,0,0:0:0:0:
58,226,7062,1,0,0:0:0:0:
53,202,7157,1,12,0:0:0:0:
54,178,7252,1,0,0:0:0:0:
61,155,7347,1,0,0:0:0:0:
128,44,7537,6,0,P|176:74|218:78,1,80
319,63,7917,1,0,0:0:0:0:
271,174,8107,1,0,0:0:0:0:
319,63,8297,1,0,0:0:0:0:
319,63,8392,1,0,0:0:0:0:
319,63,8487,1,0,0:0:0:0:
395,157,8677,1,0,0:0:0:0:
395,157,8772,1,0,0:0:0:0:
395,157,8867,1,0,0:0:0:0:
349,269,9056,2,0,P|280:325|205:313,1,160
56,239,9626,6,0,L|63:153,1,80
64,139,9911,1,0,0:0:0:0:
67,116,10006,1,0,0:0:0:0:
209,30,10196,1,0,0:0:0:0:
235,39,10290,1,0,0:0:0:0:
262,49,10385,1,0,0:0:0:0:
408,112,10575,6,0,L|339:270,1,160
262,49,11145,1,0,0:0:0:0:
104,112,11335,6,0,L|173:270,1,160
176,272,11810,1,0,0:0:0:0:
184,289,11905,5,0,0:0:0:0:
480,192,12284,1,0,0:0:0:0:
240,192,12664,1,0,0:0:0:0:
359,94,13044,5,0,0:0:0:0:
359,268,13234,1,0,0:0:0:0:
143,191,13424,1,0,0:0:0:0:
143,191,13518,1,0,0:0:0:0:
143,191,13613,1,12,0:0:0:0:
270,200,13993,6,0,P|312:255|371:267,1,120.000004577637
457,243,14563,1,0,0:0:0:0:
481,144,14753,1,0,0:0:0:0:
382,114,14943,2,0,L|315:93,1,60.0000022888184
214,56,15322,5,0,0:0:0:0:
214,56,15512,1,0,0:0:0:0:
214,56,15702,2,0,L|163:171,1,120.000004577637
110,280,16272,5,0,0:0:0:0:
272,317,16462,1,0,0:0:0:0:
328,205,16651,5,0,0:0:0:0:
191,300,16841,1,0,0:0:0:0:
117,131,17031,5,0,0:0:0:0:
254,250,17221,1,0,0:0:0:0:
327,105,17411,2,0,P|396:133|426:192,1,120.000004577637
390,337,17980,6,0,L|248:312,1,120.000004577637
110,280,18550,1,0,0:0:0:0:
122,47,18740,2,0,L|264:72,1,120.000004577637
366,85,19310,5,0,0:0:0:0:
356,231,19499,1,0,0:0:0:0:
356,231,19594,1,0,0:0:0:0:
356,231,19689,1,0,0:0:0:0:
199,214,19879,5,0,0:0:0:0:
230,355,20069,1,0,0:0:0:0:
199,214,20259,1,0,0:0:0:0:
230,355,20449,1,0,0:0:0:0:
90,318,20639,2,0,P|56:268|51:244,1,60.0000022888184
42,61,21018,6,0,P|110:72|178:61,1,120.000004577637
340,22,21588,1,0,0:0:0:0:
362,293,21778,2,0,P|373:225|362:157,1,120.000004577637
160,66,22348,5,0,0:0:0:0:
181,310,22537,1,0,0:0:0:0:
348,97,22727,5,0,0:0:0:0:
175,186,22917,1,0,0:0:0:0:
362,165,23107,5,0,0:0:0:0:
164,118,23297,1,0,0:0:0:0:
375,233,23487,5,0,0:0:0:0:
158,49,23677,1,0,0:0:0:0:
190,256,23867,6,0,L|240:207,1,60.0000022888184
326,33,24246,6,0,L|232:137,1,120.000004577637
175,186,24816,1,0,0:0:0:0:
175,186,25006,1,0,0:0:0:0:
32,176,25196,6,0,P|40:252|78:286,1,120.000004577637
183,315,25765,1,0,0:0:0:0:
183,315,25860,1,0,0:0:0:0:
183,315,25955,1,0,0:0:0:0:
384,253,26145,6,0,L|362:172,1,60.0000022888184
343,60,26525,2,0,L|264:73,1,60.0000022888184
92,96,26905,1,0,0:0:0:0:
212,84,27094,2,0,L|249:204,1,120.000004577637
285,287,27664,1,0,0:0:0:0:
386,272,27854,1,0,0:0:0:0:
323,365,28044,6,0,P|245:360|210:332,1,120.000004577637
164,248,28613,1,0,0:0:0:0:
51,249,28803,1,0,0:0:0:0:
113,137,28993,2,0,P|143:98|175:84,2,60.0000022888184
222,183,29563,2,0,L|352:200,1,120.000004577637
419,123,30132,6,0,P|454:175|442:249,1,120.000004577637
334,300,30702,1,0,0:0:0:0:
222,183,30892,2,0,L|139:79,1,120.000004577637
75,4,31462,1,0,0:0:0:0:
72,177,31651,1,0,0:0:0:0:
72,177,31746,1,0,0:0:0:0:
72,177,31841,1,0,0:0:0:0:
258,90,32031,5,0,0:0:0:0:
247,248,32221,1,0,0:0:0:0:
407,88,32411,1,0,0:0:0:0:
456,240,32601,1,0,0:0:0:0:
193,198,32791,2,0,P|148:214|128:240,1,60.0000022888184
43,314,33170,6,0,L|166:337,1,120.000004577637
364,365,33740,1,0,0:0:0:0:
359,135,33930,2,0,P|353:65|308:15,1,120.000004577637
159,103,34499,5,0,0:0:0:0:
159,103,34689,1,0,0:0:0:0:
95,206,34879,5,0,0:0:0:0:
304,220,35069,1,0,0:0:0:0:
93,265,35259,5,0,0:0:0:0:
308,158,35449,1,0,0:0:0:0:
107,139,35639,6,0,P|129:103|165:88,1,60.0000022888184
300,282,36018,2,0,P|278:318|242:333,1,60.0000022888184
255,73,36398,1,0,0:0:0:0:
255,73,36778,5,0,0:0:0:0:
255,249,36968,2,0,P|273:290|357:305,1,120.000004577637
401,142,37917,6,0,L|356:146,1,30.0000011444092
264,148,38107,1,0,0:0:0:0:
164,191,38297,1,0,0:0:0:0:
142,293,38487,1,0,0:0:0:0:
240,246,38677,2,0,P|310:247|353:298,1,120.000004577637
258,353,39246,6,0,L|175:353,1,60.0000022888184
76,349,39626,1,0,0:0:0:0:
12,260,39816,1,0,0:0:0:0:
80,159,40006,1,0,0:0:0:0:
76,349,40196,1,0,0:0:0:0:
83,94,40575,2,0,P|115:47|176:25,1,120.000004577637
298,26,41145,5,0,0:0:0:0:
396,103,41335,1,0,0:0:0:0:
314,200,41525,1,0,0:0:0:0:
308,117,41715,2,0,P|257:140|229:209,1,120.000004577637
144,340,42284,6,0,P|195:317|223:248,1,120.000004577637
225,115,42854,1,0,0:0:0:0:
389,276,43044,1,0,0:0:0:0:
225,115,43234,2,0,P|174:138|146:207,1,120.000004577637
389,276,43993,1,0,0:0:0:0:
312,320,44183,6,0,L|238:323,1,60.0000022888184
186,355,44563,2,0,L|112:358,1,60.0000022888184
82,86,45132,2,0,P|68:155|99:221,1,120.000004577637
430,86,45892,2,0,P|444:155|413:221,1,120.000004577637
256,32,46651,1,0,0:0:0:0:
256,112,47031,5,0,0:0:0:0:
256,192,47411,1,0,0:0:0:0:
256,272,47791,1,0,0:0:0:0:
256,272,47980,1,0,0:0:0:0:
256,272,48170,1,0,0:0:0:0:
104,193,48360,6,0,L|188:190,1,60.0000022888184
408,193,48740,2,0,L|324:190,1,60.0000022888184
258,31,49120,2,0,B|222:97|307:105|251:185,1,160
241,203,49594,5,0,0:0:0:0:
223,229,49688,1,0,0:0:0:0:
217,260,49783,1,0,0:0:0:0:
223,292,49878,1,0,0:0:0:0:
240,319,49973,1,0,0:0:0:0:
265,338,50068,1,0,0:0:0:0:
464,168,50259,5,0,0:0:0:0:
265,338,50449,1,0,0:0:0:0:
256,27,50639,1,0,0:0:0:0:
256,27,50734,1,0,0:0:0:0:
256,27,50829,2,0,L|153:55,1,95.9999970703126
16,88,51208,5,0,0:0:0:0:
217,260,51398,1,0,0:0:0:0:
256,27,51588,1,0,0:0:0:0:
284,35,51682,1,0,0:0:0:0:
309,51,51777,1,0,0:0:0:0:
329,74,51872,1,0,0:0:0:0:
343,100,51968,2,0,P|367:165|362:208,1,95.9999970703126
264,250,52348,6,0,L|207:261,1,47.9999985351563,12|0,0:0|0:0,0:0:0:0:
167,330,52537,2,0,L|112:343,1,47.9999985351563,12|0,0:0|0:0,0:0:0:0:
22,354,52727,1,12,0:0:0:0:
131,127,52917,1,0,0:0:0:0:
299,331,53107,5,0,0:0:0:0:
489,129,53297,1,0,0:0:0:0:
299,331,53487,1,0,0:0:0:0:
489,129,53677,1,0,0:0:0:0:
209,81,53867,2,0,P|129:128|120:163,1,95.9999970703126
52,265,54246,5,0,0:0:0:0:
299,331,54436,1,0,0:0:0:0:
357,60,54626,6,0,L|338:144,1,60.0000022888184
155,60,55006,6,0,L|174:144,1,60.0000022888184
351,208,55386,6,0,L|332:292,1,60.0000022888184
161,208,55765,6,0,L|180:292,1,60.0000022888184
175,267,56050,1,0,0:0:0:0:
175,267,56145,1,0,0:0:0:0:
36,210,56335,1,0,0:0:0:0:
307,199,56525,5,0,0:0:0:0:
36,210,56715,1,0,0:0:0:0:
307,199,56905,5,0,0:0:0:0:
36,210,57095,1,0,0:0:0:0:
204,100,57284,5,0,0:0:0:0:
146,284,57474,1,0,0:0:0:0:
36,210,57664,6,0,P|62:164|130:138,1,95.9999970703126
307,199,58044,2,0,P|221:141|123:137,1,191.999994140625
146,284,58613,1,0,0:0:0:0:
146,284,58803,1,0,0:0:0:0:
385,293,58993,6,0,P|417:224|399:142,1,160
287,209,59563,2,0,L|124:295,1,160
21,331,60132,5,0,0:0:0:0:
24,121,60322,2,0,P|65:101|123:126,2,80
207,125,60892,1,0,0:0:0:0:
299,347,61082,1,0,0:0:0:0:
394,121,61272,1,0,0:0:0:0:
293,342,61462,5,0,0:0:0:0:
324,351,61556,1,0,0:0:0:0:
358,352,61651,1,0,0:0:0:0:
390,345,61746,1,0,0:0:0:0:
420,330,61841,1,0,0:0:0:0:
445,308,61936,1,0,0:0:0:0:
463,281,62031,1,0,0:0:0:0:
466,246,62126,1,0,0:0:0:0:
461,214,62221,6,0,L|357:231,1,95.9999970703126
45,237,62601,1,0,0:0:0:0:
136,43,62791,1,0,0:0:0:0:
136,43,62886,1,0,0:0:0:0:
136,43,62980,1,0,0:0:0:0:
179,353,63170,5,0,0:0:0:0:
446,153,63360,1,0,0:0:0:0:
136,43,63550,1,0,0:0:0:0:
256,192,63740,5,0,0:0:0:0:
256,192,63835,1,0,0:0:0:0:
256,192,63930,1,0,0:0:0:0:
256,192,64025,1,0,0:0:0:0:
256,192,64120,2,0,P|171:231|80:194,1,191.999994140625
42,112,64689,6,0,L|119:104,1,47.9999985351563,12|0,0:0|0:0,0:0:0:0:
210,85,64879,1,12,0:0:0:0:
210,85,65069,1,0,0:0:0:0:
326,350,65259,5,0,0:0:0:0:
366,74,65449,1,0,0:0:0:0:
326,350,65639,5,0,0:0:0:0:
366,74,65829,1,0,0:0:0:0:
137,206,66018,2,0,P|168:287|262:328,1,191.999994140625
287,174,66588,1,0,0:0:0:0:
53,119,66778,6,0,L|172:96,1,95.9999970703126
459,119,67158,6,0,L|352:96,1,95.9999970703126
129,268,67537,6,0,L|233:247,1,95.9999970703126
383,268,67917,6,0,L|277:245,1,95.9999970703126
289,247,68202,1,0,0:0:0:0:
289,247,68297,1,0,0:0:0:0:
417,120,68487,5,0,0:0:0:0:
115,149,68677,1,0,0:0:0:0:
417,120,68867,5,0,0:0:0:0:
115,149,69056,2,0,P|60:220|98:312,1,191.999994140625
188,245,69626,1,0,0:0:0:0:
476,79,69816,6,0,P|423:74|381:101,1,95.9999970703126
36,79,70196,6,0,P|89:74|129:101,1,95.9999970703126
255,351,70575,2,0,L|256:237,1,95.9999970703126
256,156,70955,1,0,0:0:0:0:
106,207,71145,6,0,L|188:305,1,120.000004577637
380,214,71715,2,0,P|365:262|391:228,1,120.000004577637
436,99,72284,1,0,0:0:0:0:
426,348,72474,1,0,0:0:0:0:
478,178,72664,6,0,L|373:52,1,160
132,170,73234,2,0,P|150:109|118:152,1,160
61,315,73803,1,0,0:0:0:0:
86,36,73993,1,0,0:0:0:0:
280,167,74183,6,0,P|332:197|404:195,1,95.9999970703126
480,153,74563,1,0,0:0:0:0:
232,167,74753,2,0,P|180:197|108:195,1,95.9999970703126
32,153,75133,1,0,0:0:0:0:
32,153,75227,1,0,0:0:0:0:
32,153,75322,1,0,0:0:0:0:
318,29,75512,5,0,0:0:0:0:
252,355,75702,1,0,0:0:0:0:
178,31,75892,2,0,P|155:76|164:145,1,95.9999970703126
417,114,76272,2,0,P|372:91|303:100,1,95.9999970703126
334,353,76651,2,0,P|357:308|348:239,1,95.9999970703126
95,270,77031,2,0,P|140:293|209:284,1,95.9999970703126
345,155,77411,6,0,L|257:251,1,120.000004577637
136,353,77980,1,0,0:0:0:0:
51,162,78170,1,0,0:0:0:0:
51,162,78265,1,0,0:0:0:0:
51,162,78360,1,0,0:0:0:0:
136,353,78550,1,0,0:0:0:0:
236,156,78740,1,0,0:0:0:0:
335,351,78930,6,0,P|403:334|435:274,1,120.000004577637
440,149,79499,1,0,0:0:0:0:
216,44,79689,1,0,0:0:0:0:
216,44,79784,1,0,0:0:0:0:
216,44,79879,1,0,0:0:0:0:
440,149,80069,1,0,0:0:0:0:
218,280,80259,1,0,0:0:0:0:
216,44,80449,6,0,P|156:97|90:101,1,120.000004577637
11,16,81018,1,0,0:0:0:0:
25,279,81208,2,0,L|8:319,2,30.0000011444092
334,197,81588,1,0,0:0:0:0:
140,343,81778,1,0,0:0:0:0:
135,198,81968,6,0,P|181:172|246:177,1,120.000004577637
444,243,82537,1,0,0:0:0:0:
237,347,82727,1,0,0:0:0:0:
213,320,82821,1,0,0:0:0:0:
198,289,82916,1,0,0:0:0:0:
190,255,83011,1,0,0:0:0:0:
192,220,83106,1,12,0:0:0:0:
202,187,83201,1,0,0:0:0:0:
220,157,83296,1,0,0:0:0:0:
298,52,83487,6,0,L|455:82,1,160
343,215,84056,1,0,0:0:0:0:
211,32,84246,1,0,0:0:0:0:
211,32,84341,1,0,0:0:0:0:
211,32,84436,1,0,0:0:0:0:
343,215,84626,1,0,0:0:0:0:
102,224,84816,1,0,0:0:0:0:
211,32,85006,6,0,L|220:191,1,160
233,354,85575,1,0,0:0:0:0:
455,299,85765,1,0,0:0:0:0:
455,299,85860,1,0,0:0:0:0:
455,299,85955,1,0,0:0:0:0:
233,354,86145,1,0,0:0:0:0:
289,149,86335,1,0,0:0:0:0:
55,198,86525,6,0,L|187:166,1,120.000004577637
428,101,87284,1,0,0:0:0:0:
245,249,87474,5,0,0:0:0:0:
494,193,87854,1,0,0:0:0:0:
105,16,88234,1,0,0:0:0:0:
155,359,88613,1,0,0:0:0:0:
314,123,88993,6,0,P|316:161|293:190,1,60.0000022888184
126,263,89373,1,0,2:0:0:0:
93,273,89467,1,0,2:0:0:0:
61,267,89562,1,0,2:0:0:0:
67,68,89943,6,0,P|111:88|196:78,1,120.000004577637
285,32,90512,1,0,0:0:0:0:
395,111,90702,1,0,0:0:0:0:
395,111,90892,6,0,L|352:165,2,60.0000022888184
275,252,91462,2,0,L|318:306,2,60.0000022888184
220,150,92031,1,0,0:0:0:0:
135,318,92221,6,0,P|95:296|88:258,1,60.0000022888184
34,165,92601,1,0,0:0:0:0:
110,59,92791,1,0,0:0:0:0:
225,148,92980,2,0,L|310:127,1,60.0000022888184
229,243,93360,2,0,L|144:264,1,60.0000022888184
332,220,93930,6,0,P|404:209|448:169,1,120.000004577637
446,63,94499,1,0,0:0:0:0:
439,181,94689,2,0,P|440:254|353:319,1,180.000006866455
237,332,95449,2,0,L|166:329,1,60.0000022888184
71,138,95829,5,0,0:0:0:0:
80,256,96018,2,0,P|153:219|180:180,1,120.000004577637
185,34,96588,1,0,0:0:0:0:
308,119,96968,5,0,0:0:0:0:
308,119,97348,1,0,0:0:0:0:
321,263,97537,1,0,0:0:0:0:
453,201,97727,2,0,P|475:255|451:328,1,120.000004577637
321,340,98297,6,0,L|246:325,1,60.0000022888184
108,257,98677,2,0,L|123:182,1,60.0000022888184
148,48,99056,1,0,0:0:0:0:
148,48,99246,1,0,0:0:0:0:
207,154,99436,5,0,0:0:0:0:
337,89,99626,1,0,0:0:0:0:
328,229,99816,1,0,0:0:0:0:
217,31,100006,1,0,0:0:0:0:
197,279,100196,1,0,0:0:0:0:
328,229,100386,6,0,L|388:192,1,60.0000022888184
464,136,100765,1,0,0:0:0:0:
382,332,100955,2,0,P|346:346|299:339,1,60.0000022888184
394,187,101715,6,0,P|346:223|304:231,1,80
223,242,102094,1,0,0:0:0:0:
138,180,102284,1,0,0:0:0:0:
217,118,102474,2,0,P|172:87|125:83,1,80
43,62,102854,5,0,0:0:0:0:
40,174,103044,2,0,P|54:233|86:265,1,80
151,295,103424,1,0,0:0:0:0:
280,300,103613,1,0,0:0:0:0:
151,295,103803,1,0,0:0:0:0:
280,300,103993,1,0,0:0:0:0:
459,165,104373,6,0,P|425:242|360:282,1,160
339,164,104943,1,0,0:0:0:0:
202,177,105132,1,0,0:0:0:0:
339,164,105322,1,0,0:0:0:0:
202,177,105512,1,0,0:0:0:0:
168,66,105892,6,0,P|117:89|116:139,1,80
97,203,106272,1,0,0:0:0:0:
122,305,106462,1,0,0:0:0:0:
225,282,106651,1,0,0:0:0:0:
202,177,106841,1,0,0:0:0:0:
225,282,107031,2,0,P|288:334|371:320,1,160
468,232,107791,1,0,0:0:0:0:
468,232,107980,6,0,L|456:117,1,80
350,53,108360,2,0,L|362:168,1,80
381,322,108930,5,0,0:0:0:0:
112,350,109310,1,0,0:0:0:0:
85,81,109689,1,0,0:0:0:0:
350,53,110069,1,0,0:0:0:0:
238,203,110449,5,0,0:0:0:0:
65,211,110639,1,0,0:0:0:0:
65,211,110734,1,0,0:0:0:0:
65,211,110829,2,0,P|97:104|153:62,1,160
280,23,111398,1,0,0:0:0:0:
386,140,111588,1,0,0:0:0:0:
184,138,111778,1,0,0:0:0:0:
293,268,111968,6,0,L|411:264,1,80
496,257,112537,1,0,0:0:0:0:
496,257,112916,1,0,0:0:0:0:
311,352,113297,5,0,0:0:0:0:
277,353,113391,1,0,0:0:0:0:
245,344,113486,1,0,0:0:0:0:
215,329,113581,1,0,0:0:0:0:
185,315,113676,1,0,0:0:0:0:
153,309,113771,1,0,0:0:0:0:
121,317,113866,1,12,0:0:0:0:
52,77,114056,5,0,0:0:0:0:
187,209,114246,1,0,0:0:0:0:
279,51,114436,1,0,0:0:0:0:
279,51,114531,1,0,0:0:0:0:
279,51,114626,1,0,0:0:0:0:
436,158,114816,6,0,P|449:213|419:283,1,95.9999970703126
295,353,115196,1,0,0:0:0:0:
281,204,115386,2,0,P|244:212|160:200,1,95.9999970703126
53,143,115765,1,0,0:0:0:0:
119,342,115955,1,0,0:0:0:0:
229,152,116145,5,12,0:0:0:0:
257,130,116239,1,0,0:0:0:0:
292,120,116334,1,12,0:0:0:0:
327,123,116429,1,0,0:0:0:0:
360,137,116524,1,12,0:0:0:0:
471,223,116715,1,0,0:0:0:0:
174,277,116905,5,0,0:0:0:0:
283,67,117094,1,0,0:0:0:0:
345,358,117284,1,0,0:0:0:0:
283,67,117474,1,0,0:0:0:0:
88,244,117664,2,0,P|154:278|206:262,1,95.9999970703126
351,65,118044,5,0,0:0:0:0:
281,363,118234,1,0,0:0:0:0:
43,161,118424,6,0,L|139:173,1,95.9999970703126
469,223,118803,6,0,L|373:211,1,95.9999970703126
246,74,119183,6,0,L|269:118,1,47.9999985351563,12|0,0:0|0:0,0:0:0:0:
239,180,119373,2,0,L|228:249,1,47.9999985351563,12|0,0:0|0:0,0:0:0:0:
278,288,119563,1,12,0:0:0:0:
278,288,119753,1,0,0:0:0:0:
70,234,119943,6,0,P|112:280|175:288,1,95.9999970703126
427,103,120322,1,0,0:0:0:0:
278,288,120512,1,0,0:0:0:0:
246,74,120702,2,0,P|259:117|318:165,1,95.9999970703126
429,281,121082,5,0,0:0:0:0:
142,289,121272,1,0,0:0:0:0:
429,103,121462,6,0,P|366:130|321:166,1,95.9999970703126
59,56,121841,2,0,L|149:90,1,95.9999970703126
429,281,122221,2,0,P|366:254|321:218,1,95.9999970703126
251,161,122601,1,0,0:0:0:0:
429,281,122791,6,0,P|357:330|252:302,1,191.999994140625
75,170,123360,2,0,L|127:355,1,191.999994140625
210,63,123930,1,0,0:0:0:0:
210,63,124120,1,0,0:0:0:0:
226,360,124310,6,0,P|202:308|211:255,1,95.9999970703126
290,55,124689,1,0,0:0:0:0:
43,152,124879,1,0,0:0:0:0:
400,94,125069,1,0,0:0:0:0:
43,152,125259,1,0,0:0:0:0:
171,251,125449,5,0,0:0:0:0:
204,270,125543,1,0,0:0:0:0:
243,261,125638,1,0,0:0:0:0:
279,244,125733,1,0,0:0:0:0:
316,231,125828,1,0,0:0:0:0:
356,232,125923,1,0,0:0:0:0:
390,252,126018,1,12,0:0:0:0:
180,337,126208,5,0,0:0:0:0:
180,337,126398,1,0,0:0:0:0:
83,54,126588,1,0,0:0:0:0:
83,54,126683,1,0,0:0:0:0:
83,54,126778,1,0,0:0:0:0:
180,337,126968,1,0,0:0:0:0:
273,48,127158,1,0,0:0:0:0:
382,333,127348,1,0,0:0:0:0:
16,194,127537,6,0,L|123:190,1,95.9999970703126
496,190,127917,2,0,L|389:194,1,95.9999970703126
113,120,128297,6,0,L|177:156,1,47.9999985351563,12|0,0:0|0:0,0:0:0:0:
250,192,128487,2,0,L|319:228,1,47.9999985351563,12|0,0:0|0:0,0:0:0:0:
392,261,128677,1,12,0:0:0:0:
396,123,128867,1,0,0:0:0:0:
243,331,129056,5,0,0:0:0:0:
69,194,129246,1,0,0:0:0:0:
243,331,129436,1,0,0:0:0:0:
69,194,129626,1,0,0:0:0:0:
213,129,129816,2,0,P|281:137|329:190,1,95.9999970703126
419,258,130196,5,0,0:0:0:0:
419,258,130291,1,0,0:0:0:0:
419,258,130386,1,0,0:0:0:0:
121,28,130575,6,0,L|158:124,1,95.9999970703126
307,88,130955,2,0,L|344:184,1,95.9999970703126
169,237,131335,1,0,0:0:0:0:
181,270,131429,1,0,0:0:0:0:
204,298,131524,1,0,0:0:0:0:
235,316,131619,1,0,0:0:0:0:
270,324,131714,1,0,0:0:0:0:
423,321,131905,1,0,0:0:0:0:
423,321,132094,5,0,0:0:0:0:
52,207,132284,1,0,0:0:0:0:
456,192,132474,1,0,0:0:0:0:
101,45,132664,1,0,0:0:0:0:
488,80,132854,2,0,P|425:81|378:104,1,95.9999970703126
233,194,133234,1,0,0:0:0:0:
240,49,133424,1,0,0:0:0:0:
101,45,133613,6,0,L|135:162,1,95.9999970703126
411,45,133993,2,0,L|377:162,1,95.9999970703126
321,315,134373,6,0,L|256:334,1,47.9999985351563,12|0,0:0|0:0,0:0:0:0:
201,249,134563,2,0,L|144:230,1,47.9999985351563,12|0,0:0|0:0,0:0:0:0:
50,254,134753,1,0,0:0:0:0:
101,92,134943,6,0,P|180:86|270:161,1,191.999994140625
298,244,135512,1,0,0:0:0:0:
352,326,135702,1,0,0:0:0:0:
452,327,135892,1,0,0:0:0:0:
499,236,136082,2,0,P|473:163|442:154,1,95.9999970703126
308,98,136462,6,0,L|120:151,1,191.999994140625
12,175,137031,1,0,0:0:0:0:
45,252,137221,1,0,0:0:0:0:
83,335,137411,1,0,0:0:0:0:
180,333,137601,2,0,P|237:291|253:232,1,95.9999970703126
258,168,137980,6,0,P|275:111|405:79,1,191.999994140625
482,87,138550,1,0,0:0:0:0:
358,167,138740,1,0,0:0:0:0:
479,221,138930,1,0,0:0:0:0:
355,301,139120,1,0,0:0:0:0:
226,223,139310,6,0,P|169:227|117:193,1,95.9999970703126
196,113,139689,5,0,0:0:0:0:
196,113,139784,1,0,0:0:0:0:
196,113,139879,1,0,0:0:0:0:
335,132,140069,5,0,0:0:0:0:
335,132,140164,1,0,0:0:0:0:
335,132,140259,1,0,0:0:0:0:
316,271,140449,5,0,0:0:0:0:
316,271,140544,1,0,0:0:0:0:
316,271,140639,1,0,0:0:0:0:
177,252,140829,5,0,0:0:0:0:
177,252,140924,1,0,0:0:0:0:
177,252,141019,1,0,0:0:0:0:
255,191,141208,5,0,0:0:0:0:
355,81,141588,6,0,L|336:242,1,160
240,237,142158,2,0,L|235:287,1,40
159,294,142443,2,0,L|152:343,1,40
259,110,142727,1,0,0:0:0:0:
40,141,143107,6,0,L|199:160,1,160
230,245,143677,2,0,L|296:254,1,40
329,317,143962,2,0,L|398:334,1,40
99,231,144246,1,0,0:0:0:0:
480,226,144626,6,0,L|286:195,1,160
292,100,145196,2,0,L|242:91,1,40
161,26,145480,2,0,L|97:13,1,40
447,121,145765,1,0,0:0:0:0:
254,349,146145,2,0,L|162:271,1,120
76,186,146715,5,0,0:0:0:0:
194,120,146905,1,0,0:0:0:0:
222,110,146999,1,0,0:0:0:0:
252,110,147094,1,0,0:0:0:0:
281,118,147189,1,0,0:0:0:0:
305,135,147284,1,12,0:0:0:0:
489,207,147664,5,4,0:0:0:0:
361,256,148044,2,0,L|310:276,1,40
274,290,148234,1,0,0:0:0:0:
224,306,148329,2,0,L|183:318,1,40
154,327,148518,1,0,0:0:0:0:
122,338,148613,1,0,0:0:0:0:
37,364,148803,1,12,0:0:0:0:
23,177,149183,5,4,0:0:0:0:
151,128,149563,2,0,L|202:108,1,40
238,94,149753,1,0,0:0:0:0:
288,78,149848,2,0,L|329:66,1,40
358,57,150037,1,0,0:0:0:0:
390,46,150132,1,0,0:0:0:0:
475,20,150322,1,12,0:0:0:0:
480,296,150702,5,4,0:0:0:0:
354,240,151082,2,0,L|303:218,1,40
269,202,151272,1,0,0:0:0:0:
222,178,151367,2,0,L|184:157,1,40
158,143,151556,1,0,0:0:0:0:
128,129,151651,1,0,0:0:0:0:
49,87,151841,5,12,0:0:0:0:
73,342,152221,2,0,L|183:274,1,120
196,266,152601,1,0,0:0:0:0:
230,246,152695,1,0,0:0:0:0:
268,245,152790,1,2,0:0:0:0:
305,264,152885,1,0,0:0:0:0:
337,288,152980,1,2,0:0:0:0:
368,312,153075,1,0,0:0:0:0:
403,332,153170,1,2,0:0:0:0:
443,334,153265,1,0,0:0:0:0:
477,315,153360,1,12,0:0:0:0:
483,187,153740,6,0,L|309:140,1,160
262,54,154310,2,0,L|206:32,1,40
185,147,154594,2,0,L|120:123,1,40
38,56,154879,6,0,L|68:231,1,160
143,326,155639,2,0,L|221:317,1,40
275,300,155924,2,0,L|343:294,1,40
406,279,156208,1,0,0:0:0:0:
458,164,156398,6,0,L|315:64,1,160
202,34,157063,2,0,L|205:102,1,40
133,143,157348,2,0,L|134:191,1,40
134,219,157537,1,0,0:0:0:0:
140,244,157631,1,0,0:0:0:0:
150,269,157726,1,0,0:0:0:0:
164,292,157821,1,0,0:0:0:0:
176,314,157917,5,2,0:0:0:0:
198,339,158011,1,0,0:0:0:0:
230,354,158106,1,0,0:0:0:0:
265,358,158201,1,0,0:0:0:0:
299,353,158296,5,2,0:0:0:0:
332,340,158391,1,0,0:0:0:0:
361,321,158486,1,0,0:0:0:0:
383,294,158581,5,2,0:0:0:0:
395,261,158676,1,0,0:0:0:0:
394,227,158771,1,0,0:0:0:0:
379,196,158866,1,0,0:0:0:0:
352,174,158961,1,0,0:0:0:0:
318,164,159056,1,0,0:0:0:0:
284,167,159151,1,0,0:0:0:0:
255,186,159246,1,0,0:0:0:0:
243,218,159341,1,0,0:0:0:0:
253,252,159435,1,12,0:0:0:0:
157,71,159816,5,0,0:0:0:0:
157,71,159911,1,0,0:0:0:0:
157,71,160006,2,0,L|165:175,1,80
174,244,160386,2,0,L|179:301,1,40
83,294,160670,2,0,L|89:361,1,40
68,132,160955,1,0,0:0:0:0:
355,71,161335,5,0,0:0:0:0:
355,71,161430,1,0,0:0:0:0:
355,71,161525,2,0,L|347:175,1,80
338,244,161905,2,0,L|333:301,1,40
429,294,162189,2,0,L|423:361,1,40
444,132,162474,1,0,0:0:0:0:
69,87,162854,5,0,0:0:0:0:
91,83,162949,1,0,0:0:0:0:
110,79,163044,2,0,P|167:90|193:126,1,80
249,173,163424,2,0,L|286:146,1,40
365,99,163708,2,0,L|317:44,1,40
261,90,163993,5,2,0:0:0:0:
246,116,164087,1,0,0:0:0:0:
240,145,164182,1,0,0:0:0:0:
249,173,164277,1,0,0:0:0:0:
268,197,164372,1,2,0:0:0:0:
285,221,164467,1,0,0:0:0:0:
293,250,164562,1,0,0:0:0:0:
289,280,164657,1,2,0:0:0:0:
279,308,164752,1,0,0:0:0:0:
87,81,165512,6,0,L|227:79,1,120.000004577637
378,80,166272,1,0,0:0:0:0:
378,80,166651,1,0,0:0:0:0:
273,206,167031,2,0,L|133:221,1,120.000004577637
35,220,167791,2,0,L|168:250,1,120.000004577637
241,282,168550,2,0,L|101:297,1,120.000004577637
331,244,169310,5,0,0:0:0:0:
331,244,169499,1,0,0:0:0:0:
331,244,169689,2,0,P|418:198|399:55,1,240.000009155274
181,140,170829,2,0,P|94:186|113:329,1,240.000009155274
258,334,172348,5,0,0:0:0:0:
355,324,172537,1,0,0:0:0:0:
411,244,172727,1,0,0:0:0:0:
397,157,172917,2,0,B|361:157|361:157|336:137|336:137|317:160|317:160|284:147|284:147|282:175|282:175|250:167,1,180.000006866455
85,98,173867,1,0,0:0:0:0:
85,98,174056,1,0,0:0:0:0:
136,228,174436,6,0,P|154:294|315:303,2,240
236,238,175955,2,0,L|323:92,1,160
361,32,176715,1,0,0:0:0:0:
361,32,176905,1,0,0:0:0:0:
361,32,177095,1,0,0:0:0:0:
361,32,177284,1,0,0:0:0:0:
376,228,177664,6,0,P|358:294|197:303,2,240
276,238,179183,2,0,L|189:92,1,160
151,32,179943,1,0,0:0:0:0:
151,32,180133,5,0,0:0:0:0:
111,25,180227,1,0,0:0:0:0:
73,34,180322,1,0,0:0:0:0:
40,58,180417,1,0,0:0:0:0:
20,92,180512,1,12,0:0:0:0:
21,172,180702,6,0,L|32:225,1,40
106,235,180892,2,0,L|131:271,1,40
212,260,181082,2,0,L|268:285,1,40
322,236,181272,2,0,L|384:234,1,40
448,178,181462,2,0,P|474:220|452:310,1,120
348,350,181936,6,0,P|291:361|254:341,1,80
136,155,182411,1,0,0:0:0:0:
136,155,182506,1,0,0:0:0:0:
136,155,182601,2,0,L|217:128,1,80
354,92,182980,5,12,0:0:0:0:
357,145,183074,1,0,0:0:0:0:
361,199,183169,1,12,0:0:0:0:
364,252,183264,1,0,0:0:0:0:
368,306,183359,1,12,0:0:0:0:
66,288,183550,5,0,0:0:0:0:
66,288,183740,1,0,0:0:0:0:
68,53,183930,1,0,0:0:0:0:
251,346,184120,5,0,0:0:0:0:
253,111,184310,1,0,0:0:0:0:
436,190,184499,2,0,P|384:205|337:180,1,80
157,79,184879,5,0,0:0:0:0:
360,340,185069,1,0,0:0:0:0:
127,151,185259,5,0,0:0:0:0:
374,192,185449,1,0,0:0:0:0:
42,233,185639,5,0,0:0:0:0:
432,84,185829,1,0,0:0:0:0:
19,92,186018,5,0,0:0:0:0:
491,235,186208,1,0,0:0:0:0:
20,290,186398,1,0,0:0:0:0:
216,34,186778,6,0,L|231:137,1,80
296,350,187158,2,0,L|281:247,1,80
397,112,187537,5,0,0:0:0:0:
142,274,187727,1,0,0:0:0:0:
397,112,187917,1,0,0:0:0:0:
142,274,188107,1,0,0:0:0:0:
31,130,188297,6,0,L|194:138,1,160
319,138,188867,1,0,0:0:0:0:
305,281,189056,1,0,0:0:0:0:
401,144,189246,1,0,0:0:0:0:
223,274,189436,1,0,0:0:0:0:
92,213,189626,6,0,P|142:208|202:159,1,120.000004577637
220,86,190196,2,0,P|295:106|325:162,2,120.000004577637
76,57,191145,5,0,0:0:0:0:
43,355,191525,1,0,0:0:0:0:
175,279,191715,1,0,0:0:0:0:
63,228,191905,1,0,0:0:0:0:
336,347,192094,1,0,0:0:0:0:
336,347,192283,5,0,0:0:0:0:
366,341,192378,1,0,0:0:0:0:
392,326,192473,1,0,0:0:0:0:
412,304,192568,1,0,0:0:0:0:
424,277,192663,1,0,0:0:0:0:
428,247,192758,1,0,0:0:0:0:
422,218,192853,1,12,0:0:0:0:
259,32,193044,5,0,0:0:0:0:
159,342,193234,1,0,0:0:0:0:
156,36,193424,5,0,0:0:0:0:
366,341,193613,1,0,0:0:0:0:
369,346,193708,1,0,0:0:0:0:
369,346,193803,1,0,0:0:0:0:
28,186,193993,5,0,0:0:0:0:
485,146,194183,1,0,0:0:0:0:
356,36,194373,6,0,L|306:130,1,95.9999970703126
156,348,194753,2,0,L|206:254,1,95.9999970703126
143,141,195132,5,0,0:0:0:0:
362,220,195322,1,0,0:0:0:0:
201,263,195512,1,0,0:0:0:0:
201,263,195607,1,0,0:0:0:0:
201,263,195702,1,0,0:0:0:0:
431,67,195892,5,0,0:0:0:0:
317,342,196082,1,0,0:0:0:0:
206,50,196272,1,0,0:0:0:0:
317,342,196462,1,0,0:0:0:0:
206,50,196651,1,0,0:0:0:0:
56,351,196841,1,0,0:0:0:0:
46,50,197031,5,0,0:0:0:0:
197,353,197221,1,0,0:0:0:0:
323,44,197411,6,0,L|416:166,1,143.999995605469
410,158,197791,2,0,L|263:240,1,143.999995605469
284,228,198170,2,0,L|123:160,1,143.999995605469
151,172,198550,2,0,P|87:273|143:344,1,191.999994140625
205,259,199120,5,0,0:0:0:0:
480,263,199310,1,0,0:0:0:0:
480,263,199405,1,0,0:0:0:0:
480,263,199499,1,0,0:0:0:0:
381,50,199689,5,0,0:0:0:0:
310,308,199879,1,0,0:0:0:0:
310,308,199974,1,0,0:0:0:0:
310,308,200069,1,0,0:0:0:0:
172,50,200259,5,0,0:0:0:0:
172,50,200449,1,0,0:0:0:0:
145,348,200829,5,0,0:0:0:0:
479,149,201208,5,0,0:0:0:0:
86,171,201398,1,0,0:0:0:0:
86,171,201588,1,0,0:0:0:0:
187,242,201778,6,0,P|261:235|316:174,1,160
330,67,202348,1,0,0:0:0:0:
396,148,202537,1,0,0:0:0:0:
393,256,202727,1,0,0:0:0:0:
322,312,202917,2,0,P|277:338|232:343,1,80
64,336,203297,6,0,L|91:174,1,160
99,91,203867,1,0,0:0:0:0:
293,131,204056,1,0,0:0:0:0:
197,113,204246,1,0,0:0:0:0:
385,154,204436,2,0,L|352:255,1,80
316,326,204816,6,0,P|222:309|205:228,1,160
269,140,205386,1,0,0:0:0:0:
87,195,205575,1,0,0:0:0:0:
150,77,205765,1,0,0:0:0:0:
162,112,205860,1,0,0:0:0:0:
173,146,205955,1,0,0:0:0:0:
69,102,206144,1,0,0:0:0:0:
231,44,206334,1,0,0:0:0:0:
332,206,206525,5,0,0:0:0:0:
358,230,206619,1,0,0:0:0:0:
394,236,206714,1,0,0:0:0:0:
427,219,206809,1,0,0:0:0:0:
448,189,206904,1,0,0:0:0:0:
453,152,206999,1,0,0:0:0:0:
441,118,207094,1,0,0:0:0:0:
414,93,207189,1,0,0:0:0:0:
377,90,207284,1,0,0:0:0:0:
343,103,207379,1,0,0:0:0:0:
311,122,207474,1,0,0:0:0:0:
279,141,207569,1,0,0:0:0:0:
245,156,207664,1,0,0:0:0:0:
208,158,207759,1,0,0:0:0:0:
173,146,207854,1,0,0:0:0:0:
457,344,208044,5,0,0:0:0:0:
325,237,208234,1,0,0:0:0:0:
325,237,208329,1,0,0:0:0:0:
325,237,208424,1,0,0:0:0:0:
222,374,208613,1,0,0:0:0:0:
45,134,208803,5,0,0:0:0:0:
235,202,208993,1,0,0:0:0:0:
38,228,209183,5,0,0:0:0:0:
288,102,209373,1,0,0:0:0:0:
329,10,209563,6,0,L|421:27,1,80
477,116,209943,2,0,L|385:99,1,80
297,160,210322,2,0,L|389:177,1,80
445,266,210702,2,0,L|353:249,1,80
232,221,211082,6,0,P|174:234|139:279,1,80
147,264,211367,1,0,0:0:0:0:
144,285,211462,1,0,0:0:0:0:
21,123,211651,5,0,0:0:0:0:
63,337,211841,1,0,0:0:0:0:
100,44,212031,5,0,0:0:0:0:
63,337,212221,1,0,0:0:0:0:
194,31,212411,5,0,0:0:0:0:
63,337,212601,1,0,0:0:0:0:
157,303,212980,6,0,L|176:142,1,160
272,147,213550,2,0,L|277:97,1,40
353,90,213835,2,0,L|360:41,1,40
253,274,214119,1,0,0:0:0:0:
472,243,214499,6,0,L|313:224,1,160
282,139,215069,2,0,L|216:130,1,40
183,67,215354,2,0,L|114:50,1,40
413,153,215638,1,0,0:0:0:0:
32,158,216018,6,0,L|226:189,1,160
220,284,216588,2,0,L|270:293,1,40
351,358,216872,2,0,L|415:371,1,40
65,263,217157,1,0,0:0:0:0:
258,35,217537,2,0,L|350:113,1,120
436,198,218107,5,0,0:0:0:0:
318,264,218297,1,0,0:0:0:0:
290,274,218391,1,0,0:0:0:0:
260,274,218486,1,0,0:0:0:0:
231,266,218581,1,0,0:0:0:0:
207,249,218676,1,12,0:0:0:0:
23,177,219056,5,4,0:0:0:0:
151,128,219436,2,0,L|202:108,1,40
238,94,219626,1,0,0:0:0:0:
288,78,219721,2,0,L|329:66,1,40
358,57,219910,1,0,0:0:0:0:
390,46,220005,1,0,0:0:0:0:
475,20,220195,1,12,0:0:0:0:
489,207,220575,5,4,0:0:0:0:
361,256,220955,2,0,L|310:276,1,40
274,290,221145,1,0,0:0:0:0:
224,306,221240,2,0,L|183:318,1,40
154,327,221429,1,0,0:0:0:0:
122,338,221524,1,0,0:0:0:0:
37,364,221714,1,12,0:0:0:0:
32,88,222094,5,4,0:0:0:0:
158,144,222474,2,0,L|209:166,1,40
243,182,222664,1,0,0:0:0:0:
290,206,222759,2,0,L|328:227,1,40
354,241,222948,1,0,0:0:0:0:
384,255,223043,1,0,0:0:0:0:
463,297,223233,5,12,0:0:0:0:
256,132,223613,2,0,L|256:257,1,120
