osu file format v14

[General]
AudioFilename: audio.mp3
AudioLeadIn: 0
PreviewTime: 48690
Countdown: 0
SampleSet: None
StackLeniency: 0.4
Mode: 0
LetterboxInBreaks: 0
WidescreenStoryboard: 1

[Editor]
Bookmarks: 5316,19177,19367,28291,48227,59038,69873,80684
DistanceSpacing: 1.4
BeatDivisor: 4
GridSize: 8
TimelineZoom: 2.1

[Metadata]
Title:Koi
TitleUnicode:恋
Artist:Hoshino Gen
ArtistUnicode:星野源
Creator:s0m3guy
Version:s0m3
Source:逃げるは恥だが役に立つ
Tags:Nigeru ha Hajidaga Yaku ni Tatsu j-drama Full-Time Wife Escapist drama 9th cd single tv size ver
BeatmapID:1898335
BeatmapSetID:909661

[Difficulty]
HPDrainRate:6
CircleSize:4
OverallDifficulty:8
ApproachRate:9
SliderMultiplier:1.4
SliderTickRate:1

[Events]
//Background and Video events
0,0,"koi.jpg",0,0
//Break Periods
//Storyboard Layer 0 (Background)
//Storyboard Layer 1 (Fail)
//Storyboard Layer 2 (Pass)
//Storyboard Layer 3 (Foreground)
//Storyboard Sound Samples

[TimingPoints]
190,379.746835443038,4,2,1,70,1,0
6265,-83.3333333333333,4,2,1,70,0,0
12329,-83.3333333333333,4,2,1,60,0,0
12721,-100,4,2,1,60,0,0
36633,-100,4,2,1,70,0,0
37203,-100,4,2,1,50,0,0
37393,-100,4,2,1,70,0,0
37963,-100,4,2,1,50,0,0
38152,-100,4,2,1,70,0,0
38722,-100,4,2,1,50,0,0
38912,-100,4,2,1,70,0,0
39482,-100,4,2,1,50,0,0
39671,-100,4,2,1,70,0,0
40241,-100,4,2,1,50,0,0
40431,-100,4,2,1,70,0,0
41001,-100,4,2,1,50,0,0
41190,-100,4,2,1,70,0,0
41760,-100,4,2,1,50,0,0
42709,-100,4,2,1,70,0,0
43279,-100,4,2,1,50,0,0
43469,-100,4,2,1,70,0,0
44039,-100,4,2,1,50,0,0
45557,-100,4,2,1,70,0,0
47088,-83.3333333333333,4,2,1,70,0,0
47266,-83.3333333333333,4,2,1,45,0,0
47456,-83.3333333333333,4,2,1,70,0,0
47646,-83.3333333333333,4,2,1,45,0,0
47836,-83.3333333333333,4,2,1,70,0,0
48026,-83.3333333333333,4,2,1,45,0,0
48216,-83.3333333333333,4,2,1,70,0,0
48797,-66.6666666666667,4,3,1,80,0,1
71392,-62.5,4,3,1,80,0,1
72911,-58.8235294117647,4,3,1,80,0,1
74620,-66.6666666666667,4,3,1,80,0,1
79462,-66.6666666666667,4,3,1,63,0,1
79936,-66.6666666666667,4,3,1,78,0,0

[Colours]
Combo1 : 255,239,183
Combo2 : 255,209,200

[HitObjects]
141,280,190,5,6,2:2:0:0:
459,209,759,5,0,2:3:0:0:
459,209,949,2,0,P|482:183|512:165,1,70,2|0,2:3|2:3,0:0:0:0:
433,122,1330,2,0,P|397:116|367:98,1,70,0|0,2:3|2:3,0:0:0:0:
333,7,1708,1,6,2:2:0:0:
235,316,2278,5,0,2:3:0:0:
235,316,2468,2,0,P|246:348|247:383,1,70,2|0,2:3|2:3,0:0:0:0:
324,339,2849,2,0,P|347:310|378:293,1,70,0|0,2:3|2:3,0:0:0:0:
473,309,3227,1,6,2:2:0:0:
254,69,3797,5,0,2:3:0:0:
254,69,3987,2,0,P|221:62|190:44,1,70,2|0,2:3|2:3,0:0:0:0:
191,134,4368,2,0,P|205:168|204:203,1,70,0|0,2:3|2:3,0:0:0:0:
141,280,4746,1,6,2:2:0:0:
339,194,5316,5,0,2:3:0:0:
339,194,5506,2,0,P|314:169|283:153,1,70,2|0,2:3|2:2,0:0:0:0:
425,185,5886,2,0,P|458:186|493:177,1,70,0|0,2:2|2:3,0:0:0:0:
476,355,6265,6,0,P|436:286|355:285,1,167.999994873047,6|10,2:2|2:3,0:0:0:0:
314,352,6835,1,0,2:3:0:0:
132,258,7025,5,2,2:3:0:0:
190,371,7215,1,0,2:3:0:0:
221,168,7405,1,10,2:3:0:0:
238,274,7595,1,0,2:3:0:0:
0,215,7784,6,0,P|50:154|129:167,1,167.999994873047,2|10,2:3|2:3,0:0:0:0:
192,218,8354,1,0,2:3:0:0:
20,79,8544,1,2,2:3:0:0:
180,104,8734,1,8,2:3:0:0:
78,230,8924,1,8,2:3:0:0:
100,91,9114,1,0,2:3:0:0:
311,194,9303,6,0,P|315:117|296:81,1,83.9999974365235,2|0,2:3|0:0,0:0:0:0:
229,330,9683,2,0,P|293:371|334:373,1,83.9999974365235,10|0,2:3|0:0,0:0:0:0:
152,190,10063,2,0,L|44:248,1,83.9999974365235,2|8,2:3|2:3,0:0:0:0:
2,268,10443,5,2,2:3:0:0:
307,282,10633,2,0,L|390:284,1,83.9999974365235,8|0,2:3|0:0,0:0:0:0:
81,146,11012,2,0,L|-5:148,1,83.9999974365235,8|0,2:3|0:0,0:0:0:0:
313,112,11392,6,0,P|277:62|216:53,1,125.999996154785,8|0,2:3|0:0,0:0:0:0:
180,73,11772,1,8,2:3:0:0:
174,240,11962,5,8,2:3:0:0:
172,269,12056,1,8,2:3:0:0:
171,300,12151,1,0,2:3:0:0:
171,330,12246,1,0,2:3:0:0:
169,361,12341,1,6,2:2:0:0:
482,71,12721,6,0,L|492:176,1,105,8|0,2:3|0:0,0:0:0:0:
496,208,13101,1,0,2:3:0:0:
402,199,13291,1,2,2:3:0:0:
317,239,13481,1,8,2:3:0:0:
285,327,13671,1,0,2:3:0:0:
157,210,13860,6,0,L|163:279,1,70,2|0,2:3|2:3,0:0:0:0:
173,384,14240,1,8,2:3:0:0:
38,217,14430,2,0,P|121:240|166:186,1,140,2|0,2:3|2:3,0:0:0:0:
95,171,15000,5,8,2:3:0:0:
95,171,15190,1,0,2:3:0:0:
75,384,15379,2,0,L|81:314,1,70,2|0,2:3|2:3,0:0:0:0:
213,174,15759,2,0,P|180:184|156:209,1,70,8|0,2:3|2:3,0:0:0:0:
81,314,16139,5,0,2:3:0:0:
294,294,16329,2,0,L|363:287,1,70,2|8,2:3|2:3,0:0:0:0:
468,278,16708,1,0,2:3:0:0:
406,177,16898,6,0,P|364:205|352:255,1,105,2|0,2:3|0:0,0:0:0:0:
362,286,17278,1,8,2:3:0:0:
264,115,17468,2,0,P|331:118|372:65,1,140,2|0,2:3|2:3,0:0:0:0:
239,19,18038,6,0,L|301:51,1,70,8|0,2:3|2:3,0:0:0:0:
301,51,18322,1,0,2:3:0:0:
301,51,18417,1,2,2:3:0:0:
371,177,18607,5,0,2:3:0:0:
279,199,18797,1,8,2:3:0:0:
199,151,18987,1,0,2:3:0:0:
175,61,19177,5,2,2:3:0:0:
203,238,19367,2,0,L|215:327,1,70,2|8,2:3|2:3,0:0:0:0:
21,136,19746,5,0,2:3:0:0:
17,315,19936,2,0,L|14:405,1,70,2|0,2:3|0:0,0:0:0:0:
110,127,20316,5,8,2:3:0:0:
143,321,20506,2,0,B|152:356|175:375|210:381|210:381|260:368,1,140,2|0,2:3|2:3,0:0:0:0:
408,328,21076,2,0,L|318:352,1,70,8|0,2:3|2:3,0:0:0:0:
252,369,21455,5,2,2:3:0:0:
276,281,21645,1,0,2:3:0:0:
350,229,21835,1,10,2:3:0:0:
440,236,22025,1,0,2:3:0:0:
504,299,22215,5,2,2:3:0:0:
414,292,22405,1,0,2:3:0:0:
350,229,22595,1,8,2:3:0:0:
341,139,22784,1,0,2:3:0:0:
391,64,22974,2,0,P|307:57|254:115,1,140,2|8,2:3|2:3,0:0:0:0:
225,153,23544,5,0,2:3:0:0:
225,153,23734,1,2,2:3:0:0:
119,8,23924,1,8,2:3:0:0:
106,147,24114,2,0,L|116:27,1,105,0|0,0:0|0:0,0:0:0:0:
119,8,24493,5,4,2:2:0:0:
119,8,24683,1,0,2:3:0:0:
106,147,24873,2,0,L|112:216,1,70,8|0,2:3|2:3,0:0:0:0:
0,354,25253,5,0,2:3:0:0:
68,295,25443,1,2,2:3:0:0:
158,294,25633,1,8,2:3:0:0:
228,351,25822,1,0,2:3:0:0:
113,217,26012,6,0,P|164:220|213:201,1,105,2|0,2:3|0:0,0:0:0:0:
239,178,26392,1,8,2:3:0:0:
307,384,26582,2,0,P|335:340|335:251,1,140,2|0,2:3|2:3,0:0:0:0:
239,178,27152,5,8,2:3:0:0:
239,178,27341,1,0,2:3:0:0:
361,65,27531,2,0,P|333:85|313:115,1,70,2|0,2:3|2:3,0:0:0:0:
472,164,27911,2,0,P|439:150|405:148,1,70,8|0,2:3|2:3,0:0:0:0:
330,210,28291,5,0,2:3:0:0:
421,243,28481,1,2,2:3:0:0:
361,65,28671,1,8,2:3:0:0:
512,56,28860,5,0,2:3:0:0:
495,281,29050,2,0,L|501:211,1,70,2|0,2:3|0:0,0:0:0:0:
361,65,29430,5,8,2:3:0:0:
421,243,29620,2,0,P|330:193|272:232,1,175,2|0,2:3|0:0,0:0:0:0:
259,258,30190,2,0,P|216:297|174:309,1,70,8|0,2:3|2:3,0:0:0:0:
206,302,30474,1,0,2:3:0:0:
206,302,30569,1,2,2:3:0:0:
164,107,30759,5,0,2:3:0:0:
206,302,30949,2,0,L|189:225,1,70,8|0,2:3|2:3,0:0:0:0:
33,175,31329,5,2,2:3:0:0:
23,374,31519,2,0,L|26:295,1,70,2|8,2:3|2:3,0:0:0:0:
33,175,31898,5,0,2:3:0:0:
257,254,32088,2,0,L|190:233,1,70,2|0,2:3|0:0,0:0:0:0:
120,107,32468,5,8,2:3:0:0:
360,205,32658,2,0,P|300:146|225:144,1,140,2|0,2:3|2:3,0:0:0:0:
179,33,33227,2,0,P|212:43|247:41,1,70,8|0,2:3|2:3,0:0:0:0:
328,0,33607,5,2,2:3:0:0:
328,0,33797,1,0,2:3:0:0:
472,32,33987,5,10,2:3:0:0:
472,32,34177,1,0,2:3:0:0:
486,178,34367,5,2,2:3:0:0:
486,178,34557,1,0,2:3:0:0:
351,236,34746,5,8,2:3:0:0:
351,236,34936,1,0,2:3:0:0:
364,382,35126,6,0,P|377:342|384:332,3,35,2|0|0|0,2:3|2:3|2:3|2:3,0:0:0:0:
475,309,35506,2,0,P|516:300|527:301,2,35,8|0|0,2:3|2:3|2:3,0:0:0:0:
446,384,35886,1,2,0:0:0:0:
378,114,36076,6,0,P|363:216|310:280,1,175,8|0,2:3|0:0,0:0:0:0:
291,290,36645,1,6,2:3:0:0:
291,290,37215,5,2,2:3:0:0:
221,141,37405,1,8,2:3:0:0:
221,141,37974,5,2,2:3:0:0:
94,156,38164,1,2,2:3:0:0:
94,156,38734,5,2,2:3:0:0:
62,318,38924,1,8,2:3:0:0:
291,290,39303,2,0,P|241:259|206:249,1,70,0|0,2:3|2:3,0:0:0:0:
145,286,39683,1,2,2:3:0:0:
145,286,40253,5,2,2:3:0:0:
221,141,40443,1,8,2:3:0:0:
221,141,41012,5,2,2:3:0:0:
351,135,41202,1,2,2:3:0:0:
351,135,41772,5,2,2:3:0:0:
438,273,41962,2,0,P|431:224|414:190,1,70,8|0,2:3|2:3,0:0:0:0:
351,135,42341,2,0,P|305:116|267:114,1,70,2|0,2:3|2:3,0:0:0:0:
187,141,42721,1,2,2:3:0:0:
187,141,43291,5,2,2:3:0:0:
423,205,43481,1,8,2:3:0:0:
423,205,44050,5,2,2:3:0:0:
249,377,44240,2,0,P|209:317|186:303,1,70,2|0,2:3|2:3,0:0:0:0:
187,141,44620,2,0,P|166:169|155:202,1,70,2|0,2:3|2:3,0:0:0:0:
13,312,45000,6,0,L|112:306,1,70,8|0,2:3|2:3,0:0:0:0:
241,233,45379,2,0,L|340:227,1,70,2|8,2:3|2:3,0:0:0:0:
347,227,45664,5,8,2:3:0:0:
347,227,45759,2,0,L|378:164,1,70,2|0,2:3|2:3,0:0:0:0:
202,174,46139,2,0,L|240:232,1,70,10|0,2:3|2:3,0:0:0:0:
320,74,46519,2,0,L|250:78,1,70,2|8,2:3|2:3,0:0:0:0:
250,78,46898,1,2,2:3:0:0:
285,299,47088,6,0,P|340:319|396:315,1,83.9999974365235,8|0,2:3|2:3,0:0:0:0:
171,85,47468,2,0,P|126:122|101:173,1,83.9999974365235,8|0,2:3|2:3,0:0:0:0:
413,93,47848,2,0,P|402:35|371:-11,1,83.9999974365235,8|0,2:3|2:3,0:0:0:0:
166,224,48227,5,8,2:3:0:0:
127,252,48321,1,8,2:3:0:0:
122,299,48416,1,0,2:3:0:0:
154,334,48511,1,0,2:3:0:0:
202,334,48606,1,0,2:3:0:0:
234,299,48701,1,0,2:3:0:0:
229,252,48796,5,6,2:0:0:0:
107,344,48987,1,0,2:3:0:0:
288,384,49177,1,10,2:3:0:0:
48,213,49367,1,0,2:3:0:0:
289,158,49557,6,0,L|126:143,1,157.500006008148,2|0,2:3|0:0,0:0:0:0:
79,139,49936,1,10,2:3:0:0:
229,252,50126,1,0,2:3:0:0:
258,59,50316,2,0,P|281:106|289:158,1,105.000004005432,2|0,2:3|2:3,0:0:0:0:
440,27,50696,6,0,P|445:104|417:177,1,157.500006008148,10|0,2:3|0:0,0:0:0:0:
384,216,51076,1,2,2:3:0:0:
512,342,51265,5,8,2:3:0:0:
203,246,51455,1,10,2:3:0:0:
181,77,51835,5,2,2:3:0:0:
235,314,52025,1,0,2:3:0:0:
7,163,52215,1,10,2:3:0:0:
246,124,52405,1,0,2:3:0:0:
7,295,52595,6,0,L|190:311,1,157.500006008148,2|0,2:3|2:3,0:0:0:0:
235,314,52974,1,10,2:3:0:0:
130,190,53164,1,0,2:3:0:0:
358,34,53354,6,0,L|370:177,1,105.000004005432,2|0,2:3|2:3,0:0:0:0:
502,296,53734,2,0,L|512:192,1,105.000004005432,10|0,2:3|2:3,0:0:0:0:
367,138,54114,1,2,2:3:0:0:
512,192,54303,1,8,2:3:0:0:
310,323,54493,1,10,2:3:0:0:
466,92,54683,1,0,2:3:0:0:
475,370,54873,5,2,2:3:0:0:
204,186,55063,1,0,2:3:0:0:
256,384,55253,1,10,2:3:0:0:
402,240,55443,1,0,2:3:0:0:
144,346,55633,6,0,L|127:163,1,157.500006008148,2|0,2:3|0:0,0:0:0:0:
123,118,56012,1,10,2:3:0:0:
19,243,56202,1,0,2:3:0:0:
248,222,56392,2,0,P|273:166|266:94,1,105.000004005432,2|0,2:3|2:3,0:0:0:0:
420,176,56772,2,0,P|385:106|326:55,1,157.500006008148,10|0,2:3|0:0,0:0:0:0:
276,39,57152,1,2,2:3:0:0:
19,243,57341,5,8,2:3:0:0:
273,123,57531,1,10,2:3:0:0:
71,0,57721,6,0,L|90:233,1,210.000008010865,6|0,2:2|2:3,0:0:0:0:
276,39,58291,2,0,P|229:61|194:99,1,105.000004005432,10|0,2:3|2:3,0:0:0:0:
176,220,58671,1,2,2:3:0:0:
315,179,58860,1,0,2:3:0:0:
356,319,59050,1,10,2:3:0:0:
454,138,59240,6,0,L|464:8,1,105.000004005432,6|0,2:2|2:2,0:0:0:0:
176,220,59620,2,0,L|165:349,1,105.000004005432,6|0,2:2|2:2,0:0:0:0:
274,39,60000,6,0,L|144:29,1,105.000004005432,6|0,2:2|2:2,0:0:0:0:
356,318,60379,1,8,2:3:0:0:
183,113,60569,5,8,2:3:0:0:
222,138,60664,1,8,2:3:0:0:
269,126,60759,1,0,2:3:0:0:
291,84,60854,1,0,2:3:0:0:
274,39,60949,5,6,2:2:0:0:
270,268,61139,1,0,2:3:0:0:
107,87,61329,1,10,2:3:0:0:
372,40,61519,1,0,2:3:0:0:
176,220,61708,6,0,P|94:170|17:207,1,157.500006008148,2|0,2:3|0:0,0:0:0:0:
6,223,62088,1,10,2:3:0:0:
107,87,62278,1,0,2:3:0:0:
101,370,62468,6,0,L|92:266,1,105.000004005432,2|0,2:3|2:3,0:0:0:0:
279,163,62848,2,0,L|269:267,1,105.000004005432,10|0,2:3|0:0,0:0:0:0:
259,371,63227,1,2,2:3:0:0:
92,266,63417,5,8,2:3:0:0:
444,268,63607,1,10,2:3:0:0:
101,370,63987,5,2,2:3:0:0:
118,174,64177,1,0,2:3:0:0:
259,371,64367,1,10,2:3:0:0:
16,319,64557,1,0,2:3:0:0:
275,163,64746,6,0,L|97:175,1,157.500006008148,2|0,2:3|2:3,0:0:0:0:
0,184,65126,1,10,2:3:0:0:
182,324,65316,1,0,2:3:0:0:
205,63,65506,6,0,L|196:168,1,105.000004005432,2|0,2:3|2:3,0:0:0:0:
444,268,65886,2,0,L|434:163,1,105.000004005432,10|0,2:3|2:3,0:0:0:0:
182,324,66265,1,2,2:3:0:0:
434,163,66455,1,8,2:3:0:0:
196,168,66645,1,10,2:3:0:0:
363,384,66835,1,0,2:3:0:0:
301,126,67025,5,2,2:3:0:0:
90,216,67215,1,0,2:3:0:0:
319,250,67405,1,10,2:3:0:0:
205,63,67595,1,0,2:3:0:0:
182,324,67784,6,0,L|196:156,1,157.500006008148,2|0,2:3|0:0,0:0:0:0:
199,127,68164,1,10,2:3:0:0:
319,250,68354,1,0,2:3:0:0:
380,64,68544,6,0,P|361:157|365:208,1,105.000004005432,2|0,2:3|2:3,0:0:0:0:
462,285,68924,2,0,P|443:179|460:90,1,157.500006008148,10|0,2:3|0:0,0:0:0:0:
462,79,69303,1,0,2:3:0:0:
199,127,69493,5,8,2:3:0:0:
462,285,69683,1,10,2:3:0:0:
105,269,69873,6,0,P|190:228|249:255,1,157.500006008148,6|0,2:2|0:0,0:0:0:0:
280,275,70253,5,0,2:3:0:0:
286,21,70443,1,10,2:3:0:0:
156,145,70633,5,0,2:3:0:0:
410,151,70822,1,2,2:3:0:0:
283,148,71012,5,0,2:3:0:0:
283,148,71202,1,10,2:3:0:0:
99,278,71392,6,0,P|164:229|243:249,1,168,6|0,2:2|0:0,0:0:0:0:
280,275,71772,5,0,2:3:0:0:
390,20,71962,1,10,2:3:0:0:
153,160,72152,5,0,2:3:0:0:
429,187,72341,1,2,2:3:0:0:
220,2,72531,5,0,2:3:0:0:
294,128,72721,1,10,2:3:0:0:
93,286,72911,6,0,P|159:230|289:308,1,238.00000453949,6|0,2:2|2:3,0:0:0:0:
187,331,73481,1,10,2:3:0:0:
234,81,73671,1,0,2:3:0:0:
332,358,73860,5,2,2:3:0:0:
138,193,74050,1,0,2:3:0:0:
427,244,74240,5,10,2:3:0:0:
187,331,74430,1,0,2:3:0:0:
378,106,74620,6,0,P|341:48|301:28,1,105.000004005432,2|0,2:3|2:3,0:0:0:0:
332,358,75000,2,0,P|400:355|438:331,1,105.000004005432,10|0,2:3|2:3,0:0:0:0:
138,193,75379,2,0,P|105:253|108:298,1,105.000004005432,2|0,2:3|2:3,0:0:0:0:
282,218,75759,1,8,2:3:0:0:
65,67,75949,5,8,2:3:0:0:
65,67,76044,1,8,2:3:0:0:
65,67,76139,1,6,2:2:0:0:
105,288,76329,1,0,2:3:0:0:
234,81,76519,1,10,2:3:0:0:
0,164,76708,1,0,2:3:0:0:
187,331,76898,5,2,2:3:0:0:
148,109,77088,1,0,2:3:0:0:
363,266,77278,1,10,2:3:0:0:
128,199,77468,1,0,2:3:0:0:
460,214,77658,6,0,P|423:156|383:136,1,105.000004005432,2|0,2:3|2:3,0:0:0:0:
338,380,78038,2,0,P|406:376|444:352,1,105.000004005432,10|0,2:3|2:3,0:0:0:0:
255,192,78417,2,0,P|223:252|225:297,1,105.000004005432,2|0,2:3|2:3,0:0:0:0:
392,139,78797,5,10,2:3:0:0:
55,110,78987,2,0,L|182:121,1,105.000004005432,8|6,2:3|2:2,0:0:0:0:
255,192,79367,5,8,2:3:0:0:
253,231,79462,5,8,2:3:0:0:
216,203,79557,1,0,2:3:0:0:
231,158,79652,1,0,2:3:0:0:
279,159,79746,1,0,2:3:0:0:
292,205,79841,1,0,2:3:0:0:
255,192,79936,5,10,2:3:0:0:
256,384,80696,5,2,2:2:0:0:
