osu file format v14

[General]
AudioFilename: audio.mp3
AudioLeadIn: 0
PreviewTime: 49367
Countdown: 0
SampleSet: None
StackLeniency: 0.7
Mode: 3
LetterboxInBreaks: 0
SpecialStyle: 0
WidescreenStoryboard: 1

[Editor]
DistanceSpacing: 2
BeatDivisor: 4
GridSize: 4
TimelineZoom: 0.9000001

[Metadata]
Title:Koi
TitleUnicode:恋
Artist:Hoshino Gen
ArtistUnicode:星野源
Creator:Sandalphon
Version:Normal
Source:逃げるは恥だが役に立つ
Tags:biemote nigeru ha hajidaga yaku ni tatsu
BeatmapID:1415855
BeatmapSetID:667590

[Difficulty]
HPDrainRate:7
CircleSize:6
OverallDifficulty:7
ApproachRate:5
SliderMultiplier:1.4
SliderTickRate:1

[Events]
//Background and Video events
0,0,"59484449_p0.jpg",0,0
//Break Periods
//Storyboard Layer 0 (Background)
//Storyboard Layer 1 (Fail)
//Storyboard Layer 2 (Pass)
//Storyboard Layer 3 (Foreground)
//Storyboard Sound Samples

[TimingPoints]
770,379.746835443038,4,3,1,60,1,0
49377,-100,4,3,1,60,0,1
58301,-100,4,3,1,60,0,0
61529,-100,4,3,1,60,0,1
80516,-100,4,3,1,60,0,0

[HitObjects]
384,192,770,5,2,0:0:0:0:
469,192,770,128,0,1529:0:0:0:0:
128,192,1339,1,0,0:0:0:0:
42,192,1529,1,2,0:0:0:0:
213,192,1529,128,0,2288:0:0:0:0:
298,192,2099,1,0,0:0:0:0:
384,192,2288,128,2,3048:0:0:0:0:
469,192,2288,1,0,0:0:0:0:
42,192,2858,1,0,0:0:0:0:
128,192,3048,128,2,3807:0:0:0:0:
213,192,3048,1,0,0:0:0:0:
384,192,3618,1,0,0:0:0:0:
298,192,3807,128,2,4567:0:0:0:0:
469,192,3807,1,0,0:0:0:0:
213,192,4377,1,0,0:0:0:0:
42,192,4567,128,2,5326:0:0:0:0:
128,192,4567,1,0,0:0:0:0:
384,192,5137,1,0,0:0:0:0:
298,192,5326,1,2,0:0:0:0:
469,192,5326,128,0,6086:0:0:0:0:
128,192,5896,1,0,0:0:0:0:
42,192,6086,128,2,6845:0:0:0:0:
213,192,6086,1,0,0:0:0:0:
213,192,6845,1,2,0:0:0:0:
298,192,6845,1,0,0:0:0:0:
42,192,7225,1,8,0:0:0:0:
469,192,7225,1,0,0:0:0:0:
128,192,7605,1,2,0:0:0:0:
384,192,7605,1,0,0:0:0:0:
213,192,7985,1,8,0:0:0:0:
469,192,7985,1,0,0:0:0:0:
42,192,8364,1,2,0:0:0:0:
298,192,8364,1,0,0:0:0:0:
128,192,8744,1,8,0:0:0:0:
384,192,8744,1,0,0:0:0:0:
42,192,9124,1,2,0:0:0:0:
298,192,9124,1,0,0:0:0:0:
213,192,9504,1,8,0:0:0:0:
469,192,9504,1,0,0:0:0:0:
128,192,9883,1,2,0:0:0:0:
384,192,9883,128,0,10263:0:0:0:0:
42,192,10263,128,8,10643:0:0:0:0:
213,192,10263,1,0,0:0:0:0:
298,192,10643,1,2,0:0:0:0:
469,192,10643,128,0,11023:0:0:0:0:
42,192,11213,1,10,0:0:0:0:
128,192,11213,1,0,0:0:0:0:
213,192,11592,1,10,0:0:0:0:
298,192,11592,1,0,0:0:0:0:
384,192,11972,1,10,0:0:0:0:
469,192,11972,1,0,0:0:0:0:
213,192,12352,1,8,0:0:0:0:
298,192,12542,128,0,12921:0:0:0:0:
42,192,12921,1,6,0:0:0:0:
128,192,12921,1,0,0:0:0:0:
298,192,13301,1,8,0:0:0:0:
469,192,13301,1,0,0:0:0:0:
128,192,13681,1,2,0:0:0:0:
298,192,13871,1,0,0:0:0:0:
384,192,13871,1,0,0:0:0:0:
128,192,14061,1,8,0:0:0:0:
42,192,14440,1,2,0:0:0:0:
213,192,14440,1,0,0:0:0:0:
384,192,14820,1,8,0:0:0:0:
128,192,15010,1,0,0:0:0:0:
213,192,15010,1,0,0:0:0:0:
384,192,15200,1,2,0:0:0:0:
298,192,15580,1,8,0:0:0:0:
469,192,15580,1,0,0:0:0:0:
42,192,15959,1,2,0:0:0:0:
128,192,15959,1,0,0:0:0:0:
384,192,16339,1,8,0:0:0:0:
469,192,16339,1,0,0:0:0:0:
42,192,16719,1,2,0:0:0:0:
298,192,16909,1,0,0:0:0:0:
469,192,16909,1,0,0:0:0:0:
42,192,17099,1,8,0:0:0:0:
42,192,17478,1,2,0:0:0:0:
128,192,17478,1,0,0:0:0:0:
469,192,17858,1,8,0:0:0:0:
42,192,18048,1,0,0:0:0:0:
213,192,18048,1,0,0:0:0:0:
469,192,18238,1,2,0:0:0:0:
384,192,18618,1,8,0:0:0:0:
469,192,18618,1,0,0:0:0:0:
213,192,18997,1,2,0:0:0:0:
298,192,18997,1,0,0:0:0:0:
42,192,19377,1,8,0:0:0:0:
128,192,19377,1,0,0:0:0:0:
384,192,19757,1,2,0:0:0:0:
42,192,19947,1,0,0:0:0:0:
213,192,19947,1,0,0:0:0:0:
384,192,20137,1,8,0:0:0:0:
384,192,20516,1,2,0:0:0:0:
469,192,20516,1,0,0:0:0:0:
128,192,20896,1,8,0:0:0:0:
298,192,21086,1,0,0:0:0:0:
469,192,21086,1,0,0:0:0:0:
128,192,21276,1,2,0:0:0:0:
42,192,21656,1,8,0:0:0:0:
128,192,21656,1,0,0:0:0:0:
469,192,22035,128,2,23175:0:0:0:0:
298,192,22415,128,8,23175:0:0:0:0:
128,192,22795,128,2,23175:0:0:0:0:
213,192,23175,1,8,0:0:0:0:
128,192,23554,128,2,24314:0:0:0:0:
213,192,23554,1,0,0:0:0:0:
298,192,24314,1,2,0:0:0:0:
469,192,24314,1,0,0:0:0:0:
42,192,24504,128,6,25073:0:0:0:0:
469,192,25073,1,6,0:0:0:0:
298,192,25263,1,0,0:0:0:0:
384,192,25453,1,8,0:0:0:0:
213,192,25643,1,0,0:0:0:0:
298,192,25833,1,2,0:0:0:0:
42,192,26023,1,0,0:0:0:0:
128,192,26023,1,0,0:0:0:0:
298,192,26213,1,8,0:0:0:0:
213,192,26402,1,0,0:0:0:0:
469,192,26592,1,2,0:0:0:0:
384,192,26782,1,0,0:0:0:0:
298,192,26972,1,8,0:0:0:0:
42,192,27162,1,0,0:0:0:0:
213,192,27162,1,0,0:0:0:0:
469,192,27352,1,2,0:0:0:0:
469,192,27732,1,8,0:0:0:0:
42,192,28111,1,2,0:0:0:0:
469,192,28111,1,0,0:0:0:0:
128,192,28301,1,0,0:0:0:0:
213,192,28491,1,8,0:0:0:0:
469,192,28681,1,0,0:0:0:0:
384,192,28871,1,2,0:0:0:0:
42,192,29061,1,0,0:0:0:0:
298,192,29061,1,0,0:0:0:0:
128,192,29251,1,8,0:0:0:0:
213,192,29440,1,0,0:0:0:0:
298,192,29630,1,2,0:0:0:0:
469,192,29630,1,0,0:0:0:0:
128,192,29820,1,0,0:0:0:0:
213,192,30010,1,8,0:0:0:0:
42,192,30200,1,0,0:0:0:0:
469,192,30200,1,0,0:0:0:0:
298,192,30390,1,2,0:0:0:0:
298,192,30770,1,8,0:0:0:0:
42,192,31149,1,2,0:0:0:0:
298,192,31149,1,0,0:0:0:0:
128,192,31339,1,0,0:0:0:0:
213,192,31529,1,8,0:0:0:0:
469,192,31719,1,0,0:0:0:0:
384,192,31909,1,2,0:0:0:0:
42,192,32099,1,0,0:0:0:0:
298,192,32099,1,0,0:0:0:0:
213,192,32288,1,8,0:0:0:0:
298,192,32478,1,0,0:0:0:0:
42,192,32668,1,2,0:0:0:0:
384,192,32668,1,0,0:0:0:0:
128,192,32858,1,0,0:0:0:0:
213,192,33048,1,8,0:0:0:0:
298,192,33238,1,0,0:0:0:0:
469,192,33238,1,0,0:0:0:0:
42,192,33428,1,2,0:0:0:0:
42,192,33807,1,8,0:0:0:0:
42,192,34187,128,2,35326:0:0:0:0:
213,192,34567,128,8,35326:0:0:0:0:
384,192,34947,128,2,35326:0:0:0:0:
128,192,35326,1,8,0:0:0:0:
213,192,35706,1,2,0:0:0:0:
384,192,35706,128,0,36466:0:0:0:0:
42,192,36466,1,2,0:0:0:0:
213,192,36466,1,0,0:0:0:0:
469,192,36656,128,6,37225:0:0:0:0:
42,192,37225,128,2,37605:0:0:0:0:
128,192,37225,128,0,37605:0:0:0:0:
384,192,37605,1,0,0:0:0:0:
298,192,37795,1,2,0:0:0:0:
128,192,37985,128,2,38364:0:0:0:0:
213,192,37985,128,8,38364:0:0:0:0:
469,192,38364,1,0,0:0:0:0:
384,192,38554,1,2,0:0:0:0:
213,192,38744,128,8,39124:0:0:0:0:
298,192,38744,128,2,39124:0:0:0:0:
42,192,39124,1,0,0:0:0:0:
128,192,39314,1,2,0:0:0:0:
213,192,39504,1,8,0:0:0:0:
384,192,39504,128,2,39883:0:0:0:0:
128,192,39883,128,0,40263:0:0:0:0:
384,192,40263,128,2,40643:0:0:0:0:
469,192,40263,128,8,40643:0:0:0:0:
128,192,40643,1,0,0:0:0:0:
213,192,40833,1,2,0:0:0:0:
298,192,41023,128,2,41402:0:0:0:0:
384,192,41023,128,8,41402:0:0:0:0:
42,192,41402,1,0,0:0:0:0:
128,192,41592,1,2,0:0:0:0:
213,192,41782,128,2,42162:0:0:0:0:
298,192,41782,128,8,42162:0:0:0:0:
469,192,42162,1,0,0:0:0:0:
384,192,42352,1,2,0:0:0:0:
42,192,42542,128,2,42921:0:0:0:0:
298,192,42542,128,8,42921:0:0:0:0:
213,192,42921,128,0,43301:0:0:0:0:
469,192,42921,128,0,43301:0:0:0:0:
42,192,43301,128,2,43681:0:0:0:0:
128,192,43301,128,8,43681:0:0:0:0:
384,192,43681,1,0,0:0:0:0:
298,192,43871,1,2,0:0:0:0:
128,192,44061,128,2,44440:0:0:0:0:
213,192,44061,128,8,44440:0:0:0:0:
469,192,44440,1,0,0:0:0:0:
384,192,44630,1,2,0:0:0:0:
42,192,44820,128,2,45200:0:0:0:0:
298,192,44820,128,0,45200:0:0:0:0:
213,192,45200,128,2,45580:0:0:0:0:
469,192,45200,128,0,45580:0:0:0:0:
128,192,45580,128,2,45959:0:0:0:0:
384,192,45580,128,8,45959:0:0:0:0:
42,192,45959,1,0,0:0:0:0:
213,192,46149,1,2,0:0:0:0:
384,192,46339,1,2,0:0:0:0:
469,192,46339,1,0,0:0:0:0:
213,192,46719,1,2,0:0:0:0:
298,192,46719,1,0,0:0:0:0:
42,192,47099,1,2,0:0:0:0:
128,192,47099,1,0,0:0:0:0:
298,192,47288,1,10,0:0:0:0:
213,192,47478,1,2,0:0:0:0:
384,192,47668,1,2,0:0:0:0:
469,192,47668,1,8,0:0:0:0:
384,192,48048,1,2,0:0:0:0:
469,192,48048,1,8,0:0:0:0:
384,192,48428,1,8,0:0:0:0:
469,192,48428,128,2,49377:0:0:0:0:
42,192,48807,128,0,49377:0:0:0:0:
213,192,49377,1,6,0:0:0:0:
298,192,49377,1,0,0:0:0:0:
128,192,49567,1,0,0:0:0:0:
298,192,49757,1,8,0:0:0:0:
213,192,49947,1,0,0:0:0:0:
384,192,50137,1,2,0:0:0:0:
469,192,50137,128,0,50516:0:0:0:0:
42,192,50516,1,8,0:0:0:0:
128,192,50706,1,0,0:0:0:0:
213,192,50896,128,2,51276:0:0:0:0:
298,192,50896,1,0,0:0:0:0:
384,192,51276,128,8,51656:0:0:0:0:
469,192,51276,1,0,0:0:0:0:
42,192,51656,128,2,52035:0:0:0:0:
213,192,51656,1,0,0:0:0:0:
298,192,51845,1,10,0:0:0:0:
213,192,52035,1,8,0:0:0:0:
469,192,52035,1,2,0:0:0:0:
42,192,52415,1,2,0:0:0:0:
213,192,52415,1,0,0:0:0:0:
384,192,52605,1,0,0:0:0:0:
213,192,52795,1,8,0:0:0:0:
298,192,52985,1,0,0:0:0:0:
384,192,53175,1,2,0:0:0:0:
469,192,53175,128,0,53554:0:0:0:0:
128,192,53554,1,8,0:0:0:0:
213,192,53744,1,0,0:0:0:0:
298,192,53934,128,2,54314:0:0:0:0:
384,192,53934,1,0,0:0:0:0:
42,192,54314,1,8,0:0:0:0:
128,192,54314,128,0,54694:0:0:0:0:
298,192,54694,1,2,0:0:0:0:
469,192,54694,128,0,55073:0:0:0:0:
213,192,54883,1,10,0:0:0:0:
298,192,55073,1,2,0:0:0:0:
213,192,55263,1,10,0:0:0:0:
298,192,55453,1,2,0:0:0:0:
469,192,55453,1,0,0:0:0:0:
42,192,55643,1,0,0:0:0:0:
298,192,55833,1,8,0:0:0:0:
213,192,56023,1,0,0:0:0:0:
42,192,56213,128,2,56592:0:0:0:0:
128,192,56213,1,0,0:0:0:0:
469,192,56592,1,8,0:0:0:0:
384,192,56782,1,0,0:0:0:0:
213,192,56972,128,2,57352:0:0:0:0:
298,192,56972,1,0,0:0:0:0:
384,192,57352,128,8,57732:0:0:0:0:
469,192,57352,1,0,0:0:0:0:
42,192,57732,128,2,58111:0:0:0:0:
213,192,57732,1,0,0:0:0:0:
298,192,57921,1,10,0:0:0:0:
213,192,58111,1,10,0:0:0:0:
298,192,58301,1,6,0:0:0:0:
469,192,58301,128,0,58871:0:0:0:0:
42,192,58871,128,8,59251:0:0:0:0:
298,192,58871,1,0,0:0:0:0:
298,192,59251,1,2,0:0:0:0:
213,192,59440,1,0,0:0:0:0:
42,192,59630,1,8,0:0:0:0:
128,192,59630,1,0,0:0:0:0:
384,192,59820,1,2,0:0:0:0:
469,192,59820,1,8,0:0:0:0:
384,192,60200,1,8,0:0:0:0:
469,192,60200,1,2,0:0:0:0:
384,192,60580,1,2,0:0:0:0:
469,192,60580,128,8,61529:0:0:0:0:
128,192,60959,1,2,0:0:0:0:
42,192,61149,128,0,61529:0:0:0:0:
213,192,61529,1,6,0:0:0:0:
298,192,61529,1,0,0:0:0:0:
384,192,61719,1,0,0:0:0:0:
213,192,61909,1,8,0:0:0:0:
298,192,62099,1,0,0:0:0:0:
42,192,62288,1,2,0:0:0:0:
128,192,62288,128,0,62668:0:0:0:0:
298,192,62668,1,8,0:0:0:0:
213,192,62858,1,0,0:0:0:0:
384,192,63048,128,2,63428:0:0:0:0:
469,192,63048,1,0,0:0:0:0:
42,192,63428,128,8,63807:0:0:0:0:
213,192,63428,1,0,0:0:0:0:
213,192,63807,128,2,64187:0:0:0:0:
469,192,63807,1,0,0:0:0:0:
298,192,63997,1,10,0:0:0:0:
42,192,64187,1,2,0:0:0:0:
469,192,64187,1,8,0:0:0:0:
128,192,64567,1,2,0:0:0:0:
384,192,64567,1,0,0:0:0:0:
298,192,64757,1,0,0:0:0:0:
213,192,64947,1,8,0:0:0:0:
298,192,65137,1,0,0:0:0:0:
384,192,65326,1,2,0:0:0:0:
469,192,65326,128,0,65706:0:0:0:0:
128,192,65706,1,8,0:0:0:0:
213,192,65896,1,0,0:0:0:0:
298,192,66086,1,2,0:0:0:0:
384,192,66086,128,0,66466:0:0:0:0:
42,192,66466,1,8,0:0:0:0:
213,192,66466,128,0,66845:0:0:0:0:
42,192,66845,1,2,0:0:0:0:
469,192,66845,128,0,67225:0:0:0:0:
213,192,67035,1,10,0:0:0:0:
42,192,67225,1,2,0:0:0:0:
213,192,67415,1,10,0:0:0:0:
42,192,67605,1,2,0:0:0:0:
469,192,67605,1,0,0:0:0:0:
384,192,67795,1,0,0:0:0:0:
298,192,67985,1,8,0:0:0:0:
213,192,68175,1,0,0:0:0:0:
42,192,68364,1,2,0:0:0:0:
128,192,68364,128,0,68744:0:0:0:0:
384,192,68744,1,8,0:0:0:0:
298,192,68934,1,0,0:0:0:0:
128,192,69124,1,2,0:0:0:0:
213,192,69124,128,0,69504:0:0:0:0:
298,192,69504,128,8,69883:0:0:0:0:
469,192,69504,1,0,0:0:0:0:
42,192,69883,128,2,70263:0:0:0:0:
469,192,69883,1,0,0:0:0:0:
298,192,70073,1,10,0:0:0:0:
469,192,70263,1,10,0:0:0:0:
42,192,70453,1,6,0:0:0:0:
298,192,70453,128,0,71782:0:0:0:0:
213,192,71023,128,8,71782:0:0:0:0:
42,192,71402,128,2,71782:0:0:0:0:
384,192,71782,1,8,0:0:0:0:
42,192,71972,1,6,0:0:0:0:
213,192,71972,128,0,73301:0:0:0:0:
298,192,72542,128,8,73301:0:0:0:0:
469,192,72921,128,2,73301:0:0:0:0:
128,192,73301,1,8,0:0:0:0:
298,192,73491,128,6,74820:0:0:0:0:
469,192,73491,1,0,0:0:0:0:
213,192,74061,128,8,74820:0:0:0:0:
42,192,74440,128,2,74820:0:0:0:0:
384,192,74820,1,8,0:0:0:0:
128,192,75200,1,2,0:0:0:0:
298,192,75200,1,0,0:0:0:0:
42,192,75580,1,8,0:0:0:0:
213,192,75580,1,0,0:0:0:0:
298,192,75959,1,2,0:0:0:0:
469,192,75959,1,0,0:0:0:0:
213,192,76339,1,8,0:0:0:0:
384,192,76339,1,0,0:0:0:0:
128,192,76719,128,2,77099:0:0:0:0:
298,192,76719,1,0,0:0:0:0:
213,192,77099,1,8,0:0:0:0:
384,192,77099,128,0,77478:0:0:0:0:
128,192,77478,128,2,78238:0:0:0:0:
298,192,77478,1,0,0:0:0:0:
298,192,77858,1,8,0:0:0:0:
42,192,78238,1,2,0:0:0:0:
298,192,78238,1,0,0:0:0:0:
128,192,78618,1,8,0:0:0:0:
384,192,78618,1,0,0:0:0:0:
42,192,78997,1,2,0:0:0:0:
298,192,78997,1,0,0:0:0:0:
213,192,79377,1,8,0:0:0:0:
469,192,79377,1,0,0:0:0:0:
128,192,79757,128,2,80516:0:0:0:0:
384,192,79757,128,0,80516:0:0:0:0:
42,192,80516,1,6,0:0:0:0:
469,192,80516,1,0,0:0:0:0:
42,192,81276,1,2,0:0:0:0:
469,192,81276,1,0,0:0:0:0:
213,192,81656,1,8,0:0:0:0:
298,192,81656,1,0,0:0:0:0:
42,192,82035,1,2,0:0:0:0:
128,192,82035,1,0,0:0:0:0:
298,192,82225,1,0,0:0:0:0:
213,192,82320,1,0,0:0:0:0:
298,192,82510,1,0,0:0:0:0:
213,192,82605,1,0,0:0:0:0:
384,192,82795,1,2,0:0:0:0:
469,192,82795,1,0,0:0:0:0:
42,192,83175,1,8,0:0:0:0:
128,192,83175,1,0,0:0:0:0:
384,192,83554,1,2,0:0:0:0:
469,192,83554,1,0,0:0:0:0:
213,192,83744,1,0,0:0:0:0:
298,192,83839,1,0,0:0:0:0:
213,192,84029,1,0,0:0:0:0:
298,192,84124,1,0,0:0:0:0:
42,192,84314,1,2,0:0:0:0:
128,192,84314,1,0,0:0:0:0:
384,192,84694,1,8,0:0:0:0:
469,192,84694,1,0,0:0:0:0:
42,192,85073,1,2,0:0:0:0:
128,192,85073,1,0,0:0:0:0:
298,192,85263,1,0,0:0:0:0:
213,192,85358,1,0,0:0:0:0:
298,192,85548,1,0,0:0:0:0:
213,192,85643,1,0,0:0:0:0:
384,192,85833,1,2,0:0:0:0:
469,192,85833,128,0,86213:0:0:0:0:
42,192,86213,1,8,0:0:0:0:
128,192,86213,1,0,0:0:0:0:
42,192,86592,1,0,0:0:0:0:
128,192,86592,1,0,0:0:0:0:
298,192,86972,1,8,0:0:0:0:
42,192,87352,1,2,0:0:0:0:
213,192,87352,1,0,0:0:0:0:
298,192,87732,1,8,0:0:0:0:
469,192,87732,1,0,0:0:0:0:
42,192,88111,1,2,0:0:0:0:
213,192,88111,1,0,0:0:0:0:
384,192,88301,1,0,0:0:0:0:
128,192,88396,1,0,0:0:0:0:
384,192,88586,1,0,0:0:0:0:
128,192,88681,1,0,0:0:0:0:
298,192,88871,1,2,0:0:0:0:
469,192,88871,1,0,0:0:0:0:
42,192,89251,1,8,0:0:0:0:
213,192,89251,1,0,0:0:0:0:
298,192,89630,1,2,0:0:0:0:
469,192,89630,1,0,0:0:0:0:
128,192,89820,1,0,0:0:0:0:
384,192,89915,1,0,0:0:0:0:
128,192,90105,1,0,0:0:0:0:
384,192,90200,1,0,0:0:0:0:
42,192,90390,1,2,0:0:0:0:
213,192,90390,1,0,0:0:0:0:
298,192,90770,1,8,0:0:0:0:
469,192,90770,1,0,0:0:0:0:
42,192,91149,1,2,0:0:0:0:
213,192,91149,1,0,0:0:0:0:
384,192,91339,1,0,0:0:0:0:
128,192,91434,1,0,0:0:0:0:
384,192,91624,1,0,0:0:0:0:
128,192,91719,1,0,0:0:0:0:
298,192,91909,1,2,0:0:0:0:
469,192,91909,1,0,0:0:0:0:
42,192,92288,1,8,0:0:0:0:
213,192,92288,1,0,0:0:0:0:
298,192,92668,1,0,0:0:0:0:
469,192,92668,1,0,0:0:0:0:
42,192,92858,1,0,0:0:0:0:
128,192,93048,1,0,0:0:0:0:
213,192,93238,1,0,0:0:0:0:
298,192,93428,1,2,0:0:0:0:
469,192,93428,1,4,0:0:0:0:
42,192,93807,1,8,0:0:0:0:
213,192,93807,1,0,0:0:0:0:
298,192,94187,1,2,0:0:0:0:
384,192,94187,1,0,0:0:0:0:
128,192,94472,1,0,0:0:0:0:
213,192,94472,1,0,0:0:0:0:
298,192,94757,1,0,0:0:0:0:
384,192,94757,1,0,0:0:0:0:
42,192,94947,1,2,0:0:0:0:
128,192,94947,1,0,0:0:0:0:
298,192,95326,1,8,0:0:0:0:
469,192,95326,1,0,0:0:0:0:
128,192,95706,1,2,0:0:0:0:
213,192,95706,1,0,0:0:0:0:
298,192,95991,1,8,0:0:0:0:
384,192,95991,1,0,0:0:0:0:
128,192,96276,1,8,0:0:0:0:
213,192,96276,1,0,0:0:0:0:
384,192,96466,1,2,0:0:0:0:
469,192,96466,1,0,0:0:0:0:
42,192,96845,1,8,0:0:0:0:
213,192,96845,1,0,0:0:0:0:
298,192,97225,1,2,0:0:0:0:
384,192,97225,1,0,0:0:0:0:
128,192,97510,1,0,0:0:0:0:
213,192,97510,1,0,0:0:0:0:
298,192,97795,1,0,0:0:0:0:
384,192,97795,1,0,0:0:0:0:
42,192,97985,128,2,99504:0:0:0:0:
128,192,97985,1,0,0:0:0:0:
469,192,98364,1,8,0:0:0:0:
298,192,98744,1,10,0:0:0:0:
469,192,99124,1,10,0:0:0:0:
213,192,99504,1,2,0:0:0:0:
298,192,99504,1,0,0:0:0:0:
128,192,99883,1,8,0:0:0:0:
384,192,99883,1,0,0:0:0:0:
42,192,100263,1,0,0:0:0:0:
298,192,100263,1,0,0:0:0:0:
213,192,100643,1,8,0:0:0:0:
469,192,100643,1,0,0:0:0:0:
213,192,101023,1,2,0:0:0:0:
298,192,101023,1,0,0:0:0:0:
128,192,101402,1,8,0:0:0:0:
384,192,101402,1,0,0:0:0:0:
213,192,101782,1,0,0:0:0:0:
469,192,101782,1,0,0:0:0:0:
42,192,102162,1,2,0:0:0:0:
298,192,102162,1,0,0:0:0:0:
213,192,102542,1,2,0:0:0:0:
298,192,102542,1,0,0:0:0:0:
42,192,102921,1,8,0:0:0:0:
469,192,102921,1,0,0:0:0:0:
128,192,103301,1,0,0:0:0:0:
384,192,103301,1,0,0:0:0:0:
213,192,103681,1,8,0:0:0:0:
298,192,103681,1,0,0:0:0:0:
384,192,104061,1,2,0:0:0:0:
469,192,104061,128,0,105580:0:0:0:0:
42,192,104440,128,8,105580:0:0:0:0:
213,192,104820,128,2,105580:0:0:0:0:
384,192,105580,1,6,0:0:0:0:
213,192,105770,1,0,0:0:0:0:
384,192,105959,1,8,0:0:0:0:
469,192,105959,1,0,0:0:0:0:
213,192,106149,1,0,0:0:0:0:
384,192,106339,1,2,0:0:0:0:
213,192,106529,1,0,0:0:0:0:
384,192,106719,1,8,0:0:0:0:
469,192,106719,1,0,0:0:0:0:
213,192,106909,1,0,0:0:0:0:
298,192,107099,1,2,0:0:0:0:
128,192,107288,1,0,0:0:0:0:
298,192,107478,1,8,0:0:0:0:
384,192,107478,1,0,0:0:0:0:
128,192,107668,1,0,0:0:0:0:
298,192,107858,1,2,0:0:0:0:
384,192,107858,1,0,0:0:0:0:
128,192,108048,1,0,0:0:0:0:
213,192,108143,1,8,0:0:0:0:
298,192,108238,1,2,0:0:0:0:
42,192,108428,1,8,0:0:0:0:
128,192,108428,1,0,0:0:0:0:
298,192,108618,1,2,0:0:0:0:
42,192,108807,1,0,0:0:0:0:
298,192,108997,1,8,0:0:0:0:
469,192,108997,1,0,0:0:0:0:
42,192,109187,1,0,0:0:0:0:
298,192,109377,1,2,0:0:0:0:
42,192,109567,1,0,0:0:0:0:
298,192,109757,1,8,0:0:0:0:
469,192,109757,1,0,0:0:0:0:
42,192,109947,1,0,0:0:0:0:
213,192,110137,1,2,0:0:0:0:
298,192,110137,1,0,0:0:0:0:
213,192,110516,1,8,0:0:0:0:
298,192,110516,1,0,0:0:0:0:
42,192,110896,1,8,0:0:0:0:
128,192,110896,1,2,0:0:0:0:
298,192,111276,1,2,0:0:0:0:
469,192,111276,1,0,0:0:0:0:
42,192,111656,1,2,0:0:0:0:
128,192,111656,1,0,0:0:0:0:
298,192,112035,1,8,0:0:0:0:
469,192,112035,1,0,0:0:0:0:
42,192,112415,1,2,0:0:0:0:
213,192,112415,1,0,0:0:0:0:
384,192,112605,1,0,0:0:0:0:
128,192,112700,1,0,0:0:0:0:
384,192,112890,1,0,0:0:0:0:
128,192,112985,1,0,0:0:0:0:
298,192,113175,1,2,0:0:0:0:
469,192,113175,1,0,0:0:0:0:
42,192,113554,1,8,0:0:0:0:
213,192,113554,1,0,0:0:0:0:
298,192,113934,1,8,0:0:0:0:
469,192,113934,1,2,0:0:0:0:
128,192,114124,1,0,0:0:0:0:
384,192,114219,1,8,0:0:0:0:
128,192,114409,1,0,0:0:0:0:
384,192,114504,1,8,0:0:0:0:
42,192,114694,1,2,0:0:0:0:
213,192,114694,1,0,0:0:0:0:
298,192,115073,1,2,0:0:0:0:
469,192,115073,1,0,0:0:0:0:
42,192,115453,128,8,116213:0:0:0:0:
213,192,115453,128,0,116213:0:0:0:0:
298,192,116213,1,12,0:0:0:0:
469,192,116213,1,0,0:0:0:0:
128,192,116592,1,12,0:0:0:0:
213,192,116592,1,0,0:0:0:0:
298,192,116877,1,12,0:0:0:0:
384,192,116877,1,0,0:0:0:0:
