osu file format v14

[General]
AudioFilename: audio.mp3
AudioLeadIn: 0
PreviewTime: 49367
Countdown: 0
SampleSet: None
StackLeniency: 0.7
Mode: 3
LetterboxInBreaks: 0
SpecialStyle: 0
WidescreenStoryboard: 0

[Editor]
Bookmarks: 100168
DistanceSpacing: 2
BeatDivisor: 4
GridSize: 4
TimelineZoom: 1.7

[Metadata]
Title:Koi
TitleUnicode:恋
Artist:Hoshino Gen
ArtistUnicode:星野源
Creator:Sandalphon
Version:Insane
Source:逃げるは恥だが役に立つ
Tags:biemote nigeru ha hajidaga yaku ni tatsu
BeatmapID:1412533
BeatmapSetID:667590

[Difficulty]
HPDrainRate:8
CircleSize:6
OverallDifficulty:8
ApproachRate:5
SliderMultiplier:1.4
SliderTickRate:1

[Events]
//Background and Video events
0,0,"59484449_p0.jpg",0,0
//Break Periods
//Storyboard Layer 0 (Background)
//Storyboard Layer 1 (Fail)
//Storyboard Layer 2 (Pass)
//Storyboard Layer 3 (Foreground)
//Storyboard Sound Samples

[TimingPoints]
770,379.746835443038,4,3,1,60,1,0
49377,-100,4,3,1,60,0,1
58301,-100,4,3,1,60,0,0
61529,-100,4,3,1,60,0,1
80516,-100,4,3,1,60,0,0

[HitObjects]
42,192,770,128,0,1339:0:0:0:0:
213,192,770,1,2,0:0:0:0:
384,192,770,1,0,0:0:0:0:
469,192,770,1,0,0:0:0:0:
384,192,1339,1,0,0:0:0:0:
42,192,1529,1,0,0:0:0:0:
469,192,1529,128,0,2099:0:0:0:0:
128,192,1529,1,0,0:0:0:0:
384,192,1529,1,2,0:0:0:0:
213,192,1719,1,0,0:0:0:0:
298,192,1909,1,0,0:0:0:0:
128,192,2099,1,0,0:0:0:0:
42,192,2288,128,0,2858:0:0:0:0:
469,192,2288,1,0,0:0:0:0:
128,192,2288,1,2,0:0:0:0:
384,192,2288,1,0,0:0:0:0:
298,192,2858,1,0,0:0:0:0:
298,192,3048,128,0,3618:0:0:0:0:
213,192,3048,1,2,0:0:0:0:
42,192,3048,1,0,0:0:0:0:
469,192,3048,1,0,0:0:0:0:
128,192,3238,1,0,0:0:0:0:
42,192,3428,1,0,0:0:0:0:
213,192,3618,1,0,0:0:0:0:
42,192,3807,1,0,0:0:0:0:
213,192,3807,128,0,4377:0:0:0:0:
469,192,3807,1,0,0:0:0:0:
298,192,3807,1,2,0:0:0:0:
42,192,4377,1,0,0:0:0:0:
384,192,4567,1,2,0:0:0:0:
469,192,4567,128,0,5137:0:0:0:0:
42,192,4567,1,0,0:0:0:0:
213,192,4567,1,0,0:0:0:0:
128,192,4757,1,0,0:0:0:0:
213,192,4947,1,0,0:0:0:0:
298,192,5137,1,0,0:0:0:0:
42,192,5326,128,0,5896:0:0:0:0:
469,192,5326,1,0,0:0:0:0:
298,192,5326,1,0,0:0:0:0:
128,192,5326,1,2,0:0:0:0:
384,192,5896,1,0,0:0:0:0:
42,192,6086,1,0,0:0:0:0:
469,192,6086,1,0,0:0:0:0:
384,192,6086,1,0,0:0:0:0:
128,192,6086,1,2,0:0:0:0:
469,192,6276,1,0,0:0:0:0:
128,192,6276,1,0,0:0:0:0:
213,192,6339,1,0,0:0:0:0:
298,192,6402,1,0,0:0:0:0:
42,192,6466,1,0,0:0:0:0:
384,192,6466,1,0,0:0:0:0:
213,192,6656,1,0,0:0:0:0:
128,192,6656,1,0,0:0:0:0:
42,192,6845,1,2,0:0:0:0:
469,192,6845,1,0,0:0:0:0:
298,192,6845,1,0,0:0:0:0:
384,192,7035,1,0,0:0:0:0:
213,192,7225,1,0,0:0:0:0:
42,192,7225,1,0,0:0:0:0:
128,192,7225,1,8,0:0:0:0:
469,192,7415,1,0,0:0:0:0:
298,192,7605,1,2,0:0:0:0:
42,192,7605,1,0,0:0:0:0:
384,192,7605,1,0,0:0:0:0:
128,192,7795,1,0,0:0:0:0:
469,192,7985,1,0,0:0:0:0:
298,192,7985,1,8,0:0:0:0:
213,192,7985,1,0,0:0:0:0:
42,192,8175,1,0,0:0:0:0:
384,192,8364,1,2,0:0:0:0:
213,192,8364,1,0,0:0:0:0:
469,192,8364,1,0,0:0:0:0:
128,192,8554,1,0,0:0:0:0:
298,192,8744,1,8,0:0:0:0:
42,192,8744,1,0,0:0:0:0:
469,192,8744,1,0,0:0:0:0:
213,192,8934,1,0,0:0:0:0:
298,192,9124,1,0,0:0:0:0:
42,192,9124,1,0,0:0:0:0:
384,192,9124,1,2,0:0:0:0:
469,192,9314,1,0,0:0:0:0:
128,192,9314,1,0,0:0:0:0:
213,192,9377,1,0,0:0:0:0:
298,192,9440,1,0,0:0:0:0:
42,192,9504,1,0,0:0:0:0:
384,192,9504,1,8,0:0:0:0:
128,192,9694,1,0,0:0:0:0:
213,192,9694,1,0,0:0:0:0:
42,192,9883,128,2,10263:0:0:0:0:
469,192,9883,128,0,10263:0:0:0:0:
128,192,10263,128,8,10643:0:0:0:0:
384,192,10263,128,0,10643:0:0:0:0:
298,192,10263,1,0,0:0:0:0:
42,192,10643,128,2,11023:0:0:0:0:
213,192,10643,1,0,0:0:0:0:
469,192,10643,128,0,11023:0:0:0:0:
128,192,10833,1,8,0:0:0:0:
298,192,10833,1,0,0:0:0:0:
213,192,11023,1,0,0:0:0:0:
384,192,11023,1,0,0:0:0:0:
469,192,11213,1,0,0:0:0:0:
384,192,11213,1,2,0:0:0:0:
128,192,11213,1,8,0:0:0:0:
42,192,11213,1,0,0:0:0:0:
128,192,11592,1,8,0:0:0:0:
42,192,11592,1,0,0:0:0:0:
384,192,11592,1,2,0:0:0:0:
469,192,11592,1,0,0:0:0:0:
42,192,11972,1,0,0:0:0:0:
469,192,11972,1,0,0:0:0:0:
128,192,11972,128,8,12352:0:0:0:0:
384,192,11972,128,2,12352:0:0:0:0:
42,192,12352,1,0,0:0:0:0:
469,192,12352,1,8,0:0:0:0:
128,192,12542,1,0,0:0:0:0:
384,192,12542,1,0,0:0:0:0:
213,192,12637,1,0,0:0:0:0:
298,192,12637,1,0,0:0:0:0:
128,192,12732,1,0,0:0:0:0:
384,192,12732,1,0,0:0:0:0:
213,192,12826,1,0,0:0:0:0:
298,192,12826,1,0,0:0:0:0:
42,192,12921,1,4,0:0:0:0:
128,192,12921,1,0,0:0:0:0:
384,192,12921,1,2,0:0:0:0:
469,192,12921,1,0,0:0:0:0:
42,192,13301,1,0,0:0:0:0:
469,192,13301,1,8,0:0:0:0:
128,192,13681,1,2,0:0:0:0:
42,192,13681,1,0,0:0:0:0:
384,192,13871,128,0,14440:0:0:0:0:
469,192,13871,128,0,14440:0:0:0:0:
213,192,14061,1,8,0:0:0:0:
128,192,14061,1,0,0:0:0:0:
213,192,14440,1,0,0:0:0:0:
298,192,14440,1,2,0:0:0:0:
128,192,14820,1,8,0:0:0:0:
469,192,14820,1,0,0:0:0:0:
213,192,15010,128,0,15959:0:0:0:0:
42,192,15010,128,0,15959:0:0:0:0:
384,192,15200,1,2,0:0:0:0:
469,192,15200,1,0,0:0:0:0:
128,192,15580,1,0,0:0:0:0:
298,192,15580,1,8,0:0:0:0:
384,192,15959,1,2,0:0:0:0:
469,192,15959,1,0,0:0:0:0:
128,192,16339,1,0,0:0:0:0:
298,192,16339,1,8,0:0:0:0:
384,192,16719,1,2,0:0:0:0:
469,192,16719,1,0,0:0:0:0:
42,192,16909,128,0,17478:0:0:0:0:
128,192,16909,128,0,17478:0:0:0:0:
298,192,17099,1,8,0:0:0:0:
384,192,17099,1,0,0:0:0:0:
298,192,17478,1,0,0:0:0:0:
213,192,17478,1,2,0:0:0:0:
384,192,17858,1,0,0:0:0:0:
128,192,17858,1,8,0:0:0:0:
298,192,18048,128,0,18997:0:0:0:0:
469,192,18048,128,0,18997:0:0:0:0:
128,192,18238,1,2,0:0:0:0:
42,192,18238,1,0,0:0:0:0:
384,192,18618,1,0,0:0:0:0:
213,192,18618,1,8,0:0:0:0:
128,192,18997,1,2,0:0:0:0:
42,192,18997,1,0,0:0:0:0:
213,192,19377,1,8,0:0:0:0:
384,192,19377,1,0,0:0:0:0:
128,192,19757,1,2,0:0:0:0:
42,192,19757,1,0,0:0:0:0:
384,192,19947,128,0,20516:0:0:0:0:
469,192,19947,128,0,20516:0:0:0:0:
213,192,20137,1,8,0:0:0:0:
128,192,20137,1,0,0:0:0:0:
213,192,20516,1,2,0:0:0:0:
298,192,20516,1,0,0:0:0:0:
42,192,20896,1,0,0:0:0:0:
469,192,20896,1,8,0:0:0:0:
384,192,21086,128,0,22035:0:0:0:0:
128,192,21086,128,0,22035:0:0:0:0:
213,192,21276,1,0,0:0:0:0:
298,192,21276,1,2,0:0:0:0:
42,192,21656,1,0,0:0:0:0:
469,192,21656,1,8,0:0:0:0:
298,192,22035,128,2,22415:0:0:0:0:
42,192,22035,128,0,22415:0:0:0:0:
213,192,22225,1,0,0:0:0:0:
128,192,22415,128,8,22795:0:0:0:0:
384,192,22415,128,0,22795:0:0:0:0:
298,192,22605,1,0,0:0:0:0:
469,192,22795,128,2,23175:0:0:0:0:
213,192,22795,128,0,23175:0:0:0:0:
384,192,22985,1,0,0:0:0:0:
42,192,23175,1,0,0:0:0:0:
128,192,23175,1,8,0:0:0:0:
298,192,23364,1,0,0:0:0:0:
42,192,23554,128,0,24314:0:0:0:0:
128,192,23554,128,2,24314:0:0:0:0:
384,192,23554,128,0,23934:0:0:0:0:
298,192,23934,1,8,0:0:0:0:
213,192,23934,1,0,0:0:0:0:
213,192,24314,1,2,0:0:0:0:
469,192,24314,1,0,0:0:0:0:
384,192,24504,128,0,25073:0:0:0:0:
298,192,24504,1,2,0:0:0:0:
469,192,24504,128,0,25073:0:0:0:0:
42,192,24504,1,4,0:0:0:0:
213,192,24694,1,2,0:0:0:0:
128,192,24694,1,0,0:0:0:0:
42,192,25073,1,4,0:0:0:0:
298,192,25073,1,2,0:0:0:0:
128,192,25073,1,0,0:0:0:0:
42,192,25263,1,0,0:0:0:0:
213,192,25453,1,0,0:0:0:0:
298,192,25453,1,8,0:0:0:0:
128,192,25643,1,0,0:0:0:0:
298,192,25833,1,2,0:0:0:0:
384,192,25833,1,0,0:0:0:0:
128,192,26023,128,0,26592:0:0:0:0:
42,192,26023,128,0,26592:0:0:0:0:
384,192,26213,1,0,0:0:0:0:
469,192,26213,1,8,0:0:0:0:
298,192,26402,1,0,0:0:0:0:
384,192,26592,1,2,0:0:0:0:
469,192,26592,1,0,0:0:0:0:
469,192,26782,1,0,0:0:0:0:
213,192,26972,1,8,0:0:0:0:
128,192,26972,1,0,0:0:0:0:
298,192,27162,128,0,28111:0:0:0:0:
469,192,27162,128,0,28111:0:0:0:0:
42,192,27352,1,0,0:0:0:0:
128,192,27352,1,2,0:0:0:0:
213,192,27732,1,8,0:0:0:0:
384,192,27732,1,0,0:0:0:0:
42,192,28111,1,0,0:0:0:0:
128,192,28111,1,2,0:0:0:0:
128,192,28301,1,0,0:0:0:0:
384,192,28491,1,8,0:0:0:0:
469,192,28491,1,0,0:0:0:0:
298,192,28681,1,0,0:0:0:0:
213,192,28871,1,2,0:0:0:0:
469,192,28871,1,0,0:0:0:0:
128,192,29061,128,0,29630:0:0:0:0:
42,192,29061,128,0,29630:0:0:0:0:
384,192,29251,1,8,0:0:0:0:
298,192,29251,1,0,0:0:0:0:
213,192,29440,1,0,0:0:0:0:
384,192,29630,1,2,0:0:0:0:
469,192,29630,1,0,0:0:0:0:
469,192,29820,1,0,0:0:0:0:
42,192,30010,1,0,0:0:0:0:
128,192,30010,1,8,0:0:0:0:
213,192,30200,128,0,31149:0:0:0:0:
384,192,30200,128,0,31149:0:0:0:0:
469,192,30390,1,0,0:0:0:0:
298,192,30390,1,2,0:0:0:0:
128,192,30770,1,8,0:0:0:0:
42,192,30770,1,0,0:0:0:0:
469,192,31149,1,0,0:0:0:0:
298,192,31149,1,2,0:0:0:0:
298,192,31339,1,0,0:0:0:0:
128,192,31529,1,8,0:0:0:0:
42,192,31529,1,0,0:0:0:0:
213,192,31719,1,0,0:0:0:0:
469,192,31909,1,0,0:0:0:0:
298,192,31909,1,2,0:0:0:0:
128,192,32099,128,0,32668:0:0:0:0:
42,192,32099,128,0,32668:0:0:0:0:
469,192,32288,1,0,0:0:0:0:
213,192,32288,1,8,0:0:0:0:
298,192,32478,1,0,0:0:0:0:
384,192,32668,1,2,0:0:0:0:
469,192,32668,1,0,0:0:0:0:
384,192,32858,1,0,0:0:0:0:
128,192,33048,1,8,0:0:0:0:
42,192,33048,1,0,0:0:0:0:
298,192,33238,128,0,34187:0:0:0:0:
469,192,33238,128,0,34187:0:0:0:0:
128,192,33428,1,2,0:0:0:0:
42,192,33428,1,0,0:0:0:0:
213,192,33807,1,8,0:0:0:0:
42,192,33807,1,0,0:0:0:0:
42,192,34187,128,2,34567:0:0:0:0:
128,192,34187,128,0,34567:0:0:0:0:
213,192,34377,1,0,0:0:0:0:
469,192,34567,128,0,34947:0:0:0:0:
384,192,34567,128,8,34947:0:0:0:0:
298,192,34757,1,0,0:0:0:0:
42,192,34947,128,0,35326:0:0:0:0:
128,192,34947,128,2,35326:0:0:0:0:
213,192,35137,1,0,0:0:0:0:
469,192,35326,1,0,0:0:0:0:
384,192,35326,1,8,0:0:0:0:
42,192,35706,1,2,0:0:0:0:
469,192,35706,1,0,0:0:0:0:
213,192,35706,1,0,0:0:0:0:
298,192,35801,1,0,0:0:0:0:
384,192,35896,1,0,0:0:0:0:
298,192,35991,1,0,0:0:0:0:
42,192,36086,1,0,0:0:0:0:
213,192,36086,1,8,0:0:0:0:
469,192,36086,1,0,0:0:0:0:
384,192,36181,1,0,0:0:0:0:
298,192,36276,1,0,0:0:0:0:
42,192,36466,1,2,0:0:0:0:
213,192,36466,1,0,0:0:0:0:
469,192,36466,1,0,0:0:0:0:
42,192,36656,1,2,0:0:0:0:
213,192,36656,128,4,37225:0:0:0:0:
469,192,36656,128,0,37225:0:0:0:0:
128,192,36656,1,0,0:0:0:0:
42,192,37225,128,2,37605:0:0:0:0:
128,192,37225,128,0,37605:0:0:0:0:
384,192,37415,1,0,0:0:0:0:
298,192,37605,1,0,0:0:0:0:
469,192,37795,1,0,0:0:0:0:
384,192,37795,1,2,0:0:0:0:
298,192,37985,128,2,38364:0:0:0:0:
213,192,37985,128,8,38364:0:0:0:0:
384,192,38364,1,0,0:0:0:0:
298,192,38554,1,2,0:0:0:0:
42,192,38554,1,0,0:0:0:0:
469,192,38744,128,8,39124:0:0:0:0:
384,192,38744,128,2,39124:0:0:0:0:
42,192,38934,1,2,0:0:0:0:
128,192,38934,1,0,0:0:0:0:
298,192,39124,1,0,0:0:0:0:
128,192,39314,1,0,0:0:0:0:
213,192,39314,1,2,0:0:0:0:
42,192,39504,128,8,39883:0:0:0:0:
469,192,39504,128,2,39883:0:0:0:0:
128,192,39883,1,0,0:0:0:0:
213,192,40073,1,0,0:0:0:0:
298,192,40073,1,2,0:0:0:0:
384,192,40263,128,2,40643:0:0:0:0:
42,192,40263,128,8,40643:0:0:0:0:
128,192,40643,1,0,0:0:0:0:
298,192,40833,1,2,0:0:0:0:
469,192,40833,1,0,0:0:0:0:
213,192,41023,128,2,41402:0:0:0:0:
42,192,41023,128,8,41402:0:0:0:0:
469,192,41402,1,0,0:0:0:0:
128,192,41592,1,0,0:0:0:0:
298,192,41592,1,2,0:0:0:0:
384,192,41782,128,2,42162:0:0:0:0:
469,192,41782,128,8,42162:0:0:0:0:
42,192,41972,1,2,0:0:0:0:
298,192,41972,1,0,0:0:0:0:
128,192,42162,1,0,0:0:0:0:
213,192,42352,1,2,0:0:0:0:
298,192,42352,1,0,0:0:0:0:
128,192,42542,128,2,42921:0:0:0:0:
42,192,42542,128,8,42921:0:0:0:0:
469,192,42921,1,0,0:0:0:0:
384,192,43111,1,0,0:0:0:0:
213,192,43111,1,2,0:0:0:0:
298,192,43301,128,2,43681:0:0:0:0:
469,192,43301,128,8,43681:0:0:0:0:
42,192,43681,1,0,0:0:0:0:
128,192,43871,1,2,0:0:0:0:
213,192,43871,1,0,0:0:0:0:
42,192,44061,128,2,44440:0:0:0:0:
384,192,44061,128,8,44440:0:0:0:0:
469,192,44440,1,0,0:0:0:0:
298,192,44630,1,2,0:0:0:0:
128,192,44630,1,0,0:0:0:0:
384,192,44820,128,2,45200:0:0:0:0:
469,192,44820,128,0,45200:0:0:0:0:
42,192,45010,1,0,0:0:0:0:
128,192,45200,128,0,45580:0:0:0:0:
213,192,45200,128,2,45580:0:0:0:0:
469,192,45390,1,0,0:0:0:0:
298,192,45580,128,2,45959:0:0:0:0:
384,192,45580,128,8,45959:0:0:0:0:
128,192,45959,1,0,0:0:0:0:
42,192,45959,1,0,0:0:0:0:
298,192,46149,1,0,0:0:0:0:
42,192,46149,1,2,0:0:0:0:
384,192,46244,1,0,0:0:0:0:
128,192,46244,1,2,0:0:0:0:
469,192,46339,128,0,46719:0:0:0:0:
213,192,46339,128,2,46719:0:0:0:0:
42,192,46719,128,0,47099:0:0:0:0:
298,192,46719,128,2,47099:0:0:0:0:
469,192,47099,1,0,0:0:0:0:
384,192,47099,1,2,0:0:0:0:
213,192,47288,1,2,0:0:0:0:
298,192,47288,1,8,0:0:0:0:
42,192,47478,1,0,0:0:0:0:
128,192,47478,1,2,0:0:0:0:
469,192,47668,128,2,47858:0:0:0:0:
298,192,47668,128,8,47858:0:0:0:0:
42,192,48048,128,2,48238:0:0:0:0:
213,192,48048,128,8,48238:0:0:0:0:
213,192,48428,128,8,48807:0:0:0:0:
298,192,48428,128,2,48807:0:0:0:0:
42,192,48807,5,0,0:0:0:0:
469,192,48807,1,0,0:0:0:0:
128,192,48902,1,0,0:0:0:0:
384,192,48902,1,0,0:0:0:0:
298,192,48997,1,0,0:0:0:0:
213,192,48997,1,0,0:0:0:0:
42,192,49092,1,0,0:0:0:0:
469,192,49092,1,0,0:0:0:0:
128,192,49187,1,0,0:0:0:0:
384,192,49187,1,0,0:0:0:0:
213,192,49282,1,0,0:0:0:0:
298,192,49282,1,0,0:0:0:0:
42,192,49377,1,4,0:0:0:0:
128,192,49377,1,2,0:0:0:0:
384,192,49377,1,0,0:0:0:0:
469,192,49377,128,0,50137:0:0:0:0:
42,192,49567,1,0,0:0:0:0:
384,192,49757,1,8,0:0:0:0:
128,192,49757,1,0,0:0:0:0:
213,192,49947,1,0,0:0:0:0:
128,192,50137,128,0,50896:0:0:0:0:
42,192,50137,1,0,0:0:0:0:
384,192,50137,1,2,0:0:0:0:
298,192,50326,1,0,0:0:0:0:
213,192,50516,1,8,0:0:0:0:
469,192,50516,1,0,0:0:0:0:
384,192,50706,1,0,0:0:0:0:
298,192,50896,128,0,51656:0:0:0:0:
213,192,50896,1,2,0:0:0:0:
42,192,50896,1,0,0:0:0:0:
469,192,51086,1,0,0:0:0:0:
42,192,51276,1,0,0:0:0:0:
213,192,51276,1,8,0:0:0:0:
384,192,51466,1,0,0:0:0:0:
42,192,51656,128,0,52415:0:0:0:0:
128,192,51656,1,0,0:0:0:0:
213,192,51656,1,2,0:0:0:0:
384,192,51845,1,8,0:0:0:0:
298,192,51845,1,2,0:0:0:0:
384,192,52035,1,8,0:0:0:0:
128,192,52035,1,2,0:0:0:0:
469,192,52415,128,0,52795:0:0:0:0:
213,192,52415,1,0,0:0:0:0:
298,192,52415,1,2,0:0:0:0:
128,192,52605,1,0,0:0:0:0:
298,192,52795,1,0,0:0:0:0:
384,192,52795,1,8,0:0:0:0:
128,192,52985,1,0,0:0:0:0:
42,192,52985,1,0,0:0:0:0:
469,192,53175,128,0,53934:0:0:0:0:
298,192,53175,1,2,0:0:0:0:
384,192,53175,1,0,0:0:0:0:
213,192,53364,1,0,0:0:0:0:
128,192,53554,1,8,0:0:0:0:
42,192,53554,1,0,0:0:0:0:
384,192,53744,1,0,0:0:0:0:
128,192,53934,128,0,54314:0:0:0:0:
213,192,53934,128,0,54314:0:0:0:0:
298,192,53934,1,2,0:0:0:0:
298,192,54314,128,0,54694:0:0:0:0:
384,192,54314,128,0,54694:0:0:0:0:
42,192,54314,1,8,0:0:0:0:
42,192,54694,128,0,55453:0:0:0:0:
128,192,54694,1,2,0:0:0:0:
469,192,54694,1,0,0:0:0:0:
213,192,54883,1,2,0:0:0:0:
298,192,54883,1,8,0:0:0:0:
384,192,55073,1,2,0:0:0:0:
469,192,55073,1,0,0:0:0:0:
298,192,55263,1,8,0:0:0:0:
213,192,55263,1,2,0:0:0:0:
128,192,55453,1,2,0:0:0:0:
469,192,55453,1,0,0:0:0:0:
298,192,55643,1,0,0:0:0:0:
384,192,55643,1,0,0:0:0:0:
213,192,55833,1,8,0:0:0:0:
42,192,55833,1,0,0:0:0:0:
384,192,56023,1,0,0:0:0:0:
298,192,56023,1,0,0:0:0:0:
469,192,56213,128,0,56972:0:0:0:0:
42,192,56213,1,2,0:0:0:0:
128,192,56213,1,0,0:0:0:0:
298,192,56402,1,0,0:0:0:0:
128,192,56592,1,8,0:0:0:0:
213,192,56592,1,0,0:0:0:0:
384,192,56782,1,0,0:0:0:0:
42,192,56972,128,0,58301:0:0:0:0:
128,192,56972,1,2,0:0:0:0:
298,192,56972,1,0,0:0:0:0:
213,192,57162,1,0,0:0:0:0:
384,192,57352,1,8,0:0:0:0:
298,192,57352,1,0,0:0:0:0:
128,192,57542,1,0,0:0:0:0:
298,192,57732,1,2,0:0:0:0:
384,192,57732,1,0,0:0:0:0:
213,192,57921,1,2,0:0:0:0:
469,192,57921,1,8,0:0:0:0:
213,192,58111,1,2,0:0:0:0:
469,192,58111,1,8,0:0:0:0:
213,192,58301,128,4,58871:0:0:0:0:
469,192,58301,128,2,58871:0:0:0:0:
384,192,58301,1,0,0:0:0:0:
42,192,58871,1,0,0:0:0:0:
298,192,58871,1,8,0:0:0:0:
128,192,59061,1,0,0:0:0:0:
213,192,59251,1,2,0:0:0:0:
469,192,59251,1,0,0:0:0:0:
42,192,59440,1,0,0:0:0:0:
298,192,59440,1,0,0:0:0:0:
128,192,59630,1,8,0:0:0:0:
384,192,59630,1,0,0:0:0:0:
42,192,59820,128,2,60010:0:0:0:0:
469,192,59820,128,8,60010:0:0:0:0:
384,192,60200,128,8,60390:0:0:0:0:
128,192,60200,128,2,60390:0:0:0:0:
42,192,60580,128,2,60959:0:0:0:0:
469,192,60580,128,8,60959:0:0:0:0:
213,192,60959,1,0,0:0:0:0:
298,192,60959,1,2,0:0:0:0:
42,192,61149,1,0,0:0:0:0:
469,192,61149,1,0,0:0:0:0:
213,192,61244,1,0,0:0:0:0:
298,192,61244,1,0,0:0:0:0:
42,192,61339,1,0,0:0:0:0:
469,192,61339,1,0,0:0:0:0:
213,192,61434,1,0,0:0:0:0:
298,192,61434,1,0,0:0:0:0:
42,192,61529,1,4,0:0:0:0:
469,192,61529,128,0,63048:0:0:0:0:
384,192,61529,1,2,0:0:0:0:
128,192,61529,128,0,62288:0:0:0:0:
384,192,61719,1,0,0:0:0:0:
213,192,61909,1,8,0:0:0:0:
42,192,61909,1,0,0:0:0:0:
384,192,62099,1,0,0:0:0:0:
42,192,62288,128,0,63048:0:0:0:0:
213,192,62288,1,2,0:0:0:0:
298,192,62668,1,8,0:0:0:0:
384,192,62668,1,0,0:0:0:0:
128,192,62858,1,0,0:0:0:0:
384,192,63048,128,0,63807:0:0:0:0:
298,192,63048,128,2,63807:0:0:0:0:
213,192,63238,1,0,0:0:0:0:
128,192,63428,1,8,0:0:0:0:
42,192,63428,1,0,0:0:0:0:
469,192,63618,1,0,0:0:0:0:
42,192,63807,128,0,64567:0:0:0:0:
128,192,63807,128,0,64567:0:0:0:0:
213,192,63807,1,2,0:0:0:0:
384,192,63997,1,2,0:0:0:0:
469,192,63997,1,8,0:0:0:0:
469,192,64187,1,2,0:0:0:0:
213,192,64187,1,8,0:0:0:0:
384,192,64567,128,0,66086:0:0:0:0:
469,192,64567,1,2,0:0:0:0:
213,192,64757,1,0,0:0:0:0:
298,192,64757,1,0,0:0:0:0:
42,192,64947,128,0,65326:0:0:0:0:
128,192,64947,1,8,0:0:0:0:
213,192,65137,1,0,0:0:0:0:
298,192,65326,128,0,66086:0:0:0:0:
128,192,65326,1,2,0:0:0:0:
128,192,65706,1,8,0:0:0:0:
42,192,65706,1,0,0:0:0:0:
213,192,65896,1,0,0:0:0:0:
128,192,66086,128,0,66466:0:0:0:0:
42,192,66086,128,0,67605:0:0:0:0:
469,192,66086,1,2,0:0:0:0:
298,192,66466,128,0,66845:0:0:0:0:
213,192,66466,1,8,0:0:0:0:
469,192,66845,128,0,67605:0:0:0:0:
128,192,66845,1,2,0:0:0:0:
298,192,67035,1,2,0:0:0:0:
384,192,67035,1,8,0:0:0:0:
213,192,67225,1,2,0:0:0:0:
128,192,67225,1,0,0:0:0:0:
298,192,67415,1,2,0:0:0:0:
384,192,67415,1,8,0:0:0:0:
213,192,67605,128,0,69883:0:0:0:0:
128,192,67605,1,2,0:0:0:0:
384,192,67795,1,0,0:0:0:0:
469,192,67795,1,0,0:0:0:0:
42,192,67985,1,0,0:0:0:0:
298,192,67985,1,8,0:0:0:0:
384,192,68175,1,0,0:0:0:0:
469,192,68175,1,0,0:0:0:0:
42,192,68364,128,0,69124:0:0:0:0:
298,192,68364,1,2,0:0:0:0:
128,192,68744,1,0,0:0:0:0:
469,192,68744,1,8,0:0:0:0:
384,192,68934,1,0,0:0:0:0:
298,192,69124,1,2,0:0:0:0:
469,192,69124,128,0,69504:0:0:0:0:
298,192,69504,128,0,69883:0:0:0:0:
128,192,69504,1,8,0:0:0:0:
42,192,69504,1,0,0:0:0:0:
469,192,69883,128,0,70263:0:0:0:0:
42,192,69883,1,0,0:0:0:0:
384,192,69883,1,2,0:0:0:0:
128,192,70073,1,2,0:0:0:0:
213,192,70073,1,8,0:0:0:0:
384,192,70263,1,2,0:0:0:0:
213,192,70263,1,8,0:0:0:0:
42,192,70453,128,2,71782:0:0:0:0:
213,192,70453,1,4,0:0:0:0:
384,192,70453,1,0,0:0:0:0:
469,192,70833,1,0,0:0:0:0:
213,192,71023,128,0,71782:0:0:0:0:
298,192,71023,1,8,0:0:0:0:
128,192,71213,1,0,0:0:0:0:
384,192,71402,128,0,71782:0:0:0:0:
469,192,71402,1,2,0:0:0:0:
128,192,71592,1,0,0:0:0:0:
298,192,71782,1,8,0:0:0:0:
469,192,71782,1,0,0:0:0:0:
298,192,71972,1,2,0:0:0:0:
469,192,71972,128,0,73301:0:0:0:0:
128,192,71972,1,4,0:0:0:0:
42,192,72352,1,0,0:0:0:0:
298,192,72542,128,8,73301:0:0:0:0:
213,192,72542,1,0,0:0:0:0:
384,192,72732,1,0,0:0:0:0:
128,192,72921,128,0,73301:0:0:0:0:
42,192,72921,1,2,0:0:0:0:
384,192,73111,1,0,0:0:0:0:
213,192,73301,1,8,0:0:0:0:
42,192,73301,1,0,0:0:0:0:
213,192,73491,1,2,0:0:0:0:
384,192,73491,1,4,0:0:0:0:
42,192,73491,128,0,74820:0:0:0:0:
469,192,73871,1,0,0:0:0:0:
213,192,74061,128,0,74820:0:0:0:0:
298,192,74061,1,8,0:0:0:0:
128,192,74251,1,0,0:0:0:0:
384,192,74440,128,0,74820:0:0:0:0:
469,192,74440,1,2,0:0:0:0:
128,192,74630,1,0,0:0:0:0:
469,192,74820,1,0,0:0:0:0:
298,192,74820,1,8,0:0:0:0:
213,192,75010,1,0,0:0:0:0:
42,192,75200,1,0,0:0:0:0:
128,192,75200,1,2,0:0:0:0:
469,192,75390,1,0,0:0:0:0:
42,192,75580,1,0,0:0:0:0:
469,192,75580,1,0,0:0:0:0:
384,192,75580,1,8,0:0:0:0:
298,192,75770,1,0,0:0:0:0:
384,192,75959,1,2,0:0:0:0:
42,192,75959,1,0,0:0:0:0:
128,192,76149,1,0,0:0:0:0:
469,192,76339,1,0,0:0:0:0:
42,192,76339,1,0,0:0:0:0:
213,192,76339,1,8,0:0:0:0:
213,192,76529,1,0,0:0:0:0:
469,192,76529,1,2,0:0:0:0:
128,192,76624,1,0,0:0:0:0:
384,192,76624,1,2,0:0:0:0:
42,192,76719,128,0,77099:0:0:0:0:
298,192,76719,128,2,77099:0:0:0:0:
213,192,77099,128,0,77478:0:0:0:0:
469,192,77099,128,8,77478:0:0:0:0:
128,192,77478,128,0,78238:0:0:0:0:
384,192,77478,128,2,78238:0:0:0:0:
213,192,77858,1,8,0:0:0:0:
469,192,77858,1,0,0:0:0:0:
42,192,77858,1,0,0:0:0:0:
42,192,78238,1,0,0:0:0:0:
213,192,78238,1,2,0:0:0:0:
469,192,78428,1,0,0:0:0:0:
213,192,78618,1,0,0:0:0:0:
298,192,78618,1,8,0:0:0:0:
42,192,78618,1,0,0:0:0:0:
384,192,78807,1,0,0:0:0:0:
469,192,78997,1,0,0:0:0:0:
213,192,78997,1,2,0:0:0:0:
128,192,79187,1,0,0:0:0:0:
42,192,79377,1,0,0:0:0:0:
298,192,79377,1,8,0:0:0:0:
384,192,79377,1,0,0:0:0:0:
213,192,79567,1,0,0:0:0:0:
298,192,79757,1,0,0:0:0:0:
469,192,79757,1,2,0:0:0:0:
42,192,79757,1,0,0:0:0:0:
42,192,79947,1,0,0:0:0:0:
298,192,79947,1,0,0:0:0:0:
128,192,80042,1,0,0:0:0:0:
384,192,80042,1,0,0:0:0:0:
469,192,80137,1,0,0:0:0:0:
213,192,80137,1,0,0:0:0:0:
298,192,80232,1,0,0:0:0:0:
42,192,80232,1,0,0:0:0:0:
384,192,80326,1,0,0:0:0:0:
128,192,80326,1,0,0:0:0:0:
213,192,80421,1,0,0:0:0:0:
469,192,80421,1,0,0:0:0:0:
42,192,80516,1,2,0:0:0:0:
128,192,80516,1,4,0:0:0:0:
298,192,80516,1,0,0:0:0:0:
298,192,81276,1,2,0:0:0:0:
469,192,81276,1,0,0:0:0:0:
42,192,81276,1,0,0:0:0:0:
42,192,81656,1,0,0:0:0:0:
469,192,81656,1,0,0:0:0:0:
298,192,81656,1,8,0:0:0:0:
128,192,81751,1,0,0:0:0:0:
213,192,81845,1,0,0:0:0:0:
128,192,81940,1,0,0:0:0:0:
42,192,82035,1,2,0:0:0:0:
298,192,82035,1,0,0:0:0:0:
384,192,82225,1,0,0:0:0:0:
298,192,82320,1,0,0:0:0:0:
469,192,82415,1,0,0:0:0:0:
213,192,82415,1,8,0:0:0:0:
384,192,82510,1,0,0:0:0:0:
298,192,82605,1,0,0:0:0:0:
469,192,82795,1,0,0:0:0:0:
42,192,82795,1,2,0:0:0:0:
213,192,82795,1,0,0:0:0:0:
213,192,83175,1,8,0:0:0:0:
469,192,83175,1,0,0:0:0:0:
42,192,83175,1,0,0:0:0:0:
298,192,83270,1,0,0:0:0:0:
384,192,83364,1,0,0:0:0:0:
469,192,83459,1,0,0:0:0:0:
128,192,83554,1,2,0:0:0:0:
42,192,83554,1,0,0:0:0:0:
298,192,83744,1,0,0:0:0:0:
213,192,83839,1,0,0:0:0:0:
469,192,83934,1,0,0:0:0:0:
128,192,83934,1,8,0:0:0:0:
384,192,84029,1,0,0:0:0:0:
298,192,84124,1,0,0:0:0:0:
42,192,84314,1,2,0:0:0:0:
469,192,84314,1,0,0:0:0:0:
128,192,84314,1,0,0:0:0:0:
42,192,84694,1,8,0:0:0:0:
384,192,84694,1,0,0:0:0:0:
469,192,84694,1,0,0:0:0:0:
298,192,84788,1,0,0:0:0:0:
213,192,84883,1,0,0:0:0:0:
298,192,84978,1,0,0:0:0:0:
42,192,85073,1,0,0:0:0:0:
384,192,85073,1,0,0:0:0:0:
469,192,85073,1,2,0:0:0:0:
213,192,85263,1,0,0:0:0:0:
298,192,85358,1,0,0:0:0:0:
128,192,85453,1,8,0:0:0:0:
384,192,85453,1,0,0:0:0:0:
213,192,85548,1,0,0:0:0:0:
298,192,85643,1,0,0:0:0:0:
42,192,85833,128,0,86213:0:0:0:0:
213,192,85833,128,2,86213:0:0:0:0:
384,192,85833,1,0,0:0:0:0:
298,192,86213,128,0,86529:0:0:0:0:
128,192,86213,1,0,0:0:0:0:
469,192,86213,1,8,0:0:0:0:
42,192,86529,1,0,0:0:0:0:
213,192,86529,128,0,86782:0:0:0:0:
469,192,86529,128,0,86782:0:0:0:0:
42,192,86782,1,0,0:0:0:0:
128,192,86877,1,0,0:0:0:0:
213,192,86972,1,0,0:0:0:0:
469,192,86972,1,8,0:0:0:0:
384,192,87162,1,0,0:0:0:0:
298,192,87162,1,0,0:0:0:0:
469,192,87352,1,2,0:0:0:0:
213,192,87352,1,0,0:0:0:0:
42,192,87352,1,0,0:0:0:0:
42,192,87732,1,0,0:0:0:0:
469,192,87732,1,0,0:0:0:0:
213,192,87732,1,8,0:0:0:0:
384,192,87826,1,0,0:0:0:0:
298,192,87921,1,0,0:0:0:0:
213,192,88016,1,0,0:0:0:0:
128,192,88111,1,2,0:0:0:0:
384,192,88111,1,0,0:0:0:0:
298,192,88301,1,0,0:0:0:0:
384,192,88396,1,0,0:0:0:0:
469,192,88491,1,8,0:0:0:0:
213,192,88491,1,0,0:0:0:0:
128,192,88586,1,0,0:0:0:0:
42,192,88681,1,0,0:0:0:0:
469,192,88871,1,0,0:0:0:0:
42,192,88871,1,2,0:0:0:0:
298,192,88871,1,0,0:0:0:0:
384,192,89251,1,8,0:0:0:0:
42,192,89251,1,0,0:0:0:0:
298,192,89251,1,0,0:0:0:0:
128,192,89345,1,0,0:0:0:0:
213,192,89440,1,0,0:0:0:0:
128,192,89535,1,0,0:0:0:0:
298,192,89630,1,0,0:0:0:0:
42,192,89630,1,2,0:0:0:0:
469,192,89820,1,0,0:0:0:0:
384,192,89915,1,0,0:0:0:0:
298,192,90010,1,8,0:0:0:0:
213,192,90010,1,0,0:0:0:0:
128,192,90105,1,0,0:0:0:0:
42,192,90200,1,0,0:0:0:0:
42,192,90390,1,0,0:0:0:0:
469,192,90390,1,2,0:0:0:0:
298,192,90390,1,0,0:0:0:0:
42,192,90770,1,0,0:0:0:0:
384,192,90770,1,8,0:0:0:0:
469,192,90770,1,0,0:0:0:0:
128,192,90864,1,0,0:0:0:0:
213,192,90959,1,0,0:0:0:0:
298,192,91054,1,0,0:0:0:0:
128,192,91149,1,0,0:0:0:0:
384,192,91149,1,0,0:0:0:0:
42,192,91149,1,2,0:0:0:0:
298,192,91339,1,0,0:0:0:0:
384,192,91434,1,0,0:0:0:0:
128,192,91529,1,0,0:0:0:0:
469,192,91529,1,8,0:0:0:0:
213,192,91624,1,0,0:0:0:0:
298,192,91719,1,0,0:0:0:0:
213,192,91909,128,0,92288:0:0:0:0:
42,192,91909,128,2,92288:0:0:0:0:
384,192,91909,1,0,0:0:0:0:
298,192,92288,128,0,92605:0:0:0:0:
469,192,92288,1,8,0:0:0:0:
128,192,92288,1,0,0:0:0:0:
469,192,92605,128,0,92858:0:0:0:0:
213,192,92605,128,0,92858:0:0:0:0:
42,192,92605,1,0,0:0:0:0:
42,192,92858,1,0,0:0:0:0:
128,192,92858,1,0,0:0:0:0:
213,192,92953,1,0,0:0:0:0:
298,192,92953,1,0,0:0:0:0:
384,192,93048,1,0,0:0:0:0:
469,192,93048,1,0,0:0:0:0:
128,192,93143,1,0,0:0:0:0:
42,192,93143,1,0,0:0:0:0:
298,192,93238,1,0,0:0:0:0:
213,192,93238,1,0,0:0:0:0:
469,192,93333,1,0,0:0:0:0:
384,192,93333,1,0,0:0:0:0:
42,192,93428,1,2,0:0:0:0:
128,192,93428,1,4,0:0:0:0:
298,192,93523,1,0,0:0:0:0:
213,192,93618,1,0,0:0:0:0:
384,192,93713,1,0,0:0:0:0:
298,192,93807,1,0,0:0:0:0:
42,192,93807,1,8,0:0:0:0:
469,192,93902,1,0,0:0:0:0:
213,192,93902,1,0,0:0:0:0:
384,192,93997,1,0,0:0:0:0:
128,192,93997,1,0,0:0:0:0:
42,192,94092,1,0,0:0:0:0:
298,192,94092,1,0,0:0:0:0:
213,192,94187,1,0,0:0:0:0:
469,192,94187,1,2,0:0:0:0:
384,192,94282,1,0,0:0:0:0:
42,192,94377,1,0,0:0:0:0:
128,192,94377,1,0,0:0:0:0:
384,192,94472,1,0,0:0:0:0:
469,192,94472,1,0,0:0:0:0:
213,192,94567,1,0,0:0:0:0:
298,192,94567,1,8,0:0:0:0:
128,192,94662,1,0,0:0:0:0:
42,192,94662,1,0,0:0:0:0:
469,192,94757,1,0,0:0:0:0:
384,192,94757,1,0,0:0:0:0:
298,192,94852,1,0,0:0:0:0:
213,192,94947,1,2,0:0:0:0:
42,192,94947,1,0,0:0:0:0:
469,192,94947,1,0,0:0:0:0:
384,192,95042,1,0,0:0:0:0:
298,192,95137,1,0,0:0:0:0:
128,192,95232,1,0,0:0:0:0:
213,192,95326,1,8,0:0:0:0:
469,192,95326,1,0,0:0:0:0:
298,192,95421,1,0,0:0:0:0:
42,192,95421,1,0,0:0:0:0:
128,192,95516,1,0,0:0:0:0:
384,192,95516,1,0,0:0:0:0:
469,192,95611,1,0,0:0:0:0:
213,192,95611,1,0,0:0:0:0:
298,192,95706,1,2,0:0:0:0:
42,192,95706,1,0,0:0:0:0:
128,192,95801,1,0,0:0:0:0:
384,192,95896,1,0,0:0:0:0:
469,192,95896,1,0,0:0:0:0:
128,192,95991,1,8,0:0:0:0:
42,192,95991,1,0,0:0:0:0:
213,192,96086,1,0,0:0:0:0:
298,192,96086,1,2,0:0:0:0:
469,192,96181,1,0,0:0:0:0:
384,192,96181,1,0,0:0:0:0:
42,192,96276,1,0,0:0:0:0:
128,192,96276,1,8,0:0:0:0:
213,192,96371,1,0,0:0:0:0:
298,192,96466,1,0,0:0:0:0:
42,192,96466,1,0,0:0:0:0:
469,192,96466,1,2,0:0:0:0:
128,192,96561,1,0,0:0:0:0:
213,192,96656,1,0,0:0:0:0:
384,192,96751,1,0,0:0:0:0:
298,192,96845,1,8,0:0:0:0:
42,192,96845,1,0,0:0:0:0:
469,192,96940,1,0,0:0:0:0:
213,192,96940,1,0,0:0:0:0:
384,192,97035,1,0,0:0:0:0:
128,192,97035,1,0,0:0:0:0:
42,192,97130,1,0,0:0:0:0:
298,192,97130,1,0,0:0:0:0:
213,192,97225,1,2,0:0:0:0:
469,192,97225,1,0,0:0:0:0:
384,192,97320,1,0,0:0:0:0:
128,192,97415,1,0,0:0:0:0:
42,192,97415,1,0,0:0:0:0:
469,192,97510,1,0,0:0:0:0:
384,192,97510,1,0,0:0:0:0:
213,192,97605,1,0,0:0:0:0:
298,192,97605,1,8,0:0:0:0:
128,192,97700,1,0,0:0:0:0:
42,192,97700,1,0,0:0:0:0:
384,192,97795,1,0,0:0:0:0:
469,192,97795,1,0,0:0:0:0:
298,192,97890,1,0,0:0:0:0:
469,192,97985,128,0,99504:0:0:0:0:
42,192,97985,128,0,99504:0:0:0:0:
213,192,97985,1,2,0:0:0:0:
213,192,98364,1,0,0:0:0:0:
384,192,98364,1,8,0:0:0:0:
213,192,98744,1,8,0:0:0:0:
384,192,98744,1,0,0:0:0:0:
128,192,98744,1,2,0:0:0:0:
298,192,99029,1,8,0:0:0:0:
213,192,99124,1,10,0:0:0:0:
213,192,99314,1,0,0:0:0:0:
298,192,99314,1,8,0:0:0:0:
128,192,99504,1,0,0:0:0:0:
384,192,99504,1,2,0:0:0:0:
128,192,99883,1,8,0:0:0:0:
42,192,99883,1,0,0:0:0:0:
469,192,99883,1,0,0:0:0:0:
213,192,100010,1,0,0:0:0:0:
384,192,100010,1,0,0:0:0:0:
213,192,100200,1,0,0:0:0:0:
384,192,100200,1,0,0:0:0:0:
128,192,100453,1,0,0:0:0:0:
42,192,100453,1,0,0:0:0:0:
384,192,100643,1,0,0:0:0:0:
298,192,100643,1,8,0:0:0:0:
213,192,100833,1,0,0:0:0:0:
128,192,100833,1,0,0:0:0:0:
469,192,101023,1,0,0:0:0:0:
42,192,101023,1,0,0:0:0:0:
298,192,101023,1,2,0:0:0:0:
42,192,101402,1,0,0:0:0:0:
384,192,101402,1,8,0:0:0:0:
469,192,101402,1,0,0:0:0:0:
128,192,101529,1,0,0:0:0:0:
298,192,101529,1,0,0:0:0:0:
128,192,101719,1,0,0:0:0:0:
298,192,101719,1,0,0:0:0:0:
469,192,101925,1,0,0:0:0:0:
42,192,101925,1,0,0:0:0:0:
384,192,102020,1,0,0:0:0:0:
298,192,102162,1,2,0:0:0:0:
128,192,102162,1,0,0:0:0:0:
469,192,102352,1,0,0:0:0:0:
384,192,102352,1,8,0:0:0:0:
42,192,102542,1,0,0:0:0:0:
128,192,102542,1,2,0:0:0:0:
384,192,102542,1,0,0:0:0:0:
42,192,102921,1,0,0:0:0:0:
469,192,102921,1,0,0:0:0:0:
128,192,102921,1,8,0:0:0:0:
213,192,103048,1,0,0:0:0:0:
384,192,103048,1,0,0:0:0:0:
384,192,103238,1,0,0:0:0:0:
213,192,103238,1,0,0:0:0:0:
42,192,103491,1,0,0:0:0:0:
469,192,103491,1,0,0:0:0:0:
298,192,103681,1,8,0:0:0:0:
213,192,103681,1,0,0:0:0:0:
469,192,104061,128,0,104820:0:0:0:0:
42,192,104061,128,0,104820:0:0:0:0:
128,192,104061,1,0,0:0:0:0:
384,192,104061,1,2,0:0:0:0:
128,192,104440,1,8,0:0:0:0:
384,192,104440,1,0,0:0:0:0:
298,192,104820,5,2,0:0:0:0:
213,192,104820,1,0,0:0:0:0:
42,192,104915,1,0,0:0:0:0:
469,192,104915,1,0,0:0:0:0:
213,192,105010,1,0,0:0:0:0:
298,192,105010,1,0,0:0:0:0:
469,192,105105,1,0,0:0:0:0:
42,192,105105,1,0,0:0:0:0:
213,192,105200,1,0,0:0:0:0:
298,192,105200,1,0,0:0:0:0:
128,192,105295,1,0,0:0:0:0:
384,192,105295,1,0,0:0:0:0:
213,192,105390,1,0,0:0:0:0:
298,192,105390,1,0,0:0:0:0:
384,192,105485,1,0,0:0:0:0:
128,192,105485,1,0,0:0:0:0:
469,192,105580,128,2,105770:0:0:0:0:
213,192,105580,128,0,107099:0:0:0:0:
42,192,105580,1,4,0:0:0:0:
298,192,105770,1,0,0:0:0:0:
384,192,105864,1,0,0:0:0:0:
469,192,105959,128,0,106149:0:0:0:0:
42,192,105959,1,0,0:0:0:0:
128,192,105959,1,8,0:0:0:0:
298,192,106149,1,0,0:0:0:0:
384,192,106244,1,0,0:0:0:0:
469,192,106339,128,0,106529:0:0:0:0:
42,192,106339,1,2,0:0:0:0:
298,192,106529,1,0,0:0:0:0:
384,192,106624,1,0,0:0:0:0:
469,192,106719,128,0,106909:0:0:0:0:
42,192,106719,1,0,0:0:0:0:
128,192,106719,1,8,0:0:0:0:
298,192,106909,1,0,0:0:0:0:
384,192,107004,1,0,0:0:0:0:
128,192,107099,1,2,0:0:0:0:
469,192,107099,128,0,108618:0:0:0:0:
42,192,107099,128,0,107288:0:0:0:0:
298,192,107288,1,0,0:0:0:0:
213,192,107383,1,0,0:0:0:0:
42,192,107478,128,0,107668:0:0:0:0:
128,192,107478,1,8,0:0:0:0:
384,192,107478,1,0,0:0:0:0:
298,192,107668,1,0,0:0:0:0:
213,192,107763,1,0,0:0:0:0:
128,192,107858,1,2,0:0:0:0:
384,192,107858,1,0,0:0:0:0:
42,192,107858,128,0,108048:0:0:0:0:
298,192,108048,1,0,0:0:0:0:
213,192,108143,1,8,0:0:0:0:
384,192,108238,1,0,0:0:0:0:
42,192,108238,128,0,108428:0:0:0:0:
128,192,108238,1,2,0:0:0:0:
298,192,108428,1,8,0:0:0:0:
213,192,108523,1,0,0:0:0:0:
42,192,108618,128,0,110137:0:0:0:0:
128,192,108618,1,0,0:0:0:0:
298,192,108618,128,2,108807:0:0:0:0:
469,192,108807,1,0,0:0:0:0:
384,192,108902,1,0,0:0:0:0:
298,192,108997,128,0,109187:0:0:0:0:
128,192,108997,1,8,0:0:0:0:
213,192,108997,1,0,0:0:0:0:
469,192,109187,1,0,0:0:0:0:
384,192,109282,1,0,0:0:0:0:
298,192,109377,128,0,109567:0:0:0:0:
128,192,109377,1,2,0:0:0:0:
469,192,109567,1,0,0:0:0:0:
384,192,109662,1,0,0:0:0:0:
213,192,109757,1,0,0:0:0:0:
298,192,109757,128,0,109947:0:0:0:0:
128,192,109757,1,8,0:0:0:0:
469,192,109947,1,0,0:0:0:0:
384,192,110042,1,0,0:0:0:0:
298,192,110137,128,2,110516:0:0:0:0:
128,192,110137,1,0,0:0:0:0:
42,192,110516,1,0,0:0:0:0:
128,192,110516,1,8,0:0:0:0:
469,192,110516,1,0,0:0:0:0:
384,192,110801,1,0,0:0:0:0:
469,192,110801,1,0,0:0:0:0:
213,192,110896,1,8,0:0:0:0:
42,192,110896,1,2,0:0:0:0:
298,192,111181,1,8,0:0:0:0:
469,192,111181,1,0,0:0:0:0:
42,192,111276,1,0,0:0:0:0:
128,192,111276,1,2,0:0:0:0:
213,192,111466,1,0,0:0:0:0:
298,192,111466,1,8,0:0:0:0:
42,192,111656,1,2,0:0:0:0:
384,192,111656,1,0,0:0:0:0:
469,192,111656,1,0,0:0:0:0:
128,192,112035,1,8,0:0:0:0:
42,192,112035,1,0,0:0:0:0:
469,192,112035,1,0,0:0:0:0:
384,192,112130,1,0,0:0:0:0:
298,192,112225,1,0,0:0:0:0:
213,192,112320,1,0,0:0:0:0:
469,192,112415,1,2,0:0:0:0:
128,192,112415,1,0,0:0:0:0:
213,192,112605,1,0,0:0:0:0:
128,192,112700,1,0,0:0:0:0:
384,192,112795,1,0,0:0:0:0:
42,192,112795,1,8,0:0:0:0:
298,192,112890,1,0,0:0:0:0:
213,192,112985,1,0,0:0:0:0:
469,192,113175,1,2,0:0:0:0:
42,192,113175,1,0,0:0:0:0:
384,192,113175,1,0,0:0:0:0:
298,192,113554,1,8,0:0:0:0:
469,192,113554,1,0,0:0:0:0:
42,192,113554,1,0,0:0:0:0:
213,192,113649,1,0,0:0:0:0:
128,192,113744,1,0,0:0:0:0:
213,192,113839,1,0,0:0:0:0:
469,192,113934,1,8,0:0:0:0:
298,192,113934,1,2,0:0:0:0:
384,192,114124,1,0,0:0:0:0:
42,192,114219,1,8,0:0:0:0:
298,192,114219,1,0,0:0:0:0:
469,192,114314,1,2,0:0:0:0:
213,192,114314,1,0,0:0:0:0:
128,192,114409,1,0,0:0:0:0:
42,192,114504,1,8,0:0:0:0:
384,192,114504,1,0,0:0:0:0:
42,192,114694,1,0,0:0:0:0:
469,192,114694,1,2,0:0:0:0:
213,192,114694,1,0,0:0:0:0:
42,192,115073,5,0,0:0:0:0:
469,192,115073,1,0,0:0:0:0:
384,192,115073,1,2,0:0:0:0:
128,192,115168,1,0,0:0:0:0:
213,192,115263,1,0,0:0:0:0:
298,192,115358,1,0,0:0:0:0:
469,192,115453,1,0,0:0:0:0:
384,192,115453,1,8,0:0:0:0:
128,192,115548,1,0,0:0:0:0:
42,192,115548,1,0,0:0:0:0:
298,192,115643,1,0,0:0:0:0:
469,192,115643,1,0,0:0:0:0:
213,192,115738,1,0,0:0:0:0:
42,192,115738,1,0,0:0:0:0:
469,192,115833,1,0,0:0:0:0:
384,192,115833,1,0,0:0:0:0:
213,192,115928,1,0,0:0:0:0:
42,192,115928,1,0,0:0:0:0:
298,192,116023,1,0,0:0:0:0:
469,192,116023,1,0,0:0:0:0:
42,192,116118,1,0,0:0:0:0:
128,192,116118,1,0,0:0:0:0:
213,192,116213,5,0,0:0:0:0:
469,192,116213,1,4,0:0:0:0:
384,192,116213,1,8,0:0:0:0:
469,192,116592,1,8,0:0:0:0:
213,192,116592,1,4,0:0:0:0:
384,192,116592,1,0,0:0:0:0:
42,192,116877,1,4,0:0:0:0:
469,192,116877,1,8,0:0:0:0:
213,192,116877,1,0,0:0:0:0:
384,192,116877,1,0,0:0:0:0:
