osu file format v14

[General]
AudioFilename: audio.mp3
AudioLeadIn: 0
PreviewTime: 48595
Countdown: 0
SampleSet: Soft
StackLeniency: 0.7
Mode: 1
LetterboxInBreaks: 0
WidescreenStoryboard: 1

[Editor]
DistanceSpacing: 0.8
BeatDivisor: 4
GridSize: 32
TimelineZoom: 2.2

[Metadata]
Title:Koi
TitleUnicode:恋
Artist:Hoshino Gen
ArtistUnicode:星野源
Creator:-scy-
Version:Futsuu
Source:逃げるは恥だが役に立つ
Tags:Nigeru wa Haji da ga Yaku ni Tatsu
BeatmapID:1583011
BeatmapSetID:751936

[Difficulty]
HPDrainRate:7
CircleSize:2
OverallDifficulty:5
ApproachRate:5
SliderMultiplier:1.1999999666214
SliderTickRate:1

[Events]
//Background and Video events
0,0,"koi.jpg",0,0
//Break Periods
//Storyboard Layer 0 (Background)
//Storyboard Layer 1 (Fail)
//Storyboard Layer 2 (Pass)
//Storyboard Layer 3 (Foreground)
//Storyboard Sound Samples

[TimingPoints]
178,379.746835443038,4,2,0,100,1,0
48785,-100,4,2,0,100,0,1
80684,-100,4,2,0,100,0,0

[HitObjects]
256,192,178,5,0,0:0:0:0:
256,192,937,1,0,0:0:0:0:
256,192,1127,1,0,0:0:0:0:
256,192,1317,1,2,0:0:0:0:
256,192,1696,1,0,0:0:0:0:
256,192,2456,1,0,0:0:0:0:
256,192,2646,1,0,0:0:0:0:
256,192,2836,1,2,0:0:0:0:
256,192,3215,1,0,0:0:0:0:
256,192,3975,1,0,0:0:0:0:
256,192,4165,1,2,0:0:0:0:
256,192,4355,1,2,0:0:0:0:
256,192,4734,1,0,0:0:0:0:
256,192,5494,1,0,0:0:0:0:
256,192,5684,1,2,0:0:0:0:
256,192,5874,1,2,0:0:0:0:
256,192,6253,1,0,0:0:0:0:
256,192,7013,1,0,0:0:0:0:
256,192,7203,1,2,0:0:0:0:
256,192,7393,1,0,0:0:0:0:
256,192,7772,1,2,0:0:0:0:
256,192,8532,1,0,0:0:0:0:
256,192,8722,1,2,0:0:0:0:
256,192,8912,1,0,0:0:0:0:
256,192,9291,1,6,0:0:0:0:
256,192,9671,1,4,0:0:0:0:
256,192,10051,1,6,0:0:0:0:
256,192,10621,1,6,0:0:0:0:
256,192,11000,1,6,0:0:0:0:
256,192,11380,1,6,0:0:0:0:
256,192,12329,1,0,0:0:0:0:
256,192,12709,1,2,0:0:0:0:
256,192,13089,1,0,0:0:0:0:
256,192,13469,1,2,0:0:0:0:
256,192,13848,1,0,0:0:0:0:
256,192,14418,1,0,0:0:0:0:
256,192,15367,1,2,0:0:0:0:
256,192,15557,1,0,0:0:0:0:
256,192,15747,1,2,0:0:0:0:
256,192,16127,1,0,0:0:0:0:
256,192,16886,1,0,0:0:0:0:
256,192,17076,1,2,0:0:0:0:
256,192,17266,1,0,0:0:0:0:
256,192,17646,1,0,0:0:0:0:
256,192,18595,1,2,0:0:0:0:
256,192,18785,1,0,0:0:0:0:
256,192,18975,1,2,0:0:0:0:
256,192,19165,1,0,0:0:0:0:
256,192,19355,1,2,0:0:0:0:
256,192,19734,1,6,0:0:0:0:
256,192,20114,1,0,0:0:0:0:
256,192,20304,1,2,0:0:0:0:
256,192,20494,1,0,0:0:0:0:
256,192,21443,1,0,0:0:0:0:
256,192,21823,1,2,0:0:0:0:
256,192,22203,1,0,0:0:0:0:
256,192,22583,1,0,0:0:0:0:
256,192,22962,1,2,0:0:0:0:
256,192,24481,1,0,0:0:0:0:
256,192,24861,1,2,0:0:0:0:
256,192,25241,1,0,0:0:0:0:
256,192,25621,1,2,0:0:0:0:
256,192,26000,1,0,0:0:0:0:
256,192,26570,1,0,0:0:0:0:
256,192,27519,1,2,0:0:0:0:
256,192,27709,1,0,0:0:0:0:
256,192,27899,1,2,0:0:0:0:
256,192,28279,1,0,0:0:0:0:
256,192,29038,1,2,0:0:0:0:
256,192,29228,1,0,0:0:0:0:
256,192,29418,1,2,0:0:0:0:
256,192,29798,1,0,0:0:0:0:
256,192,30747,1,2,0:0:0:0:
256,192,30937,1,2,0:0:0:0:
256,192,31127,1,0,0:0:0:0:
256,192,31317,1,0,0:0:0:0:
256,192,31507,1,2,0:0:0:0:
256,192,31886,1,6,0:0:0:0:
256,192,32266,1,0,0:0:0:0:
256,192,32456,1,2,0:0:0:0:
256,192,32646,1,0,0:0:0:0:
256,192,33595,1,0,0:0:0:0:
256,192,33975,1,2,0:0:0:0:
256,192,34355,1,2,0:0:0:0:
256,192,34735,1,0,0:0:0:0:
256,192,35114,1,2,0:0:0:0:
256,192,36633,1,0,0:0:0:0:
256,192,36823,1,0,0:0:0:0:
256,192,37013,1,2,0:0:0:0:
256,192,37203,1,0,0:0:0:0:
256,192,37393,1,0,0:0:0:0:
256,192,37772,1,2,0:0:0:0:
256,192,37962,1,0,0:0:0:0:
256,192,38342,1,0,0:0:0:0:
256,192,38532,1,2,0:0:0:0:
256,192,38912,1,4,0:0:0:0:
256,192,39291,1,6,0:0:0:0:
256,192,39861,1,0,0:0:0:0:
256,192,40051,1,0,0:0:0:0:
256,192,40241,1,2,0:0:0:0:
256,192,40431,1,0,0:0:0:0:
256,192,40810,1,0,0:0:0:0:
256,192,41000,1,2,0:0:0:0:
256,192,41380,1,2,0:0:0:0:
256,192,41570,1,0,0:0:0:0:
256,192,41760,1,0,0:0:0:0:
256,192,41950,1,2,0:0:0:0:
256,192,42899,1,0,0:0:0:0:
256,192,43089,1,0,0:0:0:0:
256,192,43279,1,0,0:0:0:0:
256,192,43469,1,2,0:0:0:0:
256,192,43848,1,2,0:0:0:0:
256,192,44228,1,0,0:0:0:0:
256,192,44608,1,2,0:0:0:0:
256,192,44988,1,0,0:0:0:0:
256,192,45367,1,2,0:0:0:0:
256,192,45747,1,4,0:0:0:0:
256,192,46127,1,6,0:0:0:0:
256,192,46507,1,4,0:0:0:0:
256,192,47076,1,4,0:0:0:0:
256,192,47456,1,4,0:0:0:0:
256,192,47836,1,4,0:0:0:0:
256,192,48785,1,0,0:0:0:0:
256,192,48975,1,2,0:0:0:0:
256,192,49165,1,0,0:0:0:0:
256,192,49355,1,2,0:0:0:0:
256,192,49545,1,0,0:0:0:0:
256,192,49924,1,2,0:0:0:0:
256,192,50114,1,0,0:0:0:0:
256,192,50304,1,2,0:0:0:0:
256,192,50684,1,0,0:0:0:0:
256,192,51064,1,0,0:0:0:0:
256,192,51253,1,2,0:0:0:0:
256,192,51443,1,2,0:0:0:0:
256,192,51823,1,2,0:0:0:0:
256,192,52013,1,0,0:0:0:0:
256,192,52203,1,2,0:0:0:0:
256,192,52393,1,0,0:0:0:0:
256,192,52583,1,2,0:0:0:0:
256,192,52962,1,0,0:0:0:0:
256,192,53152,1,0,0:0:0:0:
256,192,53343,1,6,0:0:0:0:
256,192,53722,1,4,0:0:0:0:
256,192,54102,1,4,0:0:0:0:
256,192,54861,1,0,0:0:0:0:
256,192,55051,1,2,0:0:0:0:
256,192,55241,1,0,0:0:0:0:
256,192,55431,1,2,0:0:0:0:
256,192,55621,1,0,0:0:0:0:
256,192,56000,1,2,0:0:0:0:
256,192,56190,1,0,0:0:0:0:
256,192,56380,1,2,0:0:0:0:
256,192,56760,1,0,0:0:0:0:
256,192,57140,1,0,0:0:0:0:
256,192,57709,1,0,0:0:0:0:
256,192,58279,1,2,0:0:0:0:
256,192,58659,1,0,0:0:0:0:
256,192,59038,1,0,0:0:0:0:
256,192,59228,1,2,0:0:0:0:
256,192,59608,1,2,0:0:0:0:
256,192,59798,1,0,0:0:0:0:
256,192,60178,1,0,0:0:0:0:
256,192,60937,1,2,0:0:0:0:
256,192,61127,1,0,0:0:0:0:
256,192,61317,1,2,0:0:0:0:
256,192,61507,1,0,0:0:0:0:
256,192,61696,1,2,0:0:0:0:
256,192,62076,1,0,0:0:0:0:
256,192,62266,1,2,0:0:0:0:
256,192,62456,1,0,0:0:0:0:
256,192,62836,1,2,0:0:0:0:
256,192,63216,1,2,0:0:0:0:
256,192,63405,1,0,0:0:0:0:
256,192,63595,1,0,0:0:0:0:
256,192,63975,1,0,0:0:0:0:
256,192,64165,1,2,0:0:0:0:
256,192,64355,1,0,0:0:0:0:
256,192,64545,1,2,0:0:0:0:
256,192,64735,1,0,0:0:0:0:
256,192,65114,1,2,0:0:0:0:
256,192,65304,1,2,0:0:0:0:
256,192,65495,1,4,0:0:0:0:
256,192,65874,1,6,0:0:0:0:
256,192,66253,1,6,0:0:0:0:
256,192,67013,1,2,0:0:0:0:
256,192,67203,1,0,0:0:0:0:
256,192,67393,1,2,0:0:0:0:
256,192,67583,1,0,0:0:0:0:
256,192,67772,1,2,0:0:0:0:
256,192,68152,1,0,0:0:0:0:
256,192,68342,1,2,0:0:0:0:
256,192,68532,1,0,0:0:0:0:
256,192,68912,1,6,0:0:0:0:
256,192,69291,1,6,0:0:0:0:
256,192,69861,1,2,0:0:0:0:
256,192,70241,1,0,0:0:0:0:
256,192,70431,1,2,0:0:0:0:
256,192,70621,1,0,0:0:0:0:
256,192,70810,1,2,0:0:0:0:
256,192,71000,1,0,0:0:0:0:
256,192,71380,1,2,0:0:0:0:
256,192,71760,1,0,0:0:0:0:
256,192,71950,1,2,0:0:0:0:
256,192,72140,1,0,0:0:0:0:
256,192,72329,1,2,0:0:0:0:
256,192,72519,1,0,0:0:0:0:
256,192,72899,1,0,0:0:0:0:
256,192,73279,1,2,0:0:0:0:
256,192,73469,1,0,0:0:0:0:
256,192,73848,1,2,0:0:0:0:
256,192,74038,1,0,0:0:0:0:
256,192,74228,1,2,0:0:0:0:
256,192,74418,1,0,0:0:0:0:
256,192,74608,1,2,0:0:0:0:
256,192,75937,1,2,0:0:0:0:
256,192,76317,1,0,0:0:0:0:
256,192,76507,1,2,0:0:0:0:
256,192,76697,1,0,0:0:0:0:
256,192,76886,1,2,0:0:0:0:
256,192,77076,1,0,0:0:0:0:
256,192,77266,1,2,0:0:0:0:
256,192,77456,1,0,0:0:0:0:
256,192,77646,1,2,0:0:0:0:
256,192,78975,1,2,0:0:0:0:
256,192,79355,1,0,0:0:0:0:
256,192,79545,1,2,0:0:0:0:
256,192,79735,1,0,0:0:0:0:
256,192,79924,1,2,0:0:0:0:
256,192,80114,1,0,0:0:0:0:
256,192,80304,1,2,0:0:0:0:
256,192,80494,1,0,0:0:0:0:
256,192,80684,1,6,0:0:0:0:
256,192,81064,1,0,0:0:0:0:
256,192,81253,1,2,0:0:0:0:
256,192,81443,1,0,0:0:0:0:
256,192,81633,1,2,0:0:0:0:
256,192,81823,1,0,0:0:0:0:
256,192,82203,1,6,0:0:0:0:
256,192,82583,1,2,0:0:0:0:
256,192,82772,1,0,0:0:0:0:
256,192,82962,1,2,0:0:0:0:
256,192,83152,1,0,0:0:0:0:
256,192,83342,1,2,0:0:0:0:
256,192,83722,1,4,0:0:0:0:
256,192,84102,1,0,0:0:0:0:
256,192,84291,1,2,0:0:0:0:
256,192,84481,1,0,0:0:0:0:
256,192,84671,1,2,0:0:0:0:
256,192,84861,1,0,0:0:0:0:
256,192,85241,1,6,0:0:0:0:
256,192,85621,1,4,0:0:0:0:
256,192,85905,1,6,0:0:0:0:
256,192,86760,1,0,0:0:0:0:
256,192,87140,1,2,0:0:0:0:
256,192,87329,1,0,0:0:0:0:
256,192,87519,1,2,0:0:0:0:
256,192,87709,1,2,0:0:0:0:
256,192,87899,1,0,0:0:0:0:
256,192,88279,1,4,0:0:0:0:
256,192,88659,1,0,0:0:0:0:
256,192,88848,1,2,0:0:0:0:
256,192,89038,1,0,0:0:0:0:
256,192,89228,1,0,0:0:0:0:
256,192,89418,1,2,0:0:0:0:
256,192,89798,1,6,0:0:0:0:
256,192,90178,1,2,0:0:0:0:
256,192,90367,1,0,0:0:0:0:
256,192,90557,1,2,0:0:0:0:
256,192,90747,1,2,0:0:0:0:
256,192,90937,1,0,0:0:0:0:
256,192,91317,1,6,0:0:0:0:
256,192,91696,1,4,0:0:0:0:
256,192,91981,1,6,0:0:0:0:
