osu file format v14

[General]
AudioFilename: audio.mp3
AudioLeadIn: 0
PreviewTime: 51966
Countdown: 0
SampleSet: Soft
StackLeniency: 0.7
Mode: 3
LetterboxInBreaks: 0
SpecialStyle: 0
WidescreenStoryboard: 0

[Editor]
Bookmarks: 1526,12026,39026,52526,73526,79526,90026
DistanceSpacing: 1.2
BeatDivisor: 4
GridSize: 8
TimelineZoom: 1.5

[Metadata]
Title:Doraemon (Cut Ver.)
TitleUnicode:ドラえもん (Cut Ver.)
Artist:Hoshino Gen
ArtistUnicode:星野源
Creator:Irone OSU
Version:Treasure
Source:映画ドラえもん のび太の宝島
Tags:BlackBN BlackBq The Movie: Nobita's Treasure Island Eiga Nobita no Takarajima Theme Song fujiko f. fujio 藤子・f・不二雄 japanese anime 主題歌 op opening ed ending
BeatmapID:3246788
BeatmapSetID:1589537

[Difficulty]
HPDrainRate:8
CircleSize:4
OverallDifficulty:8
ApproachRate:5
SliderMultiplier:1.4
SliderTickRate:1

[Events]
//Background and Video events
0,0,"bg.jpg",0,0
//Break Periods
//Storyboard Layer 0 (Background)
//Storyboard Layer 1 (Fail)
//Storyboard Layer 2 (Pass)
//Storyboard Layer 3 (Foreground)
//Storyboard Layer 4 (Overlay)
//Storyboard Sound Samples

[TimingPoints]
1529,375,4,2,1,35,1,0
52529,-100,4,2,1,45,0,1
73154,-100,4,2,1,35,0,0
73529,-100,4,2,1,45,0,1
79529,-100,4,2,1,35,0,0

[HitObjects]
64,192,1529,5,0,0:0:0:0:
448,192,1529,1,0,0:0:0:0:
320,192,1529,1,0,0:0:0:0:
448,192,2091,1,0,0:0:0:0:
320,192,2091,1,0,0:0:0:0:
64,192,2091,1,0,0:0:0:0:
192,192,2279,1,0,0:0:0:0:
320,192,2279,1,0,0:0:0:0:
448,192,2279,1,0,0:0:0:0:
320,192,2654,1,0,0:0:0:0:
64,192,2654,1,0,0:0:0:0:
192,192,2654,1,0,0:0:0:0:
448,192,3404,1,0,0:0:0:0:
320,192,3404,1,0,0:0:0:0:
64,192,3404,1,0,0:0:0:0:
448,192,3779,1,0,0:0:0:0:
320,192,3779,1,0,0:0:0:0:
64,192,3779,1,0,0:0:0:0:
448,192,3966,128,0,4060:0:0:0:0:
192,192,4154,128,0,4247:0:0:0:0:
64,192,4154,128,0,4247:0:0:0:0:
448,192,4529,1,0,0:0:0:0:
320,192,4529,1,0,0:0:0:0:
64,192,4529,1,0,0:0:0:0:
192,192,4904,1,0,0:0:0:0:
448,192,5091,1,0,0:0:0:0:
320,192,5091,1,0,0:0:0:0:
64,192,5091,1,0,0:0:0:0:
192,192,5279,1,0,0:0:0:0:
320,192,5279,1,0,0:0:0:0:
448,192,5279,1,0,0:0:0:0:
64,192,5654,1,0,0:0:0:0:
192,192,5654,1,0,0:0:0:0:
320,192,5654,1,0,0:0:0:0:
320,192,5841,1,0,0:0:0:0:
448,192,5841,1,0,0:0:0:0:
192,192,6029,1,0,0:0:0:0:
320,192,6216,1,0,0:0:0:0:
448,192,6216,1,0,0:0:0:0:
448,192,6404,1,0,0:0:0:0:
320,192,6404,1,0,0:0:0:0:
64,192,6404,1,0,0:0:0:0:
64,192,6591,1,0,0:0:0:0:
192,192,6591,1,0,0:0:0:0:
448,192,6779,1,0,0:0:0:0:
320,192,6779,1,0,0:0:0:0:
64,192,6779,1,0,0:0:0:0:
320,192,7154,1,0,0:0:0:0:
192,192,7341,1,0,0:0:0:0:
448,192,7529,1,0,0:0:0:0:
320,192,7529,1,0,0:0:0:0:
64,192,7529,1,0,0:0:0:0:
448,192,7716,1,0,0:0:0:0:
192,192,7716,1,0,0:0:0:0:
192,192,7904,1,0,0:0:0:0:
448,192,8091,1,0,0:0:0:0:
320,192,8091,1,0,0:0:0:0:
64,192,8091,1,0,0:0:0:0:
448,192,8279,1,0,0:0:0:0:
320,192,8279,1,0,0:0:0:0:
192,192,8279,1,0,0:0:0:0:
64,192,8654,1,0,0:0:0:0:
192,192,8654,1,0,0:0:0:0:
320,192,8654,1,0,0:0:0:0:
448,192,8841,1,0,0:0:0:0:
320,192,8841,1,0,0:0:0:0:
192,192,9029,1,0,0:0:0:0:
448,192,9216,1,0,0:0:0:0:
320,192,9216,1,0,0:0:0:0:
64,192,9404,1,0,0:0:0:0:
320,192,9404,1,0,0:0:0:0:
448,192,9404,1,0,0:0:0:0:
64,192,9591,1,0,0:0:0:0:
192,192,9591,1,0,0:0:0:0:
448,192,9779,1,0,0:0:0:0:
320,192,9779,1,0,0:0:0:0:
64,192,9779,1,0,0:0:0:0:
320,192,9966,1,0,0:0:0:0:
192,192,9966,1,0,0:0:0:0:
448,192,10154,1,0,0:0:0:0:
64,192,10154,1,0,0:0:0:0:
320,192,10529,128,0,10622:0:0:0:0:
192,192,10529,128,0,10622:0:0:0:0:
64,192,10529,128,0,10622:0:0:0:0:
320,192,11091,128,0,11185:0:0:0:0:
192,192,11091,128,0,11185:0:0:0:0:
64,192,11091,128,0,11185:0:0:0:0:
448,192,11279,128,0,11372:0:0:0:0:
320,192,11279,128,0,11372:0:0:0:0:
192,192,11279,128,0,11372:0:0:0:0:
320,192,11654,1,0,0:0:0:0:
448,192,11654,128,0,11747:0:0:0:0:
64,192,11654,128,0,11747:0:0:0:0:
192,192,11747,1,0,0:0:0:0:
448,192,11841,1,0,0:0:0:0:
192,192,11935,1,0,0:0:0:0:
448,192,12029,128,0,12122:0:0:0:0:
320,192,12029,1,0,0:0:0:0:
64,192,12029,1,0,0:0:0:0:
448,192,12404,1,0,0:0:0:0:
64,192,12404,1,0,0:0:0:0:
448,192,12591,1,0,0:0:0:0:
320,192,12591,128,0,12685:0:0:0:0:
192,192,12779,1,0,0:0:0:0:
64,192,12779,128,0,12872:0:0:0:0:
320,192,12966,1,0,0:0:0:0:
64,192,13154,1,0,0:0:0:0:
448,192,13154,1,0,0:0:0:0:
448,192,13341,128,0,13435:0:0:0:0:
192,192,13341,1,0,0:0:0:0:
320,192,13529,1,0,0:0:0:0:
64,192,13529,128,0,13622:0:0:0:0:
448,192,13904,1,0,0:0:0:0:
64,192,13904,128,0,14279:0:0:0:0:
320,192,14279,1,0,0:0:0:0:
448,192,14279,128,0,14372:0:0:0:0:
64,192,14466,1,0,0:0:0:0:
192,192,14466,1,0,0:0:0:0:
64,192,14654,1,0,0:0:0:0:
448,192,14654,1,0,0:0:0:0:
64,192,15029,1,0,0:0:0:0:
192,192,15029,128,0,15122:0:0:0:0:
192,192,15404,1,0,0:0:0:0:
448,192,15404,1,0,0:0:0:0:
448,192,15591,128,0,15685:0:0:0:0:
64,192,15591,1,0,0:0:0:0:
320,192,15779,1,0,0:0:0:0:
192,192,15779,128,0,15872:0:0:0:0:
448,192,16154,1,0,0:0:0:0:
320,192,16154,1,0,0:0:0:0:
448,192,16341,128,0,16435:0:0:0:0:
192,192,16341,1,0,0:0:0:0:
320,192,16529,1,0,0:0:0:0:
64,192,16529,128,0,16622:0:0:0:0:
448,192,16904,1,0,0:0:0:0:
64,192,16904,1,0,0:0:0:0:
320,192,17091,1,0,0:0:0:0:
448,192,17091,128,0,17185:0:0:0:0:
64,192,17279,1,0,0:0:0:0:
192,192,17279,128,0,17372:0:0:0:0:
448,192,17654,1,0,0:0:0:0:
192,192,17654,128,0,17935:0:0:0:0:
320,192,18029,1,0,0:0:0:0:
448,192,18029,128,0,18122:0:0:0:0:
320,192,18404,1,0,0:0:0:0:
64,192,18404,1,0,0:0:0:0:
64,192,18591,128,0,18685:0:0:0:0:
192,192,18591,1,0,0:0:0:0:
320,192,18779,1,0,0:0:0:0:
448,192,18779,128,0,18872:0:0:0:0:
192,192,18966,1,0,0:0:0:0:
64,192,19154,1,0,0:0:0:0:
448,192,19154,1,0,0:0:0:0:
448,192,19341,1,0,0:0:0:0:
320,192,19341,128,0,19435:0:0:0:0:
192,192,19529,1,0,0:0:0:0:
64,192,19529,128,0,19622:0:0:0:0:
448,192,19904,1,0,0:0:0:0:
64,192,19904,128,0,20279:0:0:0:0:
320,192,20279,1,0,0:0:0:0:
448,192,20279,128,0,20372:0:0:0:0:
64,192,20466,1,0,0:0:0:0:
192,192,20466,1,0,0:0:0:0:
448,192,20654,1,0,0:0:0:0:
64,192,20654,1,0,0:0:0:0:
448,192,21029,1,0,0:0:0:0:
320,192,21029,128,0,21122:0:0:0:0:
448,192,21404,1,0,0:0:0:0:
64,192,21404,1,0,0:0:0:0:
64,192,21591,128,0,21685:0:0:0:0:
192,192,21591,1,0,0:0:0:0:
448,192,21779,1,0,0:0:0:0:
320,192,21779,128,0,21872:0:0:0:0:
320,192,22154,1,0,0:0:0:0:
64,192,22154,1,0,0:0:0:0:
320,192,22341,128,0,22435:0:0:0:0:
448,192,22341,1,0,0:0:0:0:
192,192,22529,1,0,0:0:0:0:
64,192,22529,128,0,22622:0:0:0:0:
64,192,22904,1,0,0:0:0:0:
448,192,22904,128,0,23279:0:0:0:0:
192,192,23279,1,0,0:0:0:0:
64,192,23279,128,0,23372:0:0:0:0:
448,192,23466,1,0,0:0:0:0:
320,192,23466,1,0,0:0:0:0:
448,192,23654,1,0,0:0:0:0:
64,192,23654,1,0,0:0:0:0:
192,192,24029,128,0,24122:0:0:0:0:
448,192,24029,128,0,24122:0:0:0:0:
448,192,24404,1,0,0:0:0:0:
64,192,24404,1,0,0:0:0:0:
448,192,24591,128,0,24685:0:0:0:0:
320,192,24591,128,0,24685:0:0:0:0:
192,192,24779,128,0,24872:0:0:0:0:
64,192,24779,128,0,24872:0:0:0:0:
320,192,24966,1,0,0:0:0:0:
64,192,25154,1,0,0:0:0:0:
448,192,25154,1,0,0:0:0:0:
192,192,25341,128,0,25435:0:0:0:0:
448,192,25341,128,0,25435:0:0:0:0:
320,192,25529,128,0,25622:0:0:0:0:
64,192,25529,128,0,25622:0:0:0:0:
448,192,25904,128,0,26091:0:0:0:0:
64,192,25904,128,0,26279:0:0:0:0:
320,192,26279,128,0,26372:0:0:0:0:
448,192,26279,128,0,26372:0:0:0:0:
64,192,26466,1,0,0:0:0:0:
192,192,26466,1,0,0:0:0:0:
64,192,26654,1,0,0:0:0:0:
448,192,26654,1,0,0:0:0:0:
64,192,27029,128,0,27122:0:0:0:0:
192,192,27029,128,0,27122:0:0:0:0:
192,192,27404,1,0,0:0:0:0:
448,192,27404,1,0,0:0:0:0:
64,192,27591,128,0,27685:0:0:0:0:
448,192,27591,128,0,27685:0:0:0:0:
320,192,27779,128,0,27872:0:0:0:0:
192,192,27779,128,0,27872:0:0:0:0:
448,192,28154,1,0,0:0:0:0:
320,192,28154,1,0,0:0:0:0:
192,192,28341,128,0,28435:0:0:0:0:
448,192,28341,128,0,28435:0:0:0:0:
320,192,28529,128,0,28622:0:0:0:0:
64,192,28529,128,0,28622:0:0:0:0:
448,192,28904,1,0,0:0:0:0:
64,192,28904,1,0,0:0:0:0:
320,192,29091,128,0,29185:0:0:0:0:
448,192,29091,128,0,29185:0:0:0:0:
64,192,29279,128,0,29372:0:0:0:0:
192,192,29279,128,0,29372:0:0:0:0:
448,192,29654,128,0,29841:0:0:0:0:
192,192,29654,128,0,29935:0:0:0:0:
320,192,30029,128,0,30122:0:0:0:0:
448,192,30029,128,0,30122:0:0:0:0:
320,192,30404,1,0,0:0:0:0:
64,192,30404,1,0,0:0:0:0:
192,192,30591,128,0,30685:0:0:0:0:
64,192,30591,128,0,30685:0:0:0:0:
320,192,30779,128,0,30872:0:0:0:0:
448,192,30779,128,0,30872:0:0:0:0:
192,192,30966,1,0,0:0:0:0:
64,192,31154,1,0,0:0:0:0:
448,192,31154,1,0,0:0:0:0:
448,192,31341,128,0,31435:0:0:0:0:
320,192,31341,128,0,31435:0:0:0:0:
192,192,31529,128,0,31622:0:0:0:0:
64,192,31529,128,0,31622:0:0:0:0:
448,192,31904,128,0,32091:0:0:0:0:
64,192,31904,128,0,32279:0:0:0:0:
320,192,32279,128,0,32372:0:0:0:0:
448,192,32279,128,0,32372:0:0:0:0:
64,192,32466,1,0,0:0:0:0:
192,192,32466,1,0,0:0:0:0:
448,192,32654,1,0,0:0:0:0:
64,192,32654,1,0,0:0:0:0:
64,192,33029,1,0,0:0:0:0:
448,192,33029,128,0,33122:0:0:0:0:
320,192,33029,128,0,33122:0:0:0:0:
448,192,33404,1,0,0:0:0:0:
64,192,33404,1,0,0:0:0:0:
192,192,33591,128,0,33685:0:0:0:0:
64,192,33591,128,0,33685:0:0:0:0:
448,192,33779,128,0,33872:0:0:0:0:
320,192,33779,128,0,33872:0:0:0:0:
320,192,34154,1,0,0:0:0:0:
64,192,34154,1,0,0:0:0:0:
448,192,34341,128,0,34435:0:0:0:0:
320,192,34341,128,0,34435:0:0:0:0:
192,192,34529,128,0,34622:0:0:0:0:
64,192,34529,128,0,34622:0:0:0:0:
64,192,34904,128,0,35091:0:0:0:0:
448,192,34904,128,0,35279:0:0:0:0:
192,192,35279,128,0,35372:0:0:0:0:
64,192,35279,128,0,35372:0:0:0:0:
448,192,35466,1,0,0:0:0:0:
320,192,35466,1,0,0:0:0:0:
448,192,35654,1,0,0:0:0:0:
64,192,35654,1,0,0:0:0:0:
64,192,36029,128,0,36122:0:0:0:0:
192,192,36029,128,0,36122:0:0:0:0:
448,192,36404,1,0,0:0:0:0:
192,192,36404,1,0,0:0:0:0:
448,192,36591,128,0,36685:0:0:0:0:
320,192,36591,128,0,36685:0:0:0:0:
64,192,36779,128,0,36872:0:0:0:0:
192,192,36779,128,0,36872:0:0:0:0:
448,192,37154,1,0,0:0:0:0:
64,192,37154,1,0,0:0:0:0:
64,192,37341,128,0,37435:0:0:0:0:
320,192,37341,128,0,37435:0:0:0:0:
192,192,37529,128,0,37622:0:0:0:0:
448,192,37529,128,0,37622:0:0:0:0:
320,192,37904,1,0,0:0:0:0:
64,192,37904,128,0,38091:0:0:0:0:
448,192,37904,128,0,38279:0:0:0:0:
192,192,38279,128,0,38372:0:0:0:0:
64,192,38279,128,0,38372:0:0:0:0:
320,192,38466,128,0,38560:0:0:0:0:
192,192,38654,128,0,38747:0:0:0:0:
448,192,38841,128,0,38935:0:0:0:0:
192,192,39029,1,0,0:0:0:0:
320,192,39029,128,0,39685:0:0:0:0:
64,192,39029,128,0,39122:0:0:0:0:
64,192,39216,128,0,39310:0:0:0:0:
64,192,39404,128,0,39497:0:0:0:0:
448,192,39591,128,0,39685:0:0:0:0:
64,192,39591,128,0,39685:0:0:0:0:
192,192,39779,128,0,40435:0:0:0:0:
320,192,39779,128,0,39872:0:0:0:0:
320,192,39966,128,0,40060:0:0:0:0:
320,192,40154,128,0,40247:0:0:0:0:
320,192,40341,128,0,40435:0:0:0:0:
448,192,40529,128,0,41185:0:0:0:0:
192,192,40529,128,0,40622:0:0:0:0:
192,192,40716,128,0,40810:0:0:0:0:
192,192,40904,128,0,40997:0:0:0:0:
320,192,41091,128,0,41185:0:0:0:0:
192,192,41091,128,0,41185:0:0:0:0:
64,192,41279,128,0,41935:0:0:0:0:
448,192,41279,128,0,41372:0:0:0:0:
448,192,41466,128,0,41560:0:0:0:0:
320,192,41654,128,0,41747:0:0:0:0:
448,192,41654,128,0,41747:0:0:0:0:
320,192,41841,128,0,41935:0:0:0:0:
448,192,41841,128,0,41935:0:0:0:0:
320,192,42029,128,0,42216:0:0:0:0:
192,192,42029,128,0,42310:0:0:0:0:
64,192,42029,128,0,42310:0:0:0:0:
448,192,42404,1,0,0:0:0:0:
64,192,42404,1,0,0:0:0:0:
192,192,42497,1,0,0:0:0:0:
448,192,42591,1,0,0:0:0:0:
192,192,42685,1,0,0:0:0:0:
64,192,42779,128,0,42966:0:0:0:0:
320,192,42779,128,0,43060:0:0:0:0:
448,192,42779,128,0,43060:0:0:0:0:
448,192,43154,1,0,0:0:0:0:
64,192,43154,1,0,0:0:0:0:
320,192,43247,1,0,0:0:0:0:
64,192,43341,1,0,0:0:0:0:
320,192,43435,1,0,0:0:0:0:
448,192,43529,128,0,43716:0:0:0:0:
192,192,43529,128,0,43810:0:0:0:0:
64,192,43529,128,0,43810:0:0:0:0:
64,192,43904,1,0,0:0:0:0:
320,192,43904,1,0,0:0:0:0:
448,192,43997,1,0,0:0:0:0:
64,192,44091,1,0,0:0:0:0:
448,192,44185,1,0,0:0:0:0:
320,192,44279,128,0,44466:0:0:0:0:
192,192,44279,128,0,44560:0:0:0:0:
64,192,44279,128,0,44560:0:0:0:0:
192,192,44654,128,0,44841:0:0:0:0:
320,192,44654,128,0,44935:0:0:0:0:
448,192,44654,128,0,44935:0:0:0:0:
320,192,45029,128,0,45122:0:0:0:0:
192,192,45029,128,0,45685:0:0:0:0:
64,192,45029,1,0,0:0:0:0:
320,192,45216,128,0,45310:0:0:0:0:
320,192,45404,128,0,45497:0:0:0:0:
64,192,45591,128,0,45685:0:0:0:0:
320,192,45591,128,0,45685:0:0:0:0:
64,192,45779,128,0,45872:0:0:0:0:
448,192,45779,128,0,46435:0:0:0:0:
192,192,45872,128,0,45966:0:0:0:0:
64,192,45966,128,0,46060:0:0:0:0:
320,192,46060,128,0,46154:0:0:0:0:
64,192,46154,128,0,46247:0:0:0:0:
192,192,46247,128,0,46341:0:0:0:0:
64,192,46341,128,0,46435:0:0:0:0:
320,192,46435,128,0,46622:0:0:0:0:
192,192,46529,128,0,47185:0:0:0:0:
448,192,46529,128,0,46622:0:0:0:0:
64,192,46622,128,0,46810:0:0:0:0:
448,192,46716,128,0,46810:0:0:0:0:
320,192,46810,128,0,46997:0:0:0:0:
448,192,46904,128,0,46997:0:0:0:0:
64,192,46997,128,0,47185:0:0:0:0:
448,192,47091,128,0,47185:0:0:0:0:
320,192,47185,128,0,47372:0:0:0:0:
448,192,47279,128,0,47935:0:0:0:0:
64,192,47279,128,0,47372:0:0:0:0:
192,192,47372,128,0,47466:0:0:0:0:
64,192,47466,128,0,47560:0:0:0:0:
320,192,47560,128,0,47654:0:0:0:0:
64,192,47654,128,0,47747:0:0:0:0:
192,192,47747,128,0,47841:0:0:0:0:
64,192,47841,128,0,47935:0:0:0:0:
448,192,48029,128,0,48310:0:0:0:0:
192,192,48029,128,0,48216:0:0:0:0:
320,192,48029,128,0,48310:0:0:0:0:
64,192,48404,1,0,0:0:0:0:
192,192,48404,1,0,0:0:0:0:
320,192,48591,128,0,48779:0:0:0:0:
192,192,48591,128,0,48872:0:0:0:0:
64,192,48591,128,0,48872:0:0:0:0:
448,192,48966,1,0,0:0:0:0:
320,192,48966,1,0,0:0:0:0:
192,192,49154,1,0,0:0:0:0:
448,192,49154,1,0,0:0:0:0:
448,192,49341,128,0,49622:0:0:0:0:
320,192,49341,128,0,49622:0:0:0:0:
64,192,49341,128,0,49529:0:0:0:0:
64,192,49716,1,0,0:0:0:0:
192,192,49716,1,0,0:0:0:0:
320,192,49904,1,0,0:0:0:0:
64,192,49904,1,0,0:0:0:0:
448,192,50091,128,0,50279:0:0:0:0:
192,192,50091,128,0,50372:0:0:0:0:
64,192,50091,128,0,50372:0:0:0:0:
448,192,50466,1,0,0:0:0:0:
320,192,50466,1,0,0:0:0:0:
64,192,50654,1,0,0:0:0:0:
448,192,50654,1,0,0:0:0:0:
192,192,50841,1,0,0:0:0:0:
320,192,51029,128,0,51122:0:0:0:0:
64,192,51029,128,0,51122:0:0:0:0:
448,192,51029,128,0,51122:0:0:0:0:
192,192,51216,128,0,51310:0:0:0:0:
448,192,51216,128,0,51310:0:0:0:0:
320,192,51216,128,0,51310:0:0:0:0:
320,192,51404,128,0,51497:0:0:0:0:
448,192,51404,128,0,51497:0:0:0:0:
64,192,51404,128,0,51497:0:0:0:0:
192,192,51591,128,0,51685:0:0:0:0:
448,192,51591,128,0,51685:0:0:0:0:
64,192,51591,128,0,51685:0:0:0:0:
320,192,51779,128,0,51872:0:0:0:0:
64,192,51779,128,0,51872:0:0:0:0:
192,192,51779,128,0,51872:0:0:0:0:
64,192,51966,128,0,52060:0:0:0:0:
192,192,52154,128,0,52247:0:0:0:0:
448,192,52341,128,0,52435:0:0:0:0:
320,192,52529,128,0,52716:0:0:0:0:
192,192,52529,128,0,52904:0:0:0:0:
64,192,52529,128,0,53091:0:0:0:0:
320,192,52904,128,0,53091:0:0:0:0:
448,192,52904,128,0,53091:0:0:0:0:
192,192,53091,1,0,0:0:0:0:
320,192,53279,128,0,53466:0:0:0:0:
192,192,53279,128,0,53841:0:0:0:0:
64,192,53466,1,0,0:0:0:0:
320,192,53654,128,0,53841:0:0:0:0:
448,192,53654,128,0,53841:0:0:0:0:
64,192,53841,1,0,0:0:0:0:
192,192,54029,128,0,54216:0:0:0:0:
64,192,54029,128,0,54591:0:0:0:0:
320,192,54216,1,0,0:0:0:0:
448,192,54404,128,0,54591:0:0:0:0:
192,192,54404,128,0,54591:0:0:0:0:
320,192,54591,1,0,0:0:0:0:
320,192,54779,128,0,55154:0:0:0:0:
64,192,54779,128,0,55247:0:0:0:0:
448,192,54966,128,0,55060:0:0:0:0:
192,192,55154,128,0,55435:0:0:0:0:
448,192,55154,128,0,55435:0:0:0:0:
64,192,55341,128,0,55435:0:0:0:0:
64,192,55529,128,0,56091:0:0:0:0:
192,192,55529,128,0,55716:0:0:0:0:
192,192,55904,128,0,56466:0:0:0:0:
448,192,55904,128,0,56091:0:0:0:0:
320,192,56091,1,0,0:0:0:0:
64,192,56279,128,0,56466:0:0:0:0:
320,192,56279,128,0,56841:0:0:0:0:
448,192,56466,1,0,0:0:0:0:
448,192,56654,128,0,57216:0:0:0:0:
192,192,56654,128,0,56841:0:0:0:0:
64,192,56841,1,0,0:0:0:0:
320,192,57029,128,0,57216:0:0:0:0:
64,192,57029,128,0,57779:0:0:0:0:
192,192,57216,1,0,0:0:0:0:
320,192,57404,128,0,57779:0:0:0:0:
192,192,57404,128,0,57591:0:0:0:0:
448,192,57591,1,0,0:0:0:0:
192,192,57779,128,0,57966:0:0:0:0:
448,192,57779,128,0,58529:0:0:0:0:
320,192,57966,1,0,0:0:0:0:
64,192,58154,128,0,58341:0:0:0:0:
320,192,58154,128,0,58529:0:0:0:0:
192,192,58341,1,0,0:0:0:0:
64,192,58529,1,0,0:0:0:0:
192,192,58529,128,0,59279:0:0:0:0:
64,192,58904,128,0,59279:0:0:0:0:
448,192,58904,1,0,0:0:0:0:
320,192,59091,1,0,0:0:0:0:
448,192,59279,128,0,59654:0:0:0:0:
320,192,59279,128,0,59841:0:0:0:0:
64,192,59466,1,0,0:0:0:0:
64,192,59654,128,0,60029:0:0:0:0:
192,192,59654,1,0,0:0:0:0:
448,192,59841,128,0,60591:0:0:0:0:
320,192,60029,1,0,0:0:0:0:
192,192,60029,128,0,60216:0:0:0:0:
320,192,60216,128,0,60779:0:0:0:0:
192,192,60404,1,0,0:0:0:0:
64,192,60404,128,0,60591:0:0:0:0:
192,192,60591,128,0,61154:0:0:0:0:
64,192,60779,1,0,0:0:0:0:
448,192,60779,128,0,60966:0:0:0:0:
64,192,60966,128,0,61435:0:0:0:0:
320,192,61154,128,0,61341:0:0:0:0:
448,192,61154,128,0,61435:0:0:0:0:
192,192,61341,128,0,61435:0:0:0:0:
448,192,61529,1,0,0:0:0:0:
320,192,61529,1,0,0:0:0:0:
64,192,61529,1,0,0:0:0:0:
448,192,61716,1,0,0:0:0:0:
64,192,61716,1,0,0:0:0:0:
192,192,61716,1,0,0:0:0:0:
448,192,61904,1,0,0:0:0:0:
320,192,61904,1,0,0:0:0:0:
192,192,61904,1,0,0:0:0:0:
320,192,62091,1,0,0:0:0:0:
64,192,62091,1,0,0:0:0:0:
192,192,62091,1,0,0:0:0:0:
448,192,62279,1,0,0:0:0:0:
64,192,62279,1,0,0:0:0:0:
320,192,62279,1,0,0:0:0:0:
448,192,62466,1,0,0:0:0:0:
320,192,62466,1,0,0:0:0:0:
64,192,62466,1,0,0:0:0:0:
448,192,62654,1,0,0:0:0:0:
64,192,62654,1,0,0:0:0:0:
192,192,62654,1,0,0:0:0:0:
64,192,62841,1,0,0:0:0:0:
192,192,62841,1,0,0:0:0:0:
448,192,62841,1,0,0:0:0:0:
448,192,63029,128,0,63122:0:0:0:0:
320,192,63029,128,0,63122:0:0:0:0:
192,192,63029,128,0,63122:0:0:0:0:
448,192,63404,128,0,63779:0:0:0:0:
320,192,63404,128,0,63685:0:0:0:0:
192,192,63404,128,0,63591:0:0:0:0:
64,192,63779,1,0,0:0:0:0:
192,192,63779,1,0,0:0:0:0:
320,192,63872,1,0,0:0:0:0:
192,192,63966,1,0,0:0:0:0:
448,192,64060,1,0,0:0:0:0:
64,192,64154,1,0,0:0:0:0:
320,192,64154,1,0,0:0:0:0:
448,192,64341,1,0,0:0:0:0:
64,192,64341,1,0,0:0:0:0:
192,192,64529,128,0,64716:0:0:0:0:
320,192,64529,128,0,64904:0:0:0:0:
448,192,64529,128,0,65091:0:0:0:0:
192,192,64904,128,0,65091:0:0:0:0:
64,192,64904,128,0,65466:0:0:0:0:
320,192,65091,1,0,0:0:0:0:
192,192,65279,128,0,65466:0:0:0:0:
320,192,65279,128,0,65841:0:0:0:0:
448,192,65466,1,0,0:0:0:0:
64,192,65654,128,0,65841:0:0:0:0:
192,192,65654,128,0,66216:0:0:0:0:
448,192,65841,1,0,0:0:0:0:
320,192,66029,128,0,66216:0:0:0:0:
448,192,66029,128,0,66591:0:0:0:0:
64,192,66216,1,0,0:0:0:0:
64,192,66404,128,0,66779:0:0:0:0:
320,192,66404,128,0,66591:0:0:0:0:
192,192,66591,1,0,0:0:0:0:
192,192,66779,128,0,67154:0:0:0:0:
448,192,66779,128,0,67247:0:0:0:0:
64,192,66966,128,0,67060:0:0:0:0:
320,192,67154,128,0,67435:0:0:0:0:
64,192,67154,128,0,67435:0:0:0:0:
448,192,67341,128,0,67435:0:0:0:0:
448,192,67529,128,0,67716:0:0:0:0:
320,192,67529,128,0,67716:0:0:0:0:
320,192,67904,128,0,68466:0:0:0:0:
64,192,67904,128,0,68091:0:0:0:0:
192,192,68091,1,0,0:0:0:0:
64,192,68279,128,0,68466:0:0:0:0:
192,192,68279,128,0,68466:0:0:0:0:
448,192,68466,1,0,0:0:0:0:
64,192,68654,128,0,69216:0:0:0:0:
320,192,68654,128,0,68841:0:0:0:0:
448,192,68841,1,0,0:0:0:0:
320,192,69029,128,0,69216:0:0:0:0:
448,192,69029,128,0,69216:0:0:0:0:
192,192,69216,1,0,0:0:0:0:
192,192,69404,128,0,69779:0:0:0:0:
320,192,69404,128,0,69779:0:0:0:0:
64,192,69591,1,0,0:0:0:0:
448,192,69779,128,0,70154:0:0:0:0:
64,192,69779,128,0,70529:0:0:0:0:
192,192,69966,1,0,0:0:0:0:
320,192,70154,128,0,70341:0:0:0:0:
192,192,70154,128,0,70529:0:0:0:0:
448,192,70341,1,0,0:0:0:0:
320,192,70529,128,0,70904:0:0:0:0:
448,192,70529,128,0,71279:0:0:0:0:
192,192,70904,1,0,0:0:0:0:
64,192,70904,128,0,71091:0:0:0:0:
320,192,71091,1,0,0:0:0:0:
64,192,71279,128,0,71466:0:0:0:0:
192,192,71279,128,0,71841:0:0:0:0:
448,192,71466,1,0,0:0:0:0:
448,192,71654,128,0,71841:0:0:0:0:
320,192,71654,1,0,0:0:0:0:
64,192,71841,128,0,72216:0:0:0:0:
192,192,72029,1,0,0:0:0:0:
320,192,72029,128,0,72216:0:0:0:0:
192,192,72216,128,0,72966:0:0:0:0:
320,192,72404,1,0,0:0:0:0:
448,192,72404,128,0,72591:0:0:0:0:
320,192,72591,128,0,73154:0:0:0:0:
448,192,72779,1,0,0:0:0:0:
64,192,72779,128,0,72966:0:0:0:0:
448,192,72966,128,0,73435:0:0:0:0:
192,192,73154,128,0,73341:0:0:0:0:
64,192,73154,128,0,73435:0:0:0:0:
320,192,73341,128,0,73435:0:0:0:0:
448,192,73529,128,0,73622:0:0:0:0:
192,192,73529,128,0,73622:0:0:0:0:
64,192,73529,128,0,73622:0:0:0:0:
64,192,73716,128,0,73810:0:0:0:0:
320,192,73716,128,0,73810:0:0:0:0:
448,192,73716,128,0,73810:0:0:0:0:
448,192,73904,128,0,73997:0:0:0:0:
320,192,73904,128,0,73997:0:0:0:0:
192,192,73904,128,0,73997:0:0:0:0:
320,192,74091,128,0,74185:0:0:0:0:
64,192,74091,128,0,74185:0:0:0:0:
192,192,74091,128,0,74185:0:0:0:0:
448,192,74279,128,0,74372:0:0:0:0:
192,192,74279,128,0,74372:0:0:0:0:
64,192,74279,128,0,74372:0:0:0:0:
64,192,74466,128,0,74560:0:0:0:0:
448,192,74466,128,0,74560:0:0:0:0:
320,192,74466,128,0,74560:0:0:0:0:
448,192,74654,128,0,74747:0:0:0:0:
320,192,74654,128,0,74747:0:0:0:0:
192,192,74654,128,0,74747:0:0:0:0:
192,192,74841,128,0,74935:0:0:0:0:
64,192,74841,128,0,74935:0:0:0:0:
320,192,74841,128,0,74935:0:0:0:0:
448,192,75029,128,0,75216:0:0:0:0:
64,192,75029,128,0,75216:0:0:0:0:
192,192,75029,128,0,75122:0:0:0:0:
64,192,75404,128,0,75779:0:0:0:0:
192,192,75404,128,0,75685:0:0:0:0:
320,192,75404,128,0,75591:0:0:0:0:
448,192,75779,1,0,0:0:0:0:
448,192,76060,1,0,0:0:0:0:
192,192,76154,1,0,0:0:0:0:
64,192,76341,1,0,0:0:0:0:
448,192,76529,128,0,76810:0:0:0:0:
320,192,76529,128,0,76622:0:0:0:0:
192,192,76529,128,0,76622:0:0:0:0:
64,192,76716,128,0,76810:0:0:0:0:
192,192,76716,128,0,76810:0:0:0:0:
320,192,76716,128,0,76997:0:0:0:0:
448,192,76904,128,0,76997:0:0:0:0:
64,192,76904,128,0,76997:0:0:0:0:
192,192,76904,128,0,77185:0:0:0:0:
448,192,77091,128,0,77185:0:0:0:0:
320,192,77091,128,0,77185:0:0:0:0:
64,192,77091,128,0,77372:0:0:0:0:
192,192,77279,128,0,77372:0:0:0:0:
320,192,77279,128,0,77372:0:0:0:0:
448,192,77279,128,0,77560:0:0:0:0:
64,192,77466,128,0,77560:0:0:0:0:
192,192,77466,128,0,77560:0:0:0:0:
320,192,77466,128,0,77747:0:0:0:0:
192,192,77654,128,0,77935:0:0:0:0:
64,192,77654,128,0,77747:0:0:0:0:
448,192,77654,128,0,77747:0:0:0:0:
448,192,77841,128,0,77935:0:0:0:0:
320,192,77841,128,0,77935:0:0:0:0:
64,192,77841,128,0,78029:0:0:0:0:
448,192,78029,128,0,78216:0:0:0:0:
320,192,78029,128,0,78122:0:0:0:0:
192,192,78029,128,0,78122:0:0:0:0:
448,192,78404,128,0,78779:0:0:0:0:
320,192,78404,128,0,78685:0:0:0:0:
192,192,78404,128,0,78591:0:0:0:0:
64,192,78779,1,0,0:0:0:0:
192,192,78904,1,0,0:0:0:0:
320,192,79029,1,0,0:0:0:0:
64,192,79154,1,0,0:0:0:0:
320,192,79341,1,0,0:0:0:0:
64,192,79529,128,0,79622:0:0:0:0:
448,192,79529,128,0,79622:0:0:0:0:
192,192,79529,1,0,0:0:0:0:
320,192,79904,1,0,0:0:0:0:
448,192,80091,128,0,80185:0:0:0:0:
64,192,80091,128,0,80185:0:0:0:0:
192,192,80091,1,0,0:0:0:0:
192,192,80279,128,0,80372:0:0:0:0:
320,192,80279,128,0,80372:0:0:0:0:
448,192,80279,1,0,0:0:0:0:
192,192,80654,128,0,80747:0:0:0:0:
64,192,80654,128,0,80747:0:0:0:0:
320,192,80654,1,0,0:0:0:0:
448,192,80841,1,0,0:0:0:0:
320,192,80841,1,0,0:0:0:0:
192,192,81029,1,0,0:0:0:0:
320,192,81216,1,0,0:0:0:0:
448,192,81216,1,0,0:0:0:0:
448,192,81404,128,0,81497:0:0:0:0:
320,192,81404,1,0,0:0:0:0:
64,192,81404,128,0,81497:0:0:0:0:
64,192,81591,1,0,0:0:0:0:
192,192,81591,1,0,0:0:0:0:
64,192,81779,128,0,81872:0:0:0:0:
448,192,81779,128,0,81872:0:0:0:0:
320,192,81779,1,0,0:0:0:0:
192,192,82154,1,0,0:0:0:0:
320,192,82341,1,0,0:0:0:0:
448,192,82529,128,0,82622:0:0:0:0:
64,192,82529,128,0,82622:0:0:0:0:
192,192,82529,1,0,0:0:0:0:
320,192,82716,1,0,0:0:0:0:
64,192,82716,1,0,0:0:0:0:
320,192,82904,1,0,0:0:0:0:
448,192,83091,128,0,83185:0:0:0:0:
64,192,83091,128,0,83185:0:0:0:0:
192,192,83091,1,0,0:0:0:0:
192,192,83279,128,0,83372:0:0:0:0:
320,192,83279,128,0,83372:0:0:0:0:
448,192,83279,1,0,0:0:0:0:
192,192,83654,128,0,83747:0:0:0:0:
64,192,83654,128,0,83747:0:0:0:0:
320,192,83654,1,0,0:0:0:0:
320,192,83841,1,0,0:0:0:0:
448,192,83841,1,0,0:0:0:0:
192,192,84029,1,0,0:0:0:0:
320,192,84216,1,0,0:0:0:0:
448,192,84216,1,0,0:0:0:0:
448,192,84404,128,0,84497:0:0:0:0:
64,192,84404,128,0,84497:0:0:0:0:
320,192,84404,1,0,0:0:0:0:
64,192,84591,1,0,0:0:0:0:
192,192,84591,1,0,0:0:0:0:
64,192,84779,128,0,84872:0:0:0:0:
448,192,84779,128,0,84872:0:0:0:0:
320,192,84779,1,0,0:0:0:0:
320,192,85154,1,0,0:0:0:0:
192,192,85341,1,0,0:0:0:0:
64,192,85529,128,0,85622:0:0:0:0:
448,192,85529,128,0,85622:0:0:0:0:
320,192,85529,1,0,0:0:0:0:
192,192,85716,1,0,0:0:0:0:
448,192,85716,1,0,0:0:0:0:
192,192,85904,1,0,0:0:0:0:
64,192,86091,128,0,86185:0:0:0:0:
448,192,86091,128,0,86185:0:0:0:0:
320,192,86091,1,0,0:0:0:0:
320,192,86279,128,0,86372:0:0:0:0:
192,192,86279,128,0,86372:0:0:0:0:
64,192,86279,1,0,0:0:0:0:
448,192,86654,128,0,86747:0:0:0:0:
320,192,86654,128,0,86747:0:0:0:0:
192,192,86654,1,0,0:0:0:0:
64,192,86841,1,0,0:0:0:0:
192,192,86841,1,0,0:0:0:0:
320,192,87029,1,0,0:0:0:0:
64,192,87216,1,0,0:0:0:0:
192,192,87216,1,0,0:0:0:0:
64,192,87404,128,0,87497:0:0:0:0:
448,192,87404,128,0,87497:0:0:0:0:
192,192,87404,1,0,0:0:0:0:
448,192,87591,1,0,0:0:0:0:
320,192,87591,1,0,0:0:0:0:
448,192,87779,128,0,87872:0:0:0:0:
64,192,87779,128,0,87872:0:0:0:0:
192,192,87779,1,0,0:0:0:0:
320,192,87966,1,0,0:0:0:0:
64,192,88154,128,0,88622:0:0:0:0:
448,192,88154,1,0,0:0:0:0:
192,192,88529,128,0,88622:0:0:0:0:
320,192,88529,128,0,88622:0:0:0:0:
448,192,88529,128,0,88622:0:0:0:0:
64,192,88716,1,0,0:0:0:0:
448,192,88716,1,0,0:0:0:0:
64,192,88904,1,0,0:0:0:0:
192,192,89091,128,0,89185:0:0:0:0:
320,192,89091,128,0,89185:0:0:0:0:
448,192,89091,128,0,89185:0:0:0:0:
64,192,89279,128,0,89372:0:0:0:0:
192,192,89279,128,0,89372:0:0:0:0:
320,192,89279,128,0,89372:0:0:0:0:
448,192,89466,1,0,0:0:0:0:
192,192,89654,128,0,89747:0:0:0:0:
64,192,89654,128,0,89747:0:0:0:0:
448,192,89654,128,0,89747:0:0:0:0:
320,192,89841,1,0,0:0:0:0:
448,192,90029,128,0,90310:0:0:0:0:
192,192,90029,128,0,90310:0:0:0:0:
64,192,90029,128,0,90310:0:0:0:0:
320,192,90029,128,0,90310:0:0:0:0:
