osu file format v14

[General]
AudioFilename: audio.mp3
AudioLeadIn: 0
PreviewTime: 58572
Countdown: 0
SampleSet: Soft
StackLeniency: 0.7
Mode: 2
LetterboxInBreaks: 0
WidescreenStoryboard: 1

[Editor]
DistanceSpacing: 1.1
BeatDivisor: 6
GridSize: 4
TimelineZoom: 1.5

[Metadata]
Title:Comedy (TV Size)
TitleUnicode:喜劇 (TV Size)
Artist:Hoshino Gen
ArtistUnicode:星野源
Creator:4rcheR-
Version:Platter
Source:SPY×FAMILY
Tags:archer [ Azu- ] Verti ZiRoX anime japanese j-pop jpop pop kigeki male vocals vocal スパイファミリー Supaifamiri spy x family spyxfamily ending ed Loid Forger ロイド・フォージャー ヨル・フォージャー Yor アーニャ・フォージャー Anya
BeatmapID:3581357
BeatmapSetID:1750544

[Difficulty]
HPDrainRate:4
CircleSize:3
OverallDifficulty:8
ApproachRate:8
SliderMultiplier:3.2
SliderTickRate:1

[Events]
//Background and Video events
Video,0,"spyfamilykigeki.mp4"
0,0,"bg.jpg",0,0
//Break Periods
//Storyboard Layer 0 (Background)
//Storyboard Layer 1 (Fail)
//Storyboard Layer 2 (Pass)
//Storyboard Layer 3 (Foreground)
//Storyboard Layer 4 (Overlay)
//Storyboard Sound Samples

[TimingPoints]
618,681.818181818182,4,2,22,50,1,0
2663,-100,4,2,22,45,0,0
3345,-100,4,2,22,40,0,0
46981,-100,4,2,22,30,0,0
49708,-100,4,2,22,50,0,0
55163,-100,4,2,22,60,0,0
59254,681.818181818182,4,2,22,70,1,1
66754,-100,4,2,22,50,0,1
66810,-100,4,2,22,70,0,1
81072,-100,4,2,22,60,0,0
85163,697.674418604651,4,2,22,55,1,0
85628,-100,4,2,22,50,0,0
86093,-100,4,2,22,45,0,0
86558,-100,4,2,22,40,0,0
87256,-100,4,2,22,35,0,0
87953,-100,4,2,22,30,0,0
88651,-100,4,2,22,25,0,0
89349,-100,4,2,22,20,0,0

[Colours]
Combo1 : 164,202,11
Combo2 : 208,190,60
Combo3 : 255,55,55
Combo4 : 255,62,255

[HitObjects]
392,192,618,5,14,0:3:0:0:
136,192,1299,1,14,0:3:0:0:
392,188,1981,1,14,0:3:0:0:
136,196,2663,2,0,L|10:197,1,106.666666666667,2|2,3:0|0:0,0:0:0:0:
28,196,3004,1,2,0:0:0:0:
444,196,3345,6,0,L|456:16,1,160,2|2,1:2|0:0,0:0:0:0:
180,40,4027,2,0,L|328:76,1,106.666666666667,10|2,0:0|0:0,0:0:0:0:
283,65,4368,2,0,L|172:96,1,106.666666666667,2|2,0:0|0:0,0:0:0:0:
292,104,4708,2,0,P|344:156|272:192,1,160,2|2,1:2|1:2,0:0:0:0:
132,196,5390,2,0,P|80:240|156:296,1,160,10|2,0:0|0:0,0:0:0:0:
400,324,6072,6,0,P|448:276|376:224,1,160,2|2,1:2|0:0,0:0:0:0:
236,208,6754,2,0,L|416:156,1,160,10|2,0:0|0:0,0:0:0:0:
116,164,7436,2,0,P|64:120|128:60,1,160,2|10,1:2|1:0,0:0:0:0:
380,56,8118,2,0,L|508:56,1,106.666666666667,10|0,0:0|1:0,0:0:0:0:
428,56,8458,1,0,0:0:0:0:
20,36,8799,6,0,L|20:208,1,160,2|2,1:2|0:0,0:0:0:0:
179,39,9481,2,0,L|20:36,1,160,10|2,1:2|0:0,0:0:0:0:
292,40,10163,2,0,P|312:92|212:148,1,160,2|2,1:2|0:0,0:0:0:0:
136,152,10731,1,0,1:0:0:0:
24,160,10845,2,0,L|24:336,1,160,10|2,0:0|0:0,0:0:0:0:
296,340,11527,6,0,P|368:332|452:128,1,320,2|8,1:2|0:0,0:0:0:0:
292,152,12549,1,0,0:0:0:0:
20,152,12890,2,0,P|56:104|188:64,1,160,2|2,1:2|0:0,0:0:0:0:
304,60,13572,2,0,L|424:60,1,106.666666666667,10|2,0:0|1:2,0:0:0:0:
466,60,13913,1,0,0:0:0:0:
56,116,14254,6,0,L|44:308,1,160,2|0,1:2|0:0,0:0:0:0:
316,296,14936,2,0,P|360:248|316:168,1,160,10|0,0:0|0:0,0:0:0:0:
164,348,15618,2,0,P|132:276|196:216,1,160,2|0,1:2|1:0,0:0:0:0:
344,204,16299,2,0,L|460:160,2,106.666666666667,10|2|2,0:0|0:0|0:0,0:0:0:0:
152,204,16981,6,0,L|56:148,1,106.666666666667,2|2,1:2|0:0,0:0:0:0:
112,148,17322,1,0,0:0:0:0:
272,148,17663,2,0,P|340:172|284:232,1,160,10|0,0:0|0:0,0:0:0:0:
200,236,18231,1,0,1:0:0:0:
88,232,18345,2,0,P|40:188|108:124,1,160,2|2,1:2|0:0,0:0:0:0:
360,112,19027,2,0,P|428:124|488:196,1,160,10|2,0:0|0:0,0:0:0:0:
68,196,19708,6,0,P|24:148|100:84,1,160,2|2,1:2|0:0,0:0:0:0:
344,64,20390,2,0,L|448:40,2,106.666666666667,10|2|2,0:0|0:0|0:0,0:0:0:0:
236,76,21072,1,0,0:0:0:0:
392,104,21413,1,0,0:0:0:0:
120,112,21754,1,10,0:0:0:0:
392,136,22095,6,0,P|488:184|376:308,1,320,2|0,1:2|0:0,0:0:0:0:
224,316,23118,1,10,0:0:0:0:
492,276,23458,2,0,L|184:184,1,320,2|10,1:2|1:0,0:0:0:0:
344,168,24481,2,0,P|380:152|328:124,1,106.666666666667,10|2,0:0|1:2,0:0:0:0:
296,116,24822,2,0,P|260:80|304:40,1,106.666666666667,2|2,0:0|0:0,0:0:0:0:
400,32,25163,6,0,P|472:112|432:192,1,160,2|2,0:0|0:0,0:0:0:0:
308,224,25845,2,0,L|192:224,1,106.666666666667,2|2,0:0|0:0,0:0:0:0:
201,224,26186,2,0,L|328:224,1,106.666666666667,2|2,0:0|0:0,0:0:0:0:
196,224,26527,2,0,P|116:212|72:112,1,160,2|2,0:0|0:0,0:0:0:0:
344,152,27208,2,0,P|428:140|476:52,1,160,8|2,1:2|0:0,0:0:0:0:
52,88,27890,6,0,P|24:148|72:224,1,160,2|2,1:2|0:0,0:0:0:0:
228,204,28572,2,0,L|396:240,1,160,10|2,0:0|0:0,0:0:0:0:
192,284,29140,1,2,0:0:0:0:
140,284,29254,2,0,L|132:132,1,106.666666666667,0|0,1:0|0:0,0:0:0:0:
188,176,29595,2,0,L|304:128,1,106.666666666667,10|2,0:1|0:0,0:0:0:0:
176,140,29936,2,0,P|100:136|28:52,1,160,8|0,0:0|0:0,0:0:0:0:
456,56,30618,6,0,P|484:136|424:200,1,160,2|2,1:2|0:0,0:0:0:0:
172,164,31299,2,0,P|120:216|184:304,1,160,2|2,1:2|0:0,0:0:0:0:
304,292,31981,1,2,1:2:0:0:
144,284,32322,1,2,0:0:0:0:
416,300,32663,2,0,P|468:256|424:168,1,160,10|2,0:0|0:0,0:0:0:0:
172,200,33345,6,0,P|88:192|32:104,1,160,2|0,1:2|0:0,0:0:0:0:
200,156,34027,2,0,P|300:140|352:64,1,160,8|0,0:0|0:0,0:0:0:0:
68,72,34708,2,0,P|120:140|204:148,1,160,2|2,1:2|0:0,0:0:0:0:
348,168,35390,1,10,0:0:0:0:
456,168,35618,1,2,1:2:0:0:
456,168,35731,1,0,0:0:0:0:
40,180,36072,6,0,P|24:128|108:48,1,160,2|0,1:2|0:0,0:0:0:0:
356,60,36754,2,0,P|308:108|220:132,1,160,10|0,0:0|0:0,0:0:0:0:
396,136,37436,2,0,P|440:184|380:252,1,160,2|0,1:2|1:0,0:0:0:0:
232,264,38118,2,0,L|132:228,2,106.666666666667,10|2|2,0:0|0:0|0:0,0:0:0:0:
424,248,38799,6,0,P|460:192|416:144,1,106.666666666667,2|2,1:2|0:0,0:0:0:0:
392,152,39140,1,0,0:0:0:0:
232,160,39481,2,0,P|176:140|156:32,1,160,8|0,0:0|0:0,0:0:0:0:
256,52,40049,1,0,1:0:0:0:
368,52,40163,2,0,P|460:96|468:176,1,160,2|2,1:2|0:0,0:0:0:0:
200,156,40845,2,0,L|16:220,1,160,10|2,0:0|0:0,0:0:0:0:
464,224,41527,6,0,P|492:168|452:68,1,160,2|2,1:2|0:0,0:0:0:0:
192,104,42208,2,0,L|48:60,2,106.666666666667,10|2|2,0:0|0:0|0:0,0:0:0:0:
296,124,42890,1,0,0:0:0:0:
140,160,43231,1,0,0:0:0:0:
412,192,43572,1,10,0:0:0:0:
140,192,43913,6,0,P|64:184|160:52,1,320,2|0,1:2|0:0,0:0:0:0:
300,52,44936,1,10,0:0:0:0:
28,52,45277,2,0,L|336:156,1,320,2|10,1:2|0:1,0:0:0:0:
60,160,46299,2,0,P|36:224|84:320,1,160,10|2,0:0|0:0,0:0:0:0:
484,312,46981,5,2,0:0:0:0:
228,280,47663,1,2,0:0:0:0:
480,236,48345,1,2,0:0:0:0:
376,208,48572,1,2,0:0:0:0:
480,236,48799,1,2,0:0:0:0:
372,244,49027,1,2,0:0:0:0:
268,272,49254,1,2,0:0:0:0:
372,284,49481,1,2,0:0:0:0:
72,284,49708,6,0,P|28:244|100:160,1,160,2|0,1:2|0:0,0:0:0:0:
336,172,50390,2,0,P|296:116|200:92,1,160,10|0,0:0|0:0,0:0:0:0:
368,120,51072,2,0,L|480:88,2,106.666666666667,2|2|2,1:2|0:0|0:0,0:0:0:0:
176,116,51754,2,0,L|52:80,2,106.666666666667,10|2|2,0:0|0:0|0:0,0:0:0:0:
368,116,52436,6,0,P|412:144|352:224,1,160,2|0,1:2|0:0,0:0:0:0:
212,232,53118,2,0,P|136:228|80:152,1,160,8|2,0:0|0:0,0:0:0:0:
192,152,53686,1,2,1:2:0:0:
304,148,53799,2,0,P|364:200|312:288,1,160,2|2,1:2|1:2,0:0:0:0:
76,268,54481,2,0,P|36:224|60:124,1,160,10|2,0:0|0:0,0:0:0:0:
468,164,55163,6,0,P|492:120|420:48,1,160,0|0,1:0|0:0,0:0:0:0:
268,56,55845,2,0,L|88:36,1,160,2|0,1:2|0:0,0:0:0:0:
380,44,56527,2,0,P|432:104|392:184,1,160,2|2,1:2|0:0,0:0:0:0:
136,180,57208,2,0,P|80:200|24:300,1,160,10|2,0:0|0:0,0:0:0:0:
444,260,57890,6,0,L|440:144,1,106.666666666667,0|0,1:0|1:0,0:0:0:0:
288,156,58458,1,0,1:0:0:0:
176,152,58572,2,0,P|56:116|32:80,1,160,2|2,0:0|1:2,0:0:0:0:
472,104,59254,5,6,1:2:0:0:
472,104,59481,2,0,P|424:160|304:168,1,160,2|0,0:0|1:0,0:0:0:0:
232,184,59935,2,0,P|124:160|84:116,2,160,10|2|2,0:0|1:2|1:2,0:0:0:0:
408,164,60958,1,0,1:0:0:0:
120,176,61299,2,0,P|80:124|152:52,1,160,10|2,0:0|0:0,0:0:0:0:
328,68,61867,6,0,L|144:108,1,160,2|2,0:0|0:0,0:0:0:0:
348,112,62549,1,0,1:0:0:0:
408,116,62663,2,0,P|448:172|384:252,1,160,10|2,0:0|1:2,0:0:0:0:
236,220,63344,2,0,L|400:268,1,160,2|0,0:0|1:0,0:0:0:0:
100,284,64026,2,0,P|40:240|72:136,1,160,10|2,0:0|0:0,0:0:0:0:
356,184,64594,6,0,P|424:176|476:88,1,160,2|2,0:0|0:0,0:0:0:0:
300,128,65276,1,2,1:2:0:0:
184,132,65390,2,0,P|124:116|104:28,1,160,10|2,0:0|1:2,0:0:0:0:
284,68,66072,2,0,P|360:76|428:172,1,160,2|0,0:0|1:0,0:0:0:0:
132,172,66754,2,0,L|24:196,2,106.666666666667,6|2|2,1:0|1:2|0:0,0:0:0:0:
324,180,67435,6,0,P|440:128|316:64,1,320,2|2,1:2|1:2,0:0:0:0:
152,44,68458,1,0,0:0:0:0:
268,44,68685,1,0,1:0:0:0:
384,40,68799,2,0,P|420:116|364:168,1,160,2|2,1:2|0:0,0:0:0:0:
172,164,69367,2,0,L|8:168,1,160,2|2,1:2|1:2,0:0:0:0:
12,264,69822,1,0,0:0:0:0:
460,272,70163,5,6,1:2:0:0:
460,272,70390,2,0,L|292:216,1,160,2|0,0:0|1:0,0:0:0:0:
424,208,70844,2,0,P|432:268|340:332,1,160,10|2,0:0|1:2,0:0:0:0:
188,316,71526,2,0,L|364:340,1,160,2|0,0:0|1:0,0:0:0:0:
56,328,72208,2,0,L|52:216,1,106.666666666667,10|2,0:0|0:0,0:0:0:0:
112,224,72549,1,2,0:0:0:0:
316,220,72776,6,0,L|140:208,1,160,2|2,0:0|0:0,0:0:0:0:
332,84,73458,1,2,1:2:0:0:
448,80,73572,2,0,P|464:136|392:196,1,160,10|2,0:0|1:2,0:0:0:0:
216,196,74254,2,0,P|136:208|68:276,1,160,2|0,0:0|1:0,0:0:0:0:
364,280,74935,1,10,0:0:0:0:
480,272,75163,1,2,0:0:0:0:
480,272,75276,1,2,0:0:0:0:
172,228,75504,6,0,P|120:184|188:120,1,160,2|2,0:0|0:0,0:0:0:0:
340,104,76185,1,0,1:0:0:0:
456,100,76299,2,0,P|488:160|420:228,1,160,10|2,0:0|1:2,0:0:0:0:
260,212,76981,2,0,L|424:248,1,160,2|0,0:0|1:0,0:0:0:0:
128,252,77663,2,0,L|8:280,2,106.666666666667,10|2|2,0:0|1:2|0:0,0:0:0:0:
320,264,78344,6,0,P|424:184|304:104,1,320,2|2,1:2|1:2,0:0:0:0:
128,104,79367,1,0,0:0:0:0:
416,96,79708,2,0,P|472:152|396:208,1,160,2|2,1:2|0:0,0:0:0:0:
316,212,80276,1,0,1:0:0:0:
200,208,80390,1,10,0:0:0:0:
32,160,80731,1,2,0:0:0:0:
480,148,81072,6,0,P|480:280|284:336,1,320,6|10,1:2|0:0,0:0:0:0:
164,312,82094,1,2,1:0:0:0:
272,268,82322,1,2,0:0:0:0:
380,224,82549,1,2,0:0:0:0:
212,176,82890,1,2,0:0:0:0:
20,188,83117,2,0,P|8:108|20:24,1,160,8|2,0:0|1:2,0:0:0:0:
308,36,83799,6,0,P|372:84|280:160,1,213.333333333333,2|2,1:2|0:0,0:0:0:0:
244,168,84367,1,0,1:0:0:0:
301,166,84481,1,0,1:0:0:0:
420,168,84708,1,0,1:0:0:0:
124,128,85163,6,0,P|116:224|256:260,1,213.333333333333,2|2,0:0|0:0,0:0:0:0:
460,260,86093,1,2,0:0:0:0:
76,248,86558,5,6,0:0:0:0:
256,192,86907,12,0,89349,0:0:0:0:
