osu file format v14

[General]
AudioFilename: audio.mp3
AudioLeadIn: 0
PreviewTime: 58572
Countdown: 0
SampleSet: Soft
StackLeniency: 0.7
Mode: 2
LetterboxInBreaks: 0
WidescreenStoryboard: 1

[Editor]
Bookmarks: 3345,14254
DistanceSpacing: 1.5
BeatDivisor: 6
GridSize: 8
TimelineZoom: 1.5

[Metadata]
Title:Comedy (TV Size)
TitleUnicode:喜劇 (TV Size)
Artist:Hoshino Gen
ArtistUnicode:星野源
Creator:4rcheR-
Version:Operation ZiRoX
Source:SPY×FAMILY
Tags:archer [ Azu- ] Verti ZiRoX anime japanese j-pop jpop pop kigeki male vocals vocal スパイファミリー Supaifamiri spy x family spyxfamily ending ed Loid Forger ロイド・フォージャー ヨル・フォージャー Yor アーニャ・フォージャー Anya
BeatmapID:3592565
BeatmapSetID:1750544

[Difficulty]
HPDrainRate:5
CircleSize:4
OverallDifficulty:8.3
ApproachRate:8.3
SliderMultiplier:3.2
SliderTickRate:1

[Events]
//Background and Video events
Video,0,"spyfamilykigeki.mp4"
0,0,"bg.jpg",0,0
//Break Periods
//Storyboard Layer 0 (Background)
//Storyboard Layer 1 (Fail)
//Storyboard Layer 2 (Pass)
//Storyboard Layer 3 (Foreground)
//Storyboard Layer 4 (Overlay)
//Storyboard Sound Samples

[TimingPoints]
618,681.818181818182,4,2,22,50,1,0
2663,-100,4,2,22,45,0,0
3345,-100,4,2,22,40,0,0
46981,-100,4,2,22,30,0,0
49708,-100,4,2,22,50,0,0
55163,-100,4,2,22,60,0,0
59254,681.818181818182,4,2,22,70,1,1
66754,-100,4,2,22,50,0,1
66810,-100,4,2,22,70,0,1
81072,-100,4,2,22,60,0,0
85163,697.674418604651,4,2,22,55,1,0
85628,-100,4,2,22,50,0,0
86093,-100,4,2,22,45,0,0
86558,-100,4,2,22,40,0,0
87256,-100,4,2,22,35,0,0
87953,-100,4,2,22,30,0,0
88651,-100,4,2,22,25,0,0
89349,-100,4,2,22,20,0,0

[Colours]
Combo1 : 164,202,11
Combo2 : 208,190,60
Combo3 : 255,55,55
Combo4 : 255,62,255

[HitObjects]
400,192,618,5,14,0:3:0:0:
112,192,1299,1,14,0:3:0:0:
400,192,1981,1,14,0:3:0:0:
192,200,2549,1,2,0:0:0:0:
140,200,2663,1,2,3:0:0:0:
140,148,2890,1,2,0:0:0:0:
272,200,3004,1,2,0:0:0:0:
272,144,3231,1,2,0:0:0:0:
80,192,3345,6,0,L|80:16,1,160,2|2,1:2|0:0,0:0:0:0:
320,40,4027,2,0,L|320:152,1,106.666666666667,10|2,0:0|0:0,0:0:0:0:
192,144,4368,2,0,L|192:256,1,106.666666666667,2|2,0:0|0:0,0:0:0:0:
392,256,4708,2,0,L|392:96,1,160,2|2,1:2|1:2,0:0:0:0:
168,256,5390,2,0,L|336:256,1,160,10|2,0:0|0:0,0:0:0:0:
56,128,6072,6,0,L|56:288,1,160,2|2,1:2|0:0,0:0:0:0:
280,128,6754,2,0,L|112:128,1,160,10|2,0:0|0:0,0:0:0:0:
248,128,7322,1,0,0:0:0:0:
424,144,7436,2,0,L|424:16,1,106.666666666667,2|0,1:2|0:0,0:0:0:0:
368,48,7777,2,0,L|192:48,1,160,10|10,1:0|0:0,0:0:0:0:
376,48,8345,1,0,1:0:0:0:
430,49,8458,1,0,0:0:0:0:
32,160,8799,6,0,L|32:328,1,160,2|2,1:2|0:0,0:0:0:0:
288,160,9481,2,0,L|125:160,1,160,10|2,1:2|0:0,0:0:0:0:
240,160,10049,1,0,1:0:0:0:
416,160,10163,2,0,L|416:320,1,160,2|2,1:2|0:0,0:0:0:0:
320,320,10731,1,0,1:0:0:0:
144,320,10845,2,0,L|144:160,1,160,10|2,0:0|0:0,0:0:0:0:
416,184,11527,6,0,L|91:183,1,320,2|8,1:2|0:0,0:0:0:0:
392,184,12890,2,0,L|392:352,1,160,2|2,1:2|0:0,0:0:0:0:
232,328,13458,1,0,1:0:0:0:
120,328,13572,2,0,L|120:216,1,106.666666666667,10|2,0:0|1:2,0:0:0:0:
312,224,13913,1,0,0:0:0:0:
56,168,14254,6,0,L|224:168,1,160,2|0,1:2|0:0,0:0:0:0:
464,168,14936,2,0,L|464:56,1,106.666666666667,10|0,0:0|0:0,0:0:0:0:
408,64,15277,1,0,0:0:0:0:
296,64,15504,1,0,0:0:0:0:
112,64,15618,2,0,L|112:248,1,160,2|0,1:2|1:0,0:0:0:0:
400,224,16299,1,10,0:0:0:0:
296,224,16527,1,2,0:0:0:0:
192,224,16754,1,2,0:0:0:0:
360,224,16981,1,2,1:2:0:0:
248,224,17208,1,2,0:0:0:0:
496,184,17663,6,0,L|296:184,1,160,10|0,0:0|0:0,0:0:0:0:
136,96,18345,2,0,L|136:216,1,106.666666666667,2|0,1:2|0:0,0:0:0:0:
264,208,18686,2,0,L|264:328,1,106.666666666667,2|0,0:0|1:0,0:0:0:0:
88,208,19027,2,0,L|88:88,1,106.666666666667,10|0,0:0|1:0,0:0:0:0:
144,104,19368,1,2,0:0:0:0:
472,256,19708,6,0,L|296:256,1,160,2|2,1:2|0:0,0:0:0:0:
208,256,20277,1,0,1:0:0:0:
32,256,20390,2,0,L|32:136,1,106.666666666667,10|2,0:0|0:0,0:0:0:0:
88,120,20731,2,0,L|256:120,1,160,0|0,1:0|0:0,0:0:0:0:
104,240,21413,1,0,0:0:0:0:
216,240,21640,1,0,1:0:0:0:
392,240,21754,2,0,L|392:72,1,160,10|2,0:0|1:2,0:0:0:0:
120,128,22436,6,0,L|120:288,1,160,0|0,0:0|0:0,0:0:0:0:
224,288,23004,1,0,1:0:0:0:
400,288,23118,2,0,L|400:120,1,160,10|2,0:0|1:2,0:0:0:0:
112,224,23799,2,0,L|280:224,1,160,0|10,0:0|1:0,0:0:0:0:
408,232,24481,2,0,L|408:112,1,106.666666666667,10|2,0:0|1:2,0:0:0:0:
280,152,24822,2,0,L|280:32,1,106.666666666667,2|2,0:0|0:0,0:0:0:0:
464,272,25163,6,0,L|464:88,1,160,2|2,0:0|0:0,0:0:0:0:
312,40,25845,2,0,L|192:40,1,106.666666666667,2|2,0:0|0:0,0:0:0:0:
152,96,26186,2,0,L|284:96,1,106.666666666667,2|2,0:0|0:0,0:0:0:0:
312,96,26527,2,0,L|312:264,1,160,2|2,0:0|0:0,0:0:0:0:
16,240,27208,2,0,L|176:240,1,160,8|2,1:2|0:0,0:0:0:0:
280,240,27777,1,2,0:0:0:0:
104,216,27890,6,0,L|104:382,1,160,2|2,1:2|0:0,0:0:0:0:
392,184,28572,2,0,L|224:184,1,160,10|2,0:0|0:0,0:0:0:0:
144,184,29140,1,2,0:0:0:0:
320,184,29254,2,0,L|320:24,1,160,0|10,1:0|0:1,0:0:0:0:
216,328,29822,1,2,0:0:0:0:
328,328,29936,2,0,L|328:216,1,106.666666666667,8|0,0:0|1:0,0:0:0:0:
136,224,30277,1,0,0:0:0:0:
392,168,30618,6,0,L|232:168,1,160,2|2,1:2|0:0,0:0:0:0:
456,160,31299,2,0,L|456:352,1,160,2|2,1:2|0:0,0:0:0:0:
343,312,31868,1,0,1:0:0:0:
167,304,31981,2,0,L|167:120,1,160,2|2,1:2|0:0,0:0:0:0:
288,96,32549,1,0,1:0:0:0:
112,104,32663,2,0,L|112:288,1,160,10|2,0:0|0:0,0:0:0:0:
424,128,33345,6,0,L|248:128,1,160,2|0,1:2|0:0,0:0:0:0:
128,256,34027,2,0,L|128:80,1,160,8|0,0:0|0:0,0:0:0:0:
232,96,34595,1,0,0:0:0:0:
56,96,34708,2,0,L|56:272,1,160,2|2,1:2|0:0,0:0:0:0:
200,264,35277,1,0,1:2:0:0:
328,264,35390,2,0,L|328:144,1,106.666666666667,10|2,0:0|1:2,0:0:0:0:
152,168,35731,1,0,0:0:0:0:
424,160,36072,6,0,L|256:160,1,160,2|0,1:2|0:0,0:0:0:0:
168,160,36640,1,0,0:0:0:0:
296,160,36754,2,0,L|296:288,1,106.666666666667,10|0,0:0|1:0,0:0:0:0:
120,272,37095,1,0,0:0:0:0:
24,272,37322,1,0,1:0:0:0:
200,272,37436,2,0,L|384:272,1,160,2|0,1:2|1:0,0:0:0:0:
176,224,38118,1,10,0:0:0:0:
280,224,38345,1,2,0:0:0:0:
384,224,38572,1,2,0:0:0:0:
216,224,38799,1,2,1:2:0:0:
328,224,39027,1,2,0:0:0:0:
48,192,39481,6,0,L|224:192,1,160,8|0,0:0|0:0,0:0:0:0:
320,200,40049,1,0,1:0:0:0:
496,200,40163,2,0,L|496:376,1,160,2|2,1:2|0:0,0:0:0:0:
384,344,40731,1,0,1:0:0:0:
208,352,40845,2,0,L|208:240,1,106.666666666667,10|0,0:0|1:0,0:0:0:0:
336,232,41186,2,0,L|336:120,1,106.666666666667,2|0,0:0|0:0,0:0:0:0:
160,128,41527,6,0,L|160:296,1,160,2|2,1:2|0:0,0:0:0:0:
272,288,42095,1,0,1:0:0:0:
144,288,42208,2,0,L|144:168,1,106.666666666667,10|2,0:0|0:0,0:0:0:0:
328,184,42549,1,0,1:0:0:0:
456,320,42890,2,0,L|272:320,1,160,0|0,0:0|0:0,0:0:0:0:
176,320,43458,1,0,1:0:0:0:
352,320,43572,2,0,L|352:152,1,160,10|2,0:0|1:2,0:0:0:0:
304,152,44027,1,0,0:0:0:0:
256,152,44140,1,0,0:0:0:0:
80,152,44254,6,0,L|80:320,1,160,0|0,0:0|0:0,0:0:0:0:
208,304,44822,1,0,1:0:0:0:
400,312,44936,2,0,L|400:192,1,106.666666666667,10|0,0:0|0:0,0:0:0:0:
272,216,45277,2,0,L|272:56,1,160,2|0,1:2|0:0,0:0:0:0:
384,64,45845,1,0,1:0:0:0:
208,72,45958,2,0,L|208:192,1,106.666666666667,10|0,0:1|0:0,0:0:0:0:
384,176,46299,2,0,L|384:304,1,106.666666666667,10|0,0:0|1:0,0:0:0:0:
256,280,46640,2,0,L|256:160,1,106.666666666667,2|0,0:0|0:0,0:0:0:0:
432,160,46981,6,0,L|438:133,1,20,2|0,0:0|0:0,0:0:0:0:
112,160,47663,2,0,L|106:133,1,20,2|0,0:0|0:0,0:0:0:0:
384,144,48345,2,0,L|390:117,1,20,2|0,0:0|0:0,0:0:0:0:
288,144,48572,1,2,0:0:0:0:
384,144,48799,1,2,0:0:0:0:
176,144,49027,2,0,L|170:117,1,20,2|0,0:0|0:0,0:0:0:0:
272,144,49254,1,2,0:0:0:0:
176,144,49481,1,2,0:0:0:0:
411,285,49708,6,0,L|411:124,1,160,2|0,1:2|0:0,0:0:0:0:
144,256,50390,2,0,L|320:256,1,160,10|0,0:0|0:0,0:0:0:0:
32,96,51072,1,2,1:2:0:0:
136,96,51299,1,2,0:0:0:0:
32,96,51527,1,2,0:0:0:0:
216,96,51754,1,10,0:0:0:0:
112,96,51981,1,2,0:0:0:0:
216,96,52208,1,2,0:0:0:0:
408,96,52436,6,0,L|408:264,1,160,2|0,1:2|0:0,0:0:0:0:
128,256,53118,2,0,L|128:40,1,200,8|0,0:0|0:0,0:0:0:0:
184,48,53686,1,2,1:2:0:0:
360,48,53799,2,0,L|360:232,1,160,2|2,1:2|1:2,0:0:0:0:
144,208,54481,2,0,L|144:320,1,106.666666666667,10|0,0:0|1:0,0:0:0:0:
200,304,54822,2,0,L|320:304,1,106.666666666667,2|0,0:0|0:0,0:0:0:0:
128,288,55163,6,0,P|75:223|172:66,1,266.666666666667,0|0,1:0|0:0,0:0:0:0:
328,80,55845,2,0,P|381:145|284:302,1,266.666666666667,2|0,1:2|1:0,0:0:0:0:
136,288,56527,2,0,L|136:112,1,160,2|2,1:2|0:0,0:0:0:0:
232,128,57095,1,0,1:0:0:0:
408,120,57208,2,0,L|409:303,1,160,10|2,0:0|0:0,0:0:0:0:
280,272,57777,1,0,1:0:0:0:
104,272,57890,5,0,1:0:0:0:
216,272,58118,1,0,1:0:0:0:
104,272,58458,1,0,1:0:0:0:
280,272,58572,2,0,L|280:144,1,106.666666666667,2|2,0:0|1:2,0:0:0:0:
104,192,58913,2,0,L|104:64,1,106.666666666667,2|2,1:2|1:2,0:0:0:0:
304,96,59254,6,0,L|304:264,1,160,6|0,1:2|0:0,0:0:0:0:
192,256,59822,1,0,1:0:0:0:
368,264,59935,2,0,L|368:152,1,106.666666666667,10|0,0:0|1:0,0:0:0:0:
240,192,60276,2,0,L|240:72,1,106.666666666667,2|0,1:2|0:0,0:0:0:0:
416,80,60617,6,0,L|416:228,1,106.666666666667,2|0,1:2|0:0,0:0:0:0:
232,200,60958,1,0,1:0:0:0:
120,200,61185,1,0,0:0:0:0:
296,208,61299,2,0,L|296:88,1,106.666666666667,10|0,0:0|0:0,0:0:0:0:
168,176,61640,2,0,L|168:64,1,106.666666666667,2|2,0:0|0:0,0:0:0:0:
376,112,61981,6,0,L|376:280,1,160,0|0,1:0|0:0,0:0:0:0:
232,264,62549,1,0,1:0:0:0:
56,264,62663,2,0,L|56:144,1,106.666666666667,10|0,0:0|0:0,0:0:0:0:
184,192,63004,2,0,L|184:72,1,106.666666666667,2|0,1:2|0:0,0:0:0:0:
384,104,63344,6,0,L|384:216,1,106.666666666667,2|0,0:0|0:0,0:0:0:0:
208,200,63685,1,0,1:0:0:0:
310,198,63913,1,0,0:0:0:0:
136,192,64026,2,0,L|136:72,1,106.666666666667,10|0,0:0|0:0,0:0:0:0:
264,136,64367,2,0,L|264:16,1,106.666666666667,2|2,0:0|0:0,0:0:0:0:
72,136,64708,6,0,L|72:304,1,160,0|0,1:0|0:0,0:0:0:0:
184,296,65276,1,2,1:2:0:0:
368,296,65390,2,0,L|368:176,1,106.666666666667,10|0,0:0|1:0,0:0:0:0:
240,208,65731,2,0,L|240:96,1,106.666666666667,2|0,1:2|0:0,0:0:0:0:
432,104,66072,6,0,L|432:240,1,106.666666666667,2|0,0:0|1:0,0:0:0:0:
256,208,66413,1,0,1:0:0:0:
152,208,66640,1,0,1:0:0:0:
328,208,66754,2,0,L|218:207,2,106.666666666667,6|2|2,1:0|1:2|0:0,0:0:0:0:
104,112,67435,6,0,P|37:184|125:321,1,266.666666666667,2|0,1:2|0:0,0:0:0:0:
296,112,68117,2,0,P|363:184|275:321,1,266.666666666667,2|0,1:2|1:0,0:0:0:0:
104,288,68799,2,0,L|104:112,1,160,2|2,1:2|0:0,0:0:0:0:
216,128,69367,1,2,1:2:0:0:
400,120,69481,2,0,L|400:260,1,106.666666666667,8|2,0:0|1:2,0:0:0:0:
224,208,69822,2,0,L|224:348,1,106.666666666667,0|2,0:0|0:0,0:0:0:0:
32,312,70163,6,0,L|32:120,1,160,6|0,1:2|0:0,0:0:0:0:
152,152,70731,1,0,1:0:0:0:
336,144,70844,2,0,L|336:264,1,106.666666666667,10|0,0:0|0:0,0:0:0:0:
208,296,71185,2,0,L|208:176,1,106.666666666667,2|0,1:2|0:0,0:0:0:0:
392,256,71526,6,0,L|392:144,1,106.666666666667,2|0,0:0|0:0,0:0:0:0:
216,152,71867,1,0,1:0:0:0:
320,152,72094,1,0,0:0:0:0:
136,256,72208,2,0,L|136:368,1,106.666666666667,10|2,0:0|0:0,0:0:0:0:
264,280,72549,2,0,L|264:160,1,106.666666666667,2|2,0:0|0:0,0:0:0:0:
472,176,72890,6,0,L|472:16,1,160,0|0,1:0|0:0,0:0:0:0:
360,32,73458,1,2,1:2:0:0:
184,32,73572,2,0,L|184:144,1,106.666666666667,10|0,0:0|0:0,0:0:0:0:
312,152,73913,2,0,L|312:264,1,106.666666666667,2|0,1:2|0:0,0:0:0:0:
120,152,74254,6,0,L|120:272,1,106.666666666667,2|0,0:0|0:0,0:0:0:0:
304,256,74594,1,0,1:0:0:0:
416,256,74822,1,0,1:0:0:0:
240,264,74935,2,0,L|240:144,1,106.666666666667,10|2,0:0|0:0,0:0:0:0:
368,192,75276,2,0,L|368:72,1,106.666666666667,2|2,0:0|0:0,0:0:0:0:
168,96,75617,6,0,L|168:288,1,160,0|0,1:0|0:0,0:0:0:0:
280,248,76185,1,0,1:0:0:0:
104,256,76299,2,0,L|104:136,1,106.666666666667,10|0,0:0|0:0,0:0:0:0:
232,184,76640,2,0,L|232:64,1,106.666666666667,2|0,1:2|0:0,0:0:0:0:
432,104,76981,6,0,L|432:224,1,106.666666666667,2|0,0:0|0:0,0:0:0:0:
256,208,77322,1,0,1:0:0:0:
360,208,77549,1,0,0:0:0:0:
184,208,77663,2,0,L|304:208,2,106.666666666667,10|2|2,0:0|1:2|0:0,0:0:0:0:
408,112,78344,6,0,P|475:184|387:321,1,266.666666666667,2|0,1:2|1:0,0:0:0:0:
216,112,79026,2,0,P|149:184|237:321,1,266.666666666667,2|0,1:2|1:0,0:0:0:0:
408,288,79708,2,0,L|408:112,1,160,2|2,1:2|0:0,0:0:0:0:
304,136,80276,1,0,1:0:0:0:
128,152,80390,2,0,L|128:32,1,106.666666666667,10|0,0:0|1:0,0:0:0:0:
264,120,80731,2,0,L|264:260,1,106.666666666667,2|0,0:0|0:0,0:0:0:0:
88,160,81072,6,0,P|34:228|126:400,1,266.666666666667,6|0,1:2|1:0,0:0:0:0:
272,384,81754,1,10,0:0:0:0:
144,256,82094,1,2,1:0:0:0:
256,256,82322,1,2,0:0:0:0:
144,256,82549,2,0,L|144:144,1,106.666666666667,2|0,0:0|0:0,0:0:0:0:
248,136,83004,1,0,1:0:0:0:
424,136,83117,2,0,L|424:256,1,106.666666666667,8|0,0:0|0:0,0:0:0:0:
304,272,83458,2,0,L|304:144,1,106.666666666667,2|0,1:2|0:0,0:0:0:0:
480,224,83799,6,0,L|480:0,1,213.333333333333,2|2,1:2|0:0,0:0:0:0:
424,64,84367,1,0,1:0:0:0:
376,64,84481,1,0,1:0:0:0:
336,64,84557,1,0,0:0:0:0:
160,64,84632,1,0,0:0:0:0:
331,155,85163,5,2,0:0:0:0:
168,152,85628,1,2,0:0:0:0:
400,152,86093,1,2,0:0:0:0:
88,152,86558,5,6,0:0:0:0:
256,192,86790,12,0,89349,0:0:0:0:
