osu file format v14

[General]
AudioFilename: audio.mp3
AudioLeadIn: 0
PreviewTime: 65564
Countdown: 0
SampleSet: Soft
StackLeniency: 0.3
Mode: 0
LetterboxInBreaks: 0
EpilepsyWarning: 1
WidescreenStoryboard: 1

[Editor]
Bookmarks: 7761,21475,23189,36904,38618,52332,66046,79761,86618,100332,102046,108904,115761,129475,143189,150046,163761,165475,179189,180904,194618,198046,201475,215189,216904,220332
DistanceSpacing: 1
BeatDivisor: 4
GridSize: 4
TimelineZoom: 1

[Metadata]
Title:Mekakushi
TitleUnicode:目隠し
Artist:Hoshina Yuuko
ArtistUnicode:星名優子
Creator:Misure
Version:Voice's Normal
Source:
Tags:VoiceCore Dailycare Morinaga kanor Lasse Sunazuka Akira Stellar rose ちびっこフォーク chibicco little folk comiket82 C82 japanese pop
BeatmapID:2804587
BeatmapSetID:1266326

[Difficulty]
HPDrainRate:4
CircleSize:3.2
OverallDifficulty:4
ApproachRate:5.5
SliderMultiplier:0.999999999999999
SliderTickRate:1

[Events]
//Background and Video events
0,0,"bg.jpg",0,0
//Break Periods
2,86818,100921
2,165475,177207
//Storyboard Layer 0 (Background)
//Storyboard Layer 1 (Fail)
//Storyboard Layer 2 (Pass)
//Storyboard Layer 3 (Foreground)
Sprite,Foreground,Centre,"SB\sprite\circle.png",238,412 C,0,7761,,2,199,204 F,1,7761,8561,1,0 S,1,7761,8561,0.1,1.2 P,0,7761,8561,A
Sprite,Foreground,Centre,"SB\sprite\circle.png",219,180 C,0,38618,,104,104,255 F,1,38618,39418,1,0 S,1,38618,39418,0.1,1.2 P,0,38618,39418,A
Sprite,Foreground,Centre,"SB\sprite\circle.png",89,203 C,0,52332,,2,199,204 F,1,52332,53132,1,0 S,1,52332,53132,0.1,1.2 P,0,52332,53132,A
Sprite,Foreground,Centre,"SB\sprite\circle.png",446,200 C,0,58118,,252,98,46 F,1,58118,58918,1,0 S,1,58118,58918,0.1,1.2 P,0,58118,58918,A
Sprite,Foreground,Centre,"SB\sprite\circle.png",456.4192,100.5443 C,0,58760,,252,98,46 F,1,58760,59560,1,0 S,1,58760,59560,0.1,1.2 P,0,58760,59560,A
Sprite,Foreground,Centre,"SB\sprite\circle.png",543,150 C,0,59189,,104,104,255 F,1,59189,59989,1,0 S,1,59189,59989,0.1,1.2 P,0,59189,59989,A
Sprite,Foreground,Centre,"SB\sprite\circle.png",206,288 C,0,65189,,253,60,137 F,1,65189,65989,1,0 S,1,65189,65989,0.1,1.2 P,0,65189,65989,A
Sprite,Foreground,Centre,"SB\sprite\circle.png",135,104 C,0,66046,,0,89,179 F,1,66046,66846,1,0 S,1,66046,66846,0.1,1.2 P,0,66046,66846,A
Sprite,Foreground,Centre,"SB\sprite\circle.png",212,135 C,0,72904,,252,98,46 F,1,72904,73704,1,0 S,1,72904,73704,0.1,1.2 P,0,72904,73704,A
Sprite,Foreground,Centre,"SB\sprite\circle.png",303,235 C,0,79761,,0,89,179 F,1,79761,80561,1,0 S,1,79761,80561,0.1,1.2 P,0,79761,80561,A
Sprite,Foreground,Centre,"SB\sprite\circle.png",284,333 C,0,86618,,252,98,46 F,1,86618,87418,1,0 S,1,86618,87418,0.1,1.2 P,0,86618,87418,A
Sprite,Foreground,Centre,"SB\sprite\circle.png",514,117 C,0,108904,,0,89,179 F,1,108904,109704,1,0 S,1,108904,109704,0.1,1.2 P,0,108904,109704,A
Sprite,Foreground,Centre,"SB\sprite\circle.png",555,419 C,0,115761,,2,199,204 F,1,115761,116561,1,0 S,1,115761,116561,0.1,1.2 P,0,115761,116561,A
Sprite,Foreground,Centre,"SB\sprite\circle.png",555,419 C,0,115761,,2,199,204 F,1,115761,116561,1,0 S,1,115761,116561,0.1,1.2 P,0,115761,116561,A
Sprite,Foreground,Centre,"SB\sprite\circle.png",324,89 C,0,121546,,252,98,46 F,1,121546,122346,1,0 S,1,121546,122346,0.1,1.2 P,0,121546,122346,A
Sprite,Foreground,Centre,"SB\sprite\circle.png",423.558,98.39226 C,0,122189,,252,98,46 F,1,122189,122989,1,0 S,1,122189,122989,0.1,1.2 P,0,122189,122989,A
Sprite,Foreground,Centre,"SB\sprite\circle.png",441,196 C,0,122618,,104,104,255 F,1,122618,123418,1,0 S,1,122618,123418,0.1,1.2 P,0,122618,123418,A
Sprite,Foreground,Centre,"SB\sprite\circle.png",315,89 C,0,128618,,253,60,137 F,1,128618,129418,1,0 S,1,128618,129418,0.1,1.2 P,0,128618,129418,A
Sprite,Foreground,Centre,"SB\sprite\circle.png",521,84 C,0,129475,,0,89,179 F,1,129475,130275,1,0 S,1,129475,130275,0.1,1.2 P,0,129475,130275,A
Sprite,Foreground,Centre,"SB\sprite\circle.png",490,229 C,0,136332,,252,98,46 F,1,136332,137132,1,0 S,1,136332,137132,0.1,1.2 P,0,136332,137132,A
Sprite,Foreground,Centre,"SB\sprite\circle.png",199,274 C,0,143189,,0,89,179 F,1,143189,143989,1,0 S,1,143189,143989,0.1,1.2 P,0,143189,143989,A
Sprite,Foreground,Centre,"SB\sprite\circle.png",568,72 C,0,180904,,255,77,247 F,1,180904,181704,1,0 S,1,180904,181704,0.1,1.2 P,0,180904,181704,A
Sprite,Foreground,Centre,"SB\sprite\circle.png",69,69 C,0,187761,,104,104,255 F,1,187761,188561,1,0 S,1,187761,188561,0.1,1.2 P,0,187761,188561,A
Sprite,Foreground,Centre,"SB\sprite\circle.png",88,215 C,0,194618,,2,199,204 F,1,194618,195418,1,0 S,1,194618,195418,0.1,1.2 P,0,194618,195418,A
Sprite,Foreground,Centre,"SB\sprite\circle.png",319,71 C,0,201475,,104,104,255 F,1,201475,202275,1,0 S,1,201475,202275,0.1,1.2 P,0,201475,202275,A
Sprite,Foreground,Centre,"SB\credit\vocal.png",0,120 S,0,9261,,0.384 F,0,9261,9561,0,1 MX,0,9261,9561,92.848,95.848 F,0,19246,19546,1,0
Sprite,Foreground,Centre,"SB\credit\hoshina_yuuko.png",0,120 F,0,9261,9561,0,1 MX,0,9261,9561,246.688,249.688 S,0,12689,,0.384 F,0,19246,19546,1,0
Sprite,Foreground,Centre,"SB\credit\beatmap.png",0,250 S,0,12689,,0.384 F,0,12689,12989,0,1 MX,0,12689,12989,353.808,356.808 F,0,19246,19546,1,0
Sprite,Foreground,Centre,"SB\credit\voicecore.png",0,250 F,0,12689,12989,0,1 MX,0,12689,12989,552,555 S,0,16117,,0.384 F,0,19246,19546,1,0
Sprite,Foreground,Centre,"SB\credit\storyboard.png",0,380 S,0,16117,,0.384 F,0,16117,16417,0,1 MX,0,16117,16417,137.36,140.36 F,0,19246,19546,1,0
Sprite,Foreground,Centre,"SB\credit\misure.png",0,380 F,0,16117,16417,0,1 MX,0,16117,16417,332.288,335.288 F,0,19246,19546,1,0 S,0,19545,,0.384
Sprite,Foreground,Centre,"SB\credit\mekakushi.png",320,240 S,0,19546,,0.4224 F,0,19546,19846,0,1 F,0,21275,21475,1,0
//Storyboard Layer 4 (Overlay)
//Storyboard Sound Samples

[TimingPoints]
904,428.571428571429,4,2,2,60,1,0
7332,-100,4,2,2,70,0,0
7761,-90.9090909090909,4,1,1,75,0,0
19761,-90.9090909090909,4,1,1,70,0,0
21475,-90.9090909090909,4,2,2,55,0,0
23189,-111.111111111111,4,2,2,55,0,0
38618,-99.9999999999999,4,2,1,65,0,0
52332,-99.9999999999999,4,2,1,70,0,0
66046,-90.9090909090909,4,2,1,80,0,1
86618,-90.9090909090909,4,1,1,75,0,0
100332,-90.9090909090909,4,2,2,55,0,0
102046,-100,4,2,1,60,0,0
108904,-100,4,2,1,65,0,0
115761,-100,4,2,1,70,0,0
129475,-90.9090909090909,4,2,1,80,0,1
150046,-90.9090909090909,4,2,1,70,0,0
163761,-90.9090909090909,4,2,1,50,0,0
163868,-90.9090909090909,4,2,1,40,0,0
164618,-90.9090909090909,4,2,1,45,0,0
164725,-90.9090909090909,4,2,1,50,0,0
164832,-90.9090909090909,4,2,1,55,0,0
164939,-90.9090909090909,4,2,1,60,0,0
165046,-90.9090909090909,4,2,1,65,0,0
165154,-90.9090909090909,4,2,1,70,0,0
165261,-90.9090909090909,4,2,1,75,0,0
165368,-90.9090909090909,4,2,1,80,0,0
165475,-90.9090909090909,4,2,1,55,0,0
172332,-90.9090909090909,4,2,2,60,0,0
180904,-83.3333333333333,4,2,1,80,0,1
198046,-83.3333333333333,4,2,1,60,0,0
198475,-83.3333333333333,4,2,1,20,0,0
198689,-83.3333333333333,4,2,1,60,0,0
198904,-83.3333333333333,4,2,1,50,0,0
199761,-83.3333333333333,4,2,1,40,0,0
200832,-83.3333333333333,4,2,1,30,0,0
201475,-90.9090909090909,4,1,1,75,0,0
213475,-90.9090909090909,4,1,1,70,0,0
215189,-90.9090909090909,4,2,1,70,0,0
217332,-90.9090909090909,4,2,1,65,0,0
217761,-90.9090909090909,4,2,1,60,0,0
218189,-90.9090909090909,4,2,1,55,0,0
218618,-90.9090909090909,4,2,1,50,0,0
219046,-90.9090909090909,4,2,1,45,0,0
219475,-90.9090909090909,4,2,1,40,0,0
219904,-90.9090909090909,4,2,1,35,0,0
220332,-90.9090909090909,4,2,1,30,0,0

[Colours]
Combo1 : 0,89,179
Combo2 : 255,77,247
Combo3 : 2,199,204
Combo4 : 252,98,46
Combo5 : 104,104,255
Combo6 : 253,60,137

[HitObjects]
89,287,7332,5,4,0:1:0:0:
174,356,7761,6,0,P|244:351|280:324,1,110.000003356934,4|2,0:2|0:2,0:0:0:0:
275,273,8404,1,2,0:3:0:0:
275,273,8618,2,0,L|218:261,2,55.0000016784668,0|2|0,0:0|0:2|0:0,0:0:0:0:
332,367,9475,2,0,P|407:349|456:350,1,110.000003356934,0|2,0:0|0:2,0:0:0:0:
491,365,10118,1,2,0:3:0:0:
491,365,10332,2,0,L|485:297,1,55.0000016784668,0|2,0:0|0:2,0:0:0:0:
510,260,10761,1,2,0:2:0:0:
453,164,11189,6,0,P|472:111|463:47,1,110.000003356934,0|2,0:0|0:2,0:0:0:0:
416,35,11832,1,2,0:3:0:0:
416,35,12046,2,0,L|347:42,2,55.0000016784668,0|2|0,0:0|0:2|0:0,0:0:0:0:
363,132,12904,2,0,L|247:124,1,110.000003356934,0|2,0:0|0:2,0:0:0:0:
167,54,13761,1,0,0:0:0:0:
65,97,14189,1,2,0:2:0:0:
114,195,14618,6,0,P|175:189|247:182,1,110.000003356934,4|2,0:2|0:2,0:0:0:0:
265,219,15261,1,2,0:3:0:0:
265,219,15475,2,0,L|333:226,2,55.0000016784668,0|2|0,0:0|0:2|0:0,0:0:0:0:
204,311,16332,2,0,P|151:338|104:330,1,110.000003356934,0|2,0:0|0:2,0:0:0:0:
52,340,16975,1,2,0:3:0:0:
52,340,17189,2,0,L|62:265,1,55.0000016784668,0|2,0:0|0:2,0:0:0:0:
35,235,17618,1,2,0:2:0:0:
106,151,18046,6,0,P|110:82|80:41,1,110.000003356934,0|2,0:0|0:2,0:0:0:0:
35,59,18689,1,2,0:3:0:0:
35,59,18904,2,0,L|20:0,2,55.0000016784668,0|2|0,0:0|0:2|0:0,0:0:0:0:
65,164,19761,2,0,B|109:154|109:154|150:196,2,82.5000025177002,0|0|2,0:0|0:0|0:3,0:0:0:0:
22,199,20618,2,0,L|31:324,1,110.000003356934,0|2,0:0|0:2,0:0:0:0:
333,54,23189,6,0,L|349:142,1,89.999997253418,2|0,0:0|3:0,0:0:0:0:
306,221,24046,1,2,0:0:0:0:
163,143,24904,2,0,L|179:54,2,89.999997253418,2|0|2,0:0|3:0|0:0,0:0:0:0:
94,289,26618,6,0,P|131:312|176:313,1,89.999997253418,2|0,0:0|3:0,0:0:0:0:
259,280,27475,2,0,P|296:256|341:255,1,89.999997253418,2|0,0:0|3:0,0:0:0:0:
411,310,28332,1,2,0:0:0:0:
498,173,29189,1,2,0:0:0:0:
419,29,30046,6,0,L|332:53,1,89.999997253418,6|0,0:0|3:0,0:0:0:0:
293,135,30904,1,2,0:0:0:0:
148,61,31761,2,0,L|64:27,2,89.999997253418,2|0|2,0:0|3:0|0:0,0:0:0:0:
264,174,33475,6,0,P|275:216|264:259,1,89.999997253418,2|0,0:0|3:0,0:0:0:0:
185,304,34332,2,0,P|149:277|104:274,1,89.999997253418,2|0,0:0|3:0,0:0:0:0:
117,363,35189,1,2,0:0:0:0:
12,239,36046,1,2,0:0:0:0:
155,124,38618,6,0,L|256:112,1,99.9999999999999,4|8,0:1|0:3,0:0:0:0:
289,76,39261,1,0,0:0:0:0:
289,76,39475,2,0,L|401:82,1,99.9999999999999,0|8,3:2|0:3,0:0:0:0:
474,30,40332,1,2,3:2:0:0:
509,123,40761,1,8,0:3:0:0:
426,178,41189,2,0,P|392:212|386:283,1,99.9999999999999,0|8,3:0|0:3,0:0:0:0:
436,344,42046,5,2,3:2:0:0:
481,254,42475,1,8,0:3:0:0:
381,261,42904,2,0,P|304:264|276:268,1,99.9999999999999,0|8,3:0|0:3,0:0:0:0:
247,303,43546,1,0,0:0:0:0:
247,303,43761,2,0,P|201:309|142:293,2,99.9999999999999,2|8|0,3:2|0:3|3:0,0:0:0:0:
302,219,45046,1,8,0:3:0:0:
244,137,45475,6,0,P|163:136|136:149,1,99.9999999999999,2|8,3:2|0:3,0:0:0:0:
108,174,46118,1,0,0:0:0:0:
108,174,46332,2,0,L|110:279,1,99.9999999999999,0|8,3:0|0:3,0:0:0:0:
42,348,47189,1,2,3:2:0:0:
138,373,47618,1,8,0:3:0:0:
220,317,48046,2,0,P|285:298|332:312,1,99.9999999999999,0|8,3:0|0:3,0:0:0:0:
396,364,48904,5,2,3:2:0:0:
413,265,49332,1,8,0:3:0:0:
342,194,49761,2,0,L|336:76,1,99.9999999999999,0|8,3:0|0:3,0:0:0:0:
301,58,50404,1,0,0:0:0:0:
301,58,50618,2,0,P|257:88|245:90,1,50,2|0,3:2|0:0,0:0:0:0:
212,74,51046,2,0,L|151:70,2,50,8|8|0,0:3|0:0|3:0,0:0:0:0:
25,147,52332,6,0,P|59:185|120:188,1,99.9999999999999,6|8,0:1|0:3,0:0:0:0:
144,160,52975,1,2,0:0:0:0:
144,160,53189,2,0,L|132:46,2,99.9999999999999,0|8|0,3:0|0:3|3:0,0:0:0:0:
197,244,54475,2,0,L|176:302,1,50,8|2,0:3|0:0,0:0:0:0:
131,303,54904,2,0,P|40:293|25:278,1,99.9999999999999,0|8,3:0|0:3,0:0:0:0:
100,212,55761,6,0,L|112:146,1,50,0|0,3:0|0:0,0:0:0:0:
76,125,56189,2,0,L|70:70,1,50,8|2,0:3|0:0,0:0:0:0:
102,36,56618,2,0,P|173:57|210:42,1,99.9999999999999,0|8,3:0|0:3,0:0:0:0:
256,129,57475,2,0,P|328:104|368:111,1,99.9999999999999,0|8,3:0|0:3,0:0:0:0:
382,144,58118,1,4,0:1:0:0:
382,144,58332,2,0,L|393:39,1,99.9999999999999,0|4,3:0|0:1,0:0:0:0:
479,94,59189,6,0,P|491:151|474:204,1,99.9999999999999,4|8,3:2|0:3,0:0:0:0:
439,218,59832,1,2,0:0:0:0:
439,218,60046,2,0,L|443:326,1,99.9999999999999,0|8,3:0|0:3,0:0:0:0:
345,343,60904,2,0,B|306:335|306:335|266:357,2,74.9999999999999,0|2|2,3:0|0:0|0:0,0:0:0:0:
390,363,61761,2,0,P|458:365|493:327,1,99.9999999999999,0|8,3:0|0:3,0:0:0:0:
453,250,62618,5,0,3:0:0:0:
365,201,63046,2,0,L|294:212,1,50,8|2,0:3|0:0,0:0:0:0:
273,181,63475,1,0,3:0:0:0:
192,239,63904,2,0,L|129:231,1,50,8|2,0:3|0:0,0:0:0:0:
110,194,64332,2,0,B|70:181|70:181|22:208,2,74.9999999999999,0|0|2,3:0|3:0|3:2,0:0:0:0:
142,232,65189,2,0,L|143:123,1,99.9999999999999,4|0,3:1|0:0,0:0:0:0:
71,48,66046,6,0,P|29:103|36:156,1,110.000003356934,6|4,3:2|0:3,0:0:0:0:
46,193,66689,1,8,0:1:0:0:
46,193,66904,2,0,P|94:237|147:230,1,110.000003356934,2|4,3:2|0:3,0:0:0:0:
236,191,67761,2,0,L|308:180,1,55.0000016784668,2|2,3:2|0:0,0:0:0:0:
314,133,68189,2,0,L|385:145,1,55.0000016784668,4|8,0:3|0:1,0:0:0:0:
420,125,68618,1,0,3:0:0:0:
481,216,69046,6,0,L|469:282,1,55.0000016784668,0|8,1:0|0:1,0:0:0:0:
439,315,69475,1,2,3:1:0:0:
329,306,69904,2,0,P|290:305|262:320,1,55.0000016784668,4|8,0:3|0:1,0:0:0:0:
242,354,70332,2,0,P|184:352|126:333,1,110.000003356934,0|4,3:0|0:3,0:0:0:0:
26,359,71189,6,0,L|19:294,1,55.0000016784668,0|2,3:0|0:0,0:0:0:0:
63,269,71618,2,0,L|70:206,1,55.0000016784668,4|8,0:3|0:1,0:0:0:0:
28,177,72046,2,0,P|14:118|60:65,1,110.000003356934,0|2,3:0|3:1,0:0:0:0:
148,79,72904,6,0,L|273:66,1,110.000003356934,6|4,3:2|0:3,0:0:0:0:
292,25,73546,1,8,0:1:0:0:
292,25,73761,2,0,P|361:47|404:43,1,110.000003356934,0|4,3:0|0:3,0:0:0:0:
447,142,74618,2,0,L|509:131,2,55.0000016784668,2|2|4,3:2|0:0|0:3,0:0:0:0:
407,180,75261,1,8,0:1:0:0:
407,180,75475,1,0,3:0:0:0:
362,280,75904,6,0,P|299:271|292:265,1,55.0000016784668,0|8,1:0|0:1,0:0:0:0:
278,230,76332,1,2,3:1:0:0:
328,132,76761,2,0,L|324:75,1,55.0000016784668,4|8,0:3|0:1,0:0:0:0:
287,35,77189,1,0,3:0:0:0:
179,11,77618,2,0,L|105:20,1,55.0000016784668,4|8,0:3|0:1,0:0:0:0:
85,56,78046,6,0,L|92:132,1,55.0000016784668,0|2,3:0|0:0,0:0:0:0:
50,149,78475,2,0,L|34:220,2,55.0000016784668,4|8|0,0:3|0:1|3:0,0:0:0:0:
153,111,79332,1,0,1:0:0:0:
239,179,79761,6,0,P|291:187|360:168,1,110.000003356934,6|4,3:2|0:3,0:0:0:0:
384,134,80404,1,8,0:1:0:0:
384,134,80618,2,0,P|376:174|406:251,1,110.000003356934,0|4,3:0|0:3,0:0:0:0:
450,248,81261,1,8,0:1:0:0:
450,248,81475,1,0,3:0:0:0:
376,329,81904,6,0,P|331:318|316:318,1,55.0000016784668,4|8,0:3|0:1,0:0:0:0:
277,349,82332,2,0,P|232:360|217:360,1,55.0000016784668,0|2,3:0|0:0,0:0:0:0:
177,330,82761,2,0,P|132:319|117:319,1,55.0000016784668,4|8,0:3|0:1,0:0:0:0:
77,348,83189,6,0,L|64:228,1,110.000003356934,2|4,3:1|0:3,0:0:0:0:
30,195,83832,2,0,P|89:212|126:43,1,275.000008392334,8|0,0:1|3:0,0:0:0:0:
36,84,85332,1,4,0:3:0:0:
30,195,85761,1,0,3:0:0:0:
124,251,86189,2,0,P|176:243|187:245,1,55.0000016784668,4|8,3:0|0:1,0:0:0:0:
220,277,86618,5,4,0:2:0:0:
337,72,102046,5,4,3:2:0:0:
337,72,102261,1,0,3:0:0:0:
235,182,102904,1,0,3:0:0:0:
235,182,103118,1,0,3:0:0:0:
110,98,103761,1,0,3:0:0:0:
110,98,103975,2,0,L|90:52,2,50,0|8|2,3:0|0:1|0:3,0:0:0:0:
130,143,104618,2,0,P|100:182|100:231,1,99.9999999999999,0|8,3:0|0:1,0:0:0:0:
158,312,105475,5,0,3:0:0:0:
158,312,105689,1,0,3:0:0:0:
284,230,106332,1,0,3:0:0:0:
284,230,106546,1,0,3:0:0:0:
419,290,107189,1,0,3:0:0:0:
419,290,107403,2,0,L|460:317,2,50,0|8|2,3:0|0:1|0:3,0:0:0:0:
392,249,108046,2,0,L|401:149,1,99.9999999999999,0|8,3:0|0:1,0:0:0:0:
450,61,108904,6,0,P|424:31|358:28,1,99.9999999999999,4|8,0:1|0:3,0:0:0:0:
331,60,109546,1,0,0:0:0:0:
331,60,109761,2,0,P|298:82|233:68,1,99.9999999999999,0|8,3:0|0:3,0:0:0:0:
151,119,110618,1,2,3:2:0:0:
105,29,111046,1,8,0:3:0:0:
51,113,111475,2,0,L|53:217,1,99.9999999999999,0|8,3:0|0:3,0:0:0:0:
114,292,112332,5,2,3:2:0:0:
210,264,112761,1,8,0:3:0:0:
257,175,113189,2,0,L|359:185,1,99.9999999999999,0|8,3:0|0:3,0:0:0:0:
379,140,113832,1,0,0:0:0:0:
379,140,114046,2,0,P|419:142|447:155,1,50,2|0,3:2|0:0,0:0:0:0:
474,164,114475,2,0,L|501:106,2,50,8|8|0,0:3|0:0|3:0,0:0:0:0:
491,363,115761,6,0,P|464:296|432:283,1,99.9999999999999,6|8,0:1|0:3,0:0:0:0:
396,266,116404,1,2,0:0:0:0:
396,266,116618,2,0,L|375:374,2,99.9999999999999,0|8|0,3:0|0:3|3:0,0:0:0:0:
309,215,117904,2,0,P|283:227|256:228,1,50,8|2,0:3|0:0,0:0:0:0:
218,253,118332,2,0,P|158:238|118:245,1,99.9999999999999,0|8,3:0|0:3,0:0:0:0:
53,317,119189,6,0,L|117:346,1,50,0|0,3:0|0:0,0:0:0:0:
144,357,119618,2,0,L|209:332,1,50,8|2,0:3|0:0,0:0:0:0:
236,318,120046,2,0,L|226:196,1,99.9999999999999,0|8,3:0|0:3,0:0:0:0:
203,120,120904,2,0,P|196:50|226:16,1,99.9999999999999,0|8,3:0|0:3,0:0:0:0:
260,33,121546,1,4,0:1:0:0:
260,33,121761,2,0,L|366:43,1,99.9999999999999,0|4,3:0|0:1,0:0:0:0:
377,140,122618,6,0,P|443:136|474:110,1,99.9999999999999,4|8,3:2|0:3,0:0:0:0:
505,82,123261,1,2,0:0:0:0:
505,82,123475,2,0,L|489:187,1,99.9999999999999,0|8,3:0|0:3,0:0:0:0:
436,265,124332,2,0,B|468:288|468:288|517:277,2,74.9999999999999,0|2|2,3:0|0:0|0:0,0:0:0:0:
394,236,125189,2,0,P|345:228|293:265,1,99.9999999999999,0|8,3:0|0:3,0:0:0:0:
255,339,126046,5,0,3:0:0:0:
217,246,126475,2,0,L|223:192,1,50,8|2,0:3|0:0,0:0:0:0:
190,157,126904,1,0,3:0:0:0:
257,83,127333,2,0,L|251:29,1,50,8|2,0:3|0:0,0:0:0:0:
203,20,127761,2,0,B|165:10|165:10|128:31,2,74.9999999999999,0|0|2,3:0|3:0|3:2,0:0:0:0:
251,33,128618,2,0,L|364:51,1,99.9999999999999,4|0,3:1|0:0,0:0:0:0:
457,28,129475,6,0,P|458:78|413:131,1,110.000003356934,6|4,3:2|0:3,0:0:0:0:
375,150,130118,1,8,0:1:0:0:
375,150,130332,2,0,P|354:195|375:262,1,110.000003356934,2|4,3:2|0:3,0:0:0:0:
476,269,131189,2,0,L|465:329,1,55.0000016784668,2|2,3:2|0:0,0:0:0:0:
454,377,131618,2,0,L|394:366,1,55.0000016784668,4|8,0:3|0:1,0:0:0:0:
345,357,132046,1,0,3:0:0:0:
258,289,132475,6,0,P|216:295|199:302,1,55.0000016784668,0|8,1:0|0:1,0:0:0:0:
170,343,132904,1,2,3:1:0:0:
122,243,133332,2,0,P|116:201|109:184,1,55.0000016784668,4|8,0:3|0:1,0:0:0:0:
68,155,133761,2,0,P|72:91|91:29,1,110.000003356934,0|4,3:0|0:3,0:0:0:0:
193,34,134618,6,0,P|199:81|196:97,1,55.0000016784668,0|2,3:0|0:0,0:0:0:0:
174,137,135046,2,0,P|168:176|176:213,1,55.0000016784668,4|8,0:3|0:1,0:0:0:0:
214,223,135475,2,0,P|291:219|334:210,1,110.000003356934,0|2,3:0|3:1,0:0:0:0:
426,173,136332,6,0,P|400:133|333:105,1,110.000003356934,6|4,3:2|0:3,0:0:0:0:
296,131,136975,1,8,0:1:0:0:
296,131,137189,2,0,L|308:15,1,110.000003356934,0|4,3:0|0:3,0:0:0:0:
415,41,138046,2,0,L|488:28,1,55.0000016784668,2|2,3:2|0:0,0:0:0:0:
485,84,138475,2,0,L|498:157,1,55.0000016784668,4|8,0:3|0:1,0:0:0:0:
441,152,138904,1,0,3:0:0:0:
355,221,139332,6,0,P|326:218|280:208,1,55.0000016784668,0|8,1:0|0:1,0:0:0:0:
258,178,139761,1,2,3:1:0:0:
185,260,140189,2,0,P|147:263|123:271,1,55.0000016784668,4|8,0:3|0:1,0:0:0:0:
105,316,140618,1,0,3:0:0:0:
24,240,141046,2,0,L|29:170,1,55.0000016784668,4|8,0:3|0:1,0:0:0:0:
76,159,141475,6,0,L|69:101,1,55.0000016784668,0|2,3:0|0:0,0:0:0:0:
56,50,141904,2,0,P|90:59|127:57,2,55.0000016784668,4|8|0,0:3|0:1|3:0,0:0:0:0:
43,159,142761,1,0,1:0:0:0:
135,218,143189,6,0,P|209:207|242:179,1,110.000003356934,6|4,3:2|0:3,0:0:0:0:
290,178,143832,1,8,0:1:0:0:
290,178,144046,2,0,P|245:117|253:79,1,110.000003356934,0|4,3:0|0:3,0:0:0:0:
274,38,144689,1,8,0:1:0:0:
274,38,144904,1,0,3:0:0:0:
363,102,145332,6,0,L|385:166,1,55.0000016784668,4|8,0:3|0:1,0:0:0:0:
431,176,145761,2,0,L|418:242,1,55.0000016784668,0|2,3:0|0:0,0:0:0:0:
453,274,146189,2,0,L|408:325,1,55.0000016784668,4|8,0:3|0:1,0:0:0:0:
404,369,146618,6,0,P|330:350|296:346,1,110.000003356934,2|4,3:1|0:3,0:0:0:0:
266,299,147261,2,0,B|204:341|139:290|139:290|64:251|-6:320,1,275.000008392334,8|0,0:1|3:0,0:0:0:0:
16,194,148761,1,4,0:3:0:0:
112,141,149189,1,0,3:0:0:0:
166,150,149404,2,0,L|182:80,2,55.0000016784668,2|4|8,0:0|3:0|0:1,0:0:0:0:
169,205,150046,6,0,B|389:213|389:213|352:95,1,330.000010070801,4|4,3:2|0:3,0:0:0:0:
320,5,151761,1,0,3:0:0:0:
248,88,152189,1,10,0:0:0:0:
356,109,152618,2,0,L|424:93,1,55.0000016784668,0|2,3:0|0:0,0:0:0:0:
463,84,153046,2,0,L|479:152,1,55.0000016784668,4|2,0:3|0:0,0:0:0:0:
490,190,153475,6,0,B|438:347|438:347|300:249,1,330.000010070801,0|4,3:0|0:3,0:0:0:0:
214,187,155189,1,0,3:0:0:0:
172,289,155618,2,0,L|102:302,1,55.0000016784668,10|2,0:0|0:0,0:0:0:0:
70,326,156046,1,0,3:0:0:0:
25,225,156475,2,0,L|12:155,1,55.0000016784668,4|2,0:3|0:0,0:0:0:0:
48,127,156904,6,0,B|154:94|154:94|244:158|244:158|358:122,1,330.000010070801,4|4,3:2|0:3,0:0:0:0:
452,92,158618,1,0,3:0:0:0:
357,35,159046,1,10,0:0:0:0:
285,118,159475,2,0,L|222:107,1,55.0000016784668,0|2,3:0|0:0,0:0:0:0:
202,61,159904,2,0,L|139:50,1,55.0000016784668,4|2,0:3|0:0,0:0:0:0:
104,85,160332,6,0,L|116:205,1,110.000003356934,0|10,3:0|0:0,0:0:0:0:
83,239,160975,1,2,0:0:0:0:
83,239,161189,2,0,L|95:359,1,110.000003356934,0|4,3:0|0:3,0:0:0:0:
203,337,162046,2,0,B|246:328|246:328|291:371,2,82.5000025177002,0|2|2,3:0|0:0|0:0,0:0:0:0:
200,281,162904,2,0,L|221:149,1,110.000003356934,0|2,3:0|0:0,0:0:0:0:
256,192,178332,12,0,180046,0:0:0:0:
504,16,180904,6,0,P|452:51|381:46,1,119.999996337891,6|4,3:2|0:3,0:0:0:0:
342,77,181546,1,8,0:1:0:0:
342,77,181761,2,0,P|282:53|214:66,1,119.999996337891,2|4,3:2|0:3,0:0:0:0:
119,110,182618,2,0,L|127:174,1,59.9999981689453,2|2,3:2|0:0,0:0:0:0:
88,215,183046,2,0,L|112:274,1,59.9999981689453,4|8,0:3|0:1,0:0:0:0:
85,324,183475,1,0,3:0:0:0:
195,370,183904,6,0,P|227:352|259:349,1,59.9999981689453,0|8,1:0|0:1,0:0:0:0:
306,368,184332,1,2,3:1:0:0:
411,310,184761,2,0,P|421:249|417:235,1,59.9999981689453,4|8,0:3|0:1,0:0:0:0:
380,208,185189,2,0,L|249:222,1,119.999996337891,0|4,3:0|0:3,0:0:0:0:
171,300,186046,6,0,P|126:284|100:284,1,59.9999981689453,0|0,3:0|0:0,0:0:0:0:
62,251,186475,2,0,P|98:231|116:210,1,59.9999981689453,4|8,0:3|0:1,0:0:0:0:
129,160,186904,2,0,P|65:164|13:108,1,119.999996337891,0|2,3:0|3:1,0:0:0:0:
5,13,187761,6,0,L|131:5,1,119.999996337891,6|4,3:2|0:3,0:0:0:0:
165,49,188404,1,8,0:1:0:0:
165,49,188618,2,0,L|303:68,1,119.999996337891,0|4,3:0|0:3,0:0:0:0:
398,28,189475,6,0,P|427:22|481:24,1,59.9999981689453,2|2,3:2|0:0,0:0:0:0:
492,69,189904,2,0,P|482:97|453:142,1,59.9999981689453,4|8,0:3|0:1,0:0:0:0:
412,130,190332,1,0,3:0:0:0:
331,218,190761,6,0,P|343:268|361:286,1,59.9999981689453,0|8,1:0|0:1,0:0:0:0:
403,296,191189,1,2,3:1:0:0:
304,365,191618,2,0,P|260:338|234:338,1,59.9999981689453,4|8,0:3|0:1,0:0:0:0:
197,358,192046,1,0,3:0:0:0:
87,308,192475,2,0,P|56:288|39:244,1,59.9999981689453,4|0,0:3|0:0,0:0:0:0:
31,209,192904,6,0,P|45:168|64:152,1,59.9999981689453,0|2,3:0|0:0,0:0:0:0:
108,127,193332,2,0,P|151:140|180:136,2,59.9999981689453,4|8|0,0:3|0:1|3:0,0:0:0:0:
25,39,194189,1,0,1:0:0:0:
24,159,194618,6,0,P|54:207|49:277,1,119.999996337891,6|4,3:2|0:3,0:0:0:0:
19,319,195261,1,8,0:1:0:0:
19,319,195475,2,0,P|67:289|137:293,1,119.999996337891,0|4,3:0|0:3,0:0:0:0:
162,340,196118,1,8,0:1:0:0:
162,340,196332,1,0,3:0:0:0:
280,360,196761,6,0,L|287:279,1,59.9999981689453,4|8,0:3|0:1,0:0:0:0:
238,262,197189,2,0,L|231:181,1,59.9999981689453,0|2,3:0|0:0,0:0:0:0:
272,157,197618,2,0,L|279:76,1,59.9999981689453,4|8,0:3|0:1,0:0:0:0:
241,48,198046,6,0,P|166:35|134:75,1,119.999996337891,2|0,0:0|0:0,0:0:0:0:
128,120,198689,2,0,B|123:160|162:191|199:185|199:185|408:144,2,299.999990844727,2|0|0,0:0|0:0|0:0,0:0:0:0:
255,15,201475,1,4,0:2:0:0:
