osu file format v14

[General]
AudioFilename: audio.mp3
AudioLeadIn: 0
PreviewTime: 19876
Countdown: 0
SampleSet: Soft
StackLeniency: 0.5
Mode: 0
LetterboxInBreaks: 0
WidescreenStoryboard: 0

[Editor]
Bookmarks: 19977,60517
DistanceSpacing: 0.4
BeatDivisor: 4
GridSize: 8
TimelineZoom: 2.1

[Metadata]
Title:Startrip
TitleUnicode:スタートリップ
Artist:Hoshina Megumi
ArtistUnicode:保科めぐみ
Creator:-Atri-
Version:Starlight Railway and Shiro's Journey
Source:星空鉄道とシロの旅
Tags:KuranteMelodii krt Firis Mistlud Star Trip Hoshizora Tetsudou to Shiro no Tabi 星シロ hoshishiro しらたま Shiratama しらたまこ Shiratamaco visual novel Japanese Video game pop vn
BeatmapID:2589097
BeatmapSetID:1245569

[Difficulty]
HPDrainRate:6.5
CircleSize:4.7
OverallDifficulty:8
ApproachRate:9.2
SliderMultiplier:2
SliderTickRate:1

[Events]
//Background and Video events
0,0,"BG top.jpg",0,0
Video,-46,"hoshishiro.mp4"
//Break Periods
//Storyboard Layer 0 (Background)
//Storyboard Layer 1 (Fail)
//Storyboard Layer 2 (Pass)
//Storyboard Layer 3 (Foreground)
//Storyboard Layer 4 (Overlay)
//Storyboard Sound Samples

[TimingPoints]
518,405.405405405405,4,2,1,45,1,0
518,-133.333333333333,4,2,1,45,0,0
1126,-200,4,2,1,45,0,0
1734,-133.333333333333,4,2,1,45,0,0
2342,-200,4,2,1,45,0,0
3153,-133.333333333333,4,2,1,45,0,0
4369,-333.333333333333,4,2,1,45,0,0
5382,-100,4,2,1,55,0,0
5585,-90.9090909090909,4,2,1,55,0,0
5686,-90.9090909090909,4,2,1,5,0,0
5788,-100,4,2,1,55,0,0
6599,-66.6666666666667,4,2,2,75,0,0
6903,-66.6666666666667,4,2,2,5,0,0
7004,-100,4,2,1,65,0,0
7511,-100,4,2,1,5,0,0
7612,-100,4,2,1,65,0,0
7916,-100,4,2,1,5,0,0
8017,-100,4,2,1,65,0,0
8322,-100,4,2,1,5,0,0
8423,-100,4,2,1,65,0,0
9132,-100,4,2,1,5,0,0
9234,-100,4,2,1,65,0,0
9538,-100,4,2,1,5,0,0
9639,-100,4,2,1,65,0,0
9943,-100,4,2,1,5,0,0
10045,-100,4,2,1,65,0,0
10349,-100,4,2,1,5,0,0
10450,-100,4,2,1,65,0,0
10551,-100,4,2,1,5,0,0
10653,-100,4,2,1,65,0,0
10754,-100,4,2,1,5,0,0
10855,-100,4,2,1,65,0,0
11159,-100,4,2,1,5,0,0
11261,-100,4,2,1,65,0,0
11565,-100,4,2,1,5,0,0
11666,-100,4,2,1,65,0,0
11970,-100,4,2,1,5,0,0
12072,-100,4,2,1,65,0,0
12376,-100,4,2,1,5,0,0
12477,-100,4,2,1,65,0,0
13490,-83.3333333333333,4,2,1,65,0,0
13592,-83.3333333333333,4,2,1,5,0,0
13693,-83.3333333333333,4,2,1,65,0,0
13795,-83.3333333333333,4,2,1,5,0,0
13896,-83.3333333333333,4,2,1,65,0,0
13998,-83.3333333333333,4,2,1,5,0,0
14099,-83.3333333333333,4,2,1,65,0,0
14201,-83.3333333333333,4,2,1,5,0,0
14301,-83.3333333333333,4,2,1,65,0,0
15213,-83.3333333333333,4,2,1,5,0,0
15315,-83.3333333333333,4,2,1,65,0,0
15416,-83.3333333333333,4,2,1,5,0,0
15517,-83.3333333333333,4,2,1,65,0,0
15619,-83.3333333333333,4,2,1,5,0,0
15720,-83.3333333333333,4,2,1,65,0,0
16024,-83.3333333333333,4,2,1,5,0,0
16126,-83.3333333333333,4,2,1,65,0,0
16227,-83.3333333333333,4,2,1,5,0,0
16328,-83.3333333333333,4,2,1,65,0,0
16430,-83.3333333333333,4,2,1,5,0,0
16531,-83.3333333333333,4,2,1,65,0,0
18355,-133.333333333333,4,2,1,65,0,0
19977,-133.333333333333,4,2,2,65,0,0
20382,-200,4,2,1,45,0,0
31936,-200,4,2,1,50,0,0
32342,-133.333333333333,4,2,1,50,0,0
32443,-133.333333333333,4,2,1,5,0,0
32545,-133.333333333333,4,2,1,50,0,0
32849,-133.333333333333,4,2,1,5,0,0
32950,-100,4,2,1,55,0,0
36092,-100,4,2,1,5,0,0
36193,-100,4,2,1,55,0,0
36497,-100,4,2,1,5,0,0
36599,-100,4,2,1,55,0,0
42680,-100,4,2,1,65,0,0
44403,-100,4,2,1,5,0,0
44504,-100,4,2,1,65,0,0
44605,-100,4,2,1,5,0,0
44707,-100,4,2,1,65,0,0
45213,-100,4,2,1,5,0,0
45315,-100,4,2,1,65,0,0
45923,-133.333333333333,4,2,1,50,0,0
46024,-133.333333333333,4,2,1,5,0,0
46126,-133.333333333333,4,2,1,50,0,0
46227,-133.333333333333,4,2,1,5,0,0
46328,-133.333333333333,4,2,1,50,0,0
47038,-133.333333333333,4,2,1,5,0,0
47139,-133.333333333333,4,2,1,50,0,0
47646,-133.333333333333,4,2,1,5,0,0
47747,-133.333333333333,4,2,1,50,0,0
49267,-133.333333333333,4,2,1,5,0,0
49369,-133.333333333333,4,2,1,50,0,0
49470,-133.333333333333,4,2,1,5,0,0
49571,-133.333333333333,4,2,1,50,0,0
50281,-133.333333333333,4,2,1,5,0,0
50382,-133.333333333333,4,2,1,50,0,0
50889,-133.333333333333,4,2,1,5,0,0
50990,-133.333333333333,4,2,1,50,0,0
51295,-133.333333333333,4,2,1,5,0,0
51396,-133.333333333333,4,2,1,50,0,0
52409,-133.333333333333,4,2,1,45,0,0
55450,-117.647058823529,4,2,1,65,0,0
55754,-117.647058823529,4,2,1,5,0,0
55855,-117.647058823529,4,2,1,65,0,0
55957,-117.647058823529,4,2,1,5,0,0
56058,-117.647058823529,4,2,1,65,0,0
56362,-117.647058823529,4,2,1,5,0,0
56463,-117.647058823529,4,2,1,65,0,0
56767,-117.647058823529,4,2,1,5,0,0
56869,-117.647058823529,4,2,1,65,0,0
57781,-117.647058823529,4,2,1,5,0,0
57882,-117.647058823529,4,2,1,65,0,0
58186,-117.647058823529,4,2,1,5,0,0
58288,-117.647058823529,4,2,1,65,0,0
60619,-117.647058823529,4,2,1,5,0,0
60720,-117.647058823529,4,2,1,65,0,0
61328,-333.333333333333,4,2,1,65,0,0
62139,-83.3333333333333,4,2,1,75,0,1
62443,-83.3333333333333,4,2,1,5,0,1
62545,-83.3333333333333,4,2,1,75,0,1
62646,-83.3333333333333,4,2,1,5,0,1
62747,-83.3333333333333,4,2,1,75,0,1
63254,-83.3333333333333,4,2,1,5,0,1
63355,-83.3333333333333,4,2,1,75,0,1
63457,-83.3333333333333,4,2,1,5,0,1
63558,-83.3333333333333,4,2,1,75,0,1
63659,-83.3333333333333,4,2,1,5,0,1
63761,-83.3333333333333,4,2,1,75,0,1
64673,-83.3333333333333,4,2,1,5,0,1
64774,-83.3333333333333,4,2,1,75,0,1
64876,-83.3333333333333,4,2,1,5,0,1
64977,-83.3333333333333,4,2,1,75,0,1
65686,-83.3333333333333,4,2,1,5,0,1
65788,-83.3333333333333,4,2,1,75,0,1
65889,-83.3333333333333,4,2,1,5,0,1
65990,-83.3333333333333,4,2,1,75,0,1
66092,-83.3333333333333,4,2,1,5,0,1
66193,-83.3333333333333,4,2,1,75,0,1
66497,-83.3333333333333,4,2,1,5,0,1
66599,-83.3333333333333,4,2,1,75,0,1
67105,-83.3333333333333,4,2,1,5,0,1
67207,-83.3333333333333,4,2,1,75,0,1
67308,-83.3333333333333,4,2,1,5,0,1
67409,-83.3333333333333,4,2,1,75,0,1
67511,-83.3333333333333,4,2,1,5,0,1
67612,-83.3333333333333,4,2,1,75,0,1
68524,-83.3333333333333,4,2,1,5,0,1
68626,-83.3333333333333,4,2,1,75,0,1
68930,-83.3333333333333,4,2,1,5,0,1
69031,-83.3333333333333,4,2,1,75,0,1
69538,-83.3333333333333,4,2,1,5,0,1
69639,-83.3333333333333,4,2,1,75,0,1
70146,-83.3333333333333,4,2,1,5,0,1
70247,-83.3333333333333,4,2,1,75,0,1
70551,-83.3333333333333,4,2,1,5,0,1
70653,-83.3333333333333,4,2,1,75,0,1
72781,-83.3333333333333,4,2,1,5,0,1
72882,-83.3333333333333,4,2,1,75,0,1
72984,-83.3333333333333,4,2,1,5,0,1
73085,-83.3333333333333,4,2,1,75,0,1
73288,-66.6666666666667,4,2,1,75,0,1
73592,-66.6666666666667,4,2,1,5,0,1
73693,-66.6666666666667,4,2,1,75,0,1
73997,-66.6666666666667,4,2,1,5,0,1
74099,-83.3333333333333,4,2,1,75,0,1
74301,-83.3333333333333,4,2,1,75,0,0
74504,-100,4,2,1,75,0,0
74605,-100,4,2,1,5,0,0
74707,-100,4,2,1,75,0,0
75112,-83.3333333333333,4,2,1,75,0,1
75416,-83.3333333333333,4,2,1,5,0,1
75518,-83.3333333333333,4,2,1,75,0,1
75619,-83.3333333333333,4,2,1,5,0,1
75720,-83.3333333333333,4,2,1,75,0,1
76227,-83.3333333333333,4,2,1,5,0,1
76328,-83.3333333333333,4,2,1,75,0,1
76430,-83.3333333333333,4,2,1,5,0,1
76531,-83.3333333333333,4,2,1,75,0,1
76632,-83.3333333333333,4,2,1,5,0,1
76734,-83.3333333333333,4,2,1,75,0,1
77038,-83.3333333333333,4,2,1,5,0,1
77139,-83.3333333333333,4,2,1,75,0,1
77240,-83.3333333333333,4,2,1,5,0,1
77342,-83.3333333333333,4,2,1,75,0,1
77545,-83.3333333333333,4,2,1,75,0,1
78355,-66.6666666666667,4,2,1,75,0,1
78457,-66.6666666666667,4,2,1,5,0,1
78558,-66.6666666666667,4,2,1,75,0,1
78761,-90.9090909090909,4,2,1,75,0,1
78862,-90.9090909090909,4,2,1,5,0,1
78963,-90.9090909090909,4,2,1,75,0,1
79065,-90.9090909090909,4,2,1,5,0,1
79369,-90.9090909090909,4,2,1,75,0,1
79470,-90.9090909090909,4,2,1,5,0,1
79572,-90.9090909090909,4,2,1,75,0,1
79774,-83.3333333333333,4,2,1,75,0,1
81599,-90.9090909090909,4,2,1,75,0,1
84436,-66.6666666666667,4,2,1,75,0,1
84842,-90.9090909090909,4,2,1,75,0,1
85146,-90.9090909090909,4,2,1,5,0,1
85247,-90.9090909090909,4,2,1,75,0,1
86159,-90.9090909090909,4,2,1,5,0,1
86261,-66.6666666666667,4,2,1,75,0,1
86362,-66.6666666666667,4,2,1,5,0,1
86463,-66.6666666666667,4,2,1,75,0,1
86767,-66.6666666666667,4,2,1,5,0,1
86869,-66.6666666666667,4,2,1,75,0,1
87173,-66.6666666666667,4,2,1,5,0,1
87274,-66.6666666666667,4,2,1,75,0,1
88085,-90.9090909090909,4,2,1,75,0,1
88186,-90.9090909090909,4,2,1,5,0,1
88288,-90.9090909090909,4,2,1,75,0,1
88693,-90.9090909090909,4,2,1,75,0,1
88795,-90.9090909090909,4,2,1,5,0,1
89099,-90.9090909090909,4,2,1,75,0,1
89200,-90.9090909090909,4,2,1,5,0,1
89301,-90.9090909090909,4,2,1,75,0,1
89808,-90.9090909090909,4,2,1,5,0,1
89909,-90.9090909090909,4,2,1,75,0,1
91531,-90.9090909090909,4,2,1,50,0,1
91936,-90.9090909090909,4,2,1,55,0,1
92342,-90.9090909090909,4,2,1,60,0,1
92747,-90.9090909090909,4,2,1,70,0,1
92950,-66.6666666666667,4,2,1,70,0,1
93051,-66.6666666666667,4,2,1,5,0,1
93153,-66.6666666666667,4,2,1,70,0,1
93355,-133.333333333333,4,2,1,70,0,1
94166,-200,4,2,1,70,0,1
94572,-83.3333333333333,4,2,1,65,0,0
94673,-83.3333333333333,4,2,1,5,0,0
94774,-83.3333333333333,4,2,1,65,0,0
94876,-83.3333333333333,4,2,1,5,0,0
94977,-83.3333333333333,4,2,1,65,0,0
95079,-83.3333333333333,4,2,1,5,0,0
95180,-83.3333333333333,4,2,1,65,0,0
95282,-83.3333333333333,4,2,1,5,0,0
95382,-83.3333333333333,4,2,1,65,0,0
96497,-83.3333333333333,4,2,1,5,0,0
96598,-83.3333333333333,4,2,1,65,0,0
96700,-83.3333333333333,4,2,1,5,0,0
96801,-83.3333333333333,4,2,1,65,0,0
97105,-83.3333333333333,4,2,1,5,0,0
97207,-83.3333333333333,4,2,1,65,0,0
97308,-83.3333333333333,4,2,1,5,0,0
97409,-83.3333333333333,4,2,1,65,0,0
97511,-83.3333333333333,4,2,1,5,0,0
97612,-83.3333333333333,4,2,1,65,0,0
97916,-83.3333333333333,4,2,1,5,0,0
98017,-83.3333333333333,4,2,1,65,0,0
98119,-83.3333333333333,4,2,1,5,0,0
98220,-83.3333333333333,4,2,1,65,0,0
99538,-83.3333333333333,4,2,1,5,0,0
99639,-66.6666666666667,4,2,1,65,0,0
99740,-66.6666666666667,4,2,1,5,0,0
99842,-66.6666666666667,4,2,1,65,0,0
99943,-66.6666666666667,4,2,1,5,0,0
100045,-66.6666666666667,4,2,1,65,0,0
100247,-100,4,2,1,65,0,0
100349,-100,4,2,1,5,0,0
100450,-100,4,2,1,65,0,0
100551,-100,4,2,1,5,0,0
100653,-100,4,2,1,65,0,0
100855,-192.307692307692,4,2,1,65,0,0
104604,-192.307692307692,4,2,1,5,0,0

[Colours]
Combo1 : 95,0,189
Combo2 : 127,114,0
Combo3 : 255,255,128
Combo4 : 128,255,255
Combo5 : 0,11,189
Combo6 : 191,177,222

[HitObjects]
56,70,518,6,0,P|44:33|7:10,2,75.0000028610231,2|0|0,2:0|2:0|2:0,2:0:0:0:
99,128,1126,6,0,L|92:183,2,50,2|0|0,2:0|2:0|2:0,2:0:0:0:
167,87,1734,6,0,P|193:58|236:53,2,75.0000028610231,2|0|0,2:0|2:0|2:0,2:0:0:0:
107,137,2342,6,0,L|100:192,2,50,2|0|0,2:0|2:0|2:0,2:0:0:0:
36,233,2950,5,2,2:0:0:0:
94,271,3153,2,0,P|148:269|165:282,1,75.0000028610231,2|0,2:0|2:0,2:0:0:0:
196,373,3558,6,0,B|190:388|157:385|149:358|171:325|223:330|202:343|256:350|296:304|301:240|235:238|211:277|239:310,1,225.000008583069,2|0,2:0|2:0,2:0:0:0:
297,370,4369,6,0,P|360:357|421:354,1,119.999996337891,2|0,2:0|2:0,2:0:0:0:
488,372,5382,6,0,P|488:345|477:316,1,50,0|0,1:0|3:0,2:0:0:0:
420,282,5585,2,0,P|416:258|431:278,1,55.0000016784668,8|0,2:0|2:0,2:0:0:0:
500,131,5788,6,0,P|493:98|497:65,2,66.6666666666667,0|2|2,1:0|2:0|2:0,2:0:0:0:
490,213,6193,5,0,1:0:0:0:
470,197,6295,1,0,1:0:0:0:
447,188,6396,1,8,3:0:0:0:
422,186,6497,1,8,3:0:0:0:
350,201,6599,6,0,B|277:191|249:43|386:66|373:142,1,225.000008583069,4|0,2:1|2:0,2:0:0:0:
341,274,7004,6,0,L|347:375,1,100,6|0,1:2|2:0,2:0:0:0:
417,350,7409,2,0,L|412:289,1,50,10|0,2:0|2:0,2:0:0:0:
270,340,7612,6,0,B|180:318|216:387|107:362,1,150,2|0,2:0|2:0,2:0:0:0:
112,363,8017,1,2,2:0:0:0:
88,185,8220,2,0,P|90:167|94:181,1,50,8|0,2:0|2:0,2:0:0:0:
12,244,8423,6,0,B|70:247|101:292|101:292|111:252|181:218,1,200,2|2,2:0|2:0,2:0:0:0:
209,168,9031,2,0,P|186:157|162:157,1,50,8|0,2:0|2:0,2:0:0:0:
39,50,9234,6,0,B|9:18|9:18|-14:74|28:133,1,150,2|0,2:0|2:0,2:0:0:0:
28,135,9639,1,2,2:0:0:0:
176,84,9842,2,0,P|186:61|187:36,1,50,10|0,2:0|2:0,2:0:0:0:
325,36,10045,6,0,B|345:24|350:2|350:2|329:134,1,150,2|0,2:0|2:0,2:0:0:0:
318,124,10450,2,0,P|316:153|336:182,1,50,2|0,2:0|2:0,2:0:0:0:
441,113,10653,2,0,P|414:124|397:155,1,50,10|0,2:0|2:0,2:0:0:0:
510,251,10855,6,0,B|436:247|436:247|422:244|422:244|323:239,1,150,2|0,2:0|2:0,2:0:0:0:
344,240,11261,1,2,2:0:0:0:
416,360,11463,2,0,P|418:331|398:302,1,50,10|0,2:0|2:0,2:0:0:0:
271,235,11666,6,0,B|254:339|254:339|259:317|280:305,1,150,2|0,2:0|2:0,2:0:0:0:
296,296,12072,1,0,1:0:0:0:
204,192,12274,6,0,L|148:192,1,50,8|0,2:0|2:0,2:0:0:0:
90,339,12477,5,2,1:2:0:0:
72,350,12578,1,0,1:0:0:0:
81,332,12680,1,8,2:0:0:0:
160,370,12882,5,2,3:2:0:0:
171,347,12984,1,0,3:0:0:0:
190,331,13085,5,8,2:3:0:0:
180,272,13186,1,8,2:3:0:0:
120,260,13288,1,0,1:0:0:0:
60,251,13389,1,0,1:0:0:0:
42,194,13490,6,0,P|26:154|31:120,1,59.9999981689454,6|0,1:2|2:0,2:0:0:0:
113,19,13693,2,0,P|132:6|123:23,1,59.9999981689454,0|0,2:0|2:0,2:0:0:0:
17,68,13896,6,0,P|59:74|86:95,1,59.9999981689454,10|0,2:0|2:0,2:0:0:0:
146,92,14099,2,0,P|186:76|220:81,1,59.9999981689454,2|0,2:0|2:0,2:0:0:0:
256,20,14301,5,2,1:2:0:0:
104,151,14504,1,0,2:0:0:0:
256,216,14707,1,10,2:0:0:0:
408,151,14909,6,0,B|472:107|405:56|328:74|328:170,1,179.999994506836,14|0,2:0|2:0,2:0:0:0:
244,88,15315,6,0,P|258:121|262:161,1,59.9999981689454,2|0,1:2|2:0,2:0:0:0:
439,219,15517,2,0,P|472:205|512:201,1,59.9999981689454,10|0,2:0|2:0,2:0:0:0:
271,288,15720,6,0,B|327:307|332:353|332:353|334:308|391:293,1,179.999994506836,6|0,2:0|2:0,2:0:0:0:
457,292,16126,6,0,P|447:332|421:356,1,59.9999981689454,2|0,1:2|1:0,2:0:0:0:
262,363,16328,2,0,P|263:372|260:360,1,59.9999981689454,10|0,2:0|2:0,2:0:0:0:
408,151,16531,6,0,P|408:77|426:27,1,119.999996337891,6|0,2:0|1:0,2:0:0:0:
443,14,16835,1,0,1:0:0:0:
438,41,16936,1,0,3:0:0:0:
350,202,17139,6,0,B|280:190|303:229|221:217,1,119.999996337891,8|0,2:0|1:0,2:0:0:0:
205,206,17443,1,8,2:0:0:0:
191,178,17545,1,0,1:2:0:0:
24,297,17747,6,0,P|35:275|79:262,1,59.9999981689454,10|8,2:0|2:0,2:0:0:0:
147,377,17950,1,2,1:2:0:0:
133,350,18051,1,0,1:0:0:0:
128,321,18153,1,2,1:2:0:0:
134,291,18254,1,0,1:0:0:0:
131,218,18355,6,0,B|99:169|57:187|71:206|-7:178|-39:115|12:32|94:29|94:29|80:77|117:122|117:122|76:111|57:116,1,450.000017166138,4|0,1:2|2:0,2:0:0:0:
24,367,19977,5,4,2:3:0:0:
24,367,20382,2,0,P|37:331|35:310,1,50,2|0,2:0|2:0,2:0:0:0:
111,317,20788,2,0,P|101:279|88:263,1,50,2|0,2:0|2:0,2:0:0:0:
178,342,21193,1,2,2:0:0:0:
178,342,21396,1,2,2:0:0:0:
244,257,21599,6,0,B|344:246|290:294|393:285,2,150,2|2|2,2:0|2:0|2:0,2:0:0:0:
24,367,23220,5,2,2:0:0:0:
36,319,23626,2,0,P|34:344|24:367,1,50,2|0,2:0|2:0,2:0:0:0:
95,270,24031,2,0,P|107:292|111:317,1,50,2|0,2:0|2:0,2:0:0:0:
26,248,24436,1,2,2:0:0:0:
26,248,24639,1,2,2:0:0:0:
140,209,24842,6,0,P|141:107|160:56,2,150,2|2|2,2:0|2:0|2:0,2:0:0:0:
256,368,26463,6,0,B|275:331|266:299|266:299|245:310|252:332,1,100,2|2,2:0|2:0,2:0:0:0:
184,366,27072,2,0,P|249:331|427:306,1,250,2|0,2:0|2:0,2:0:0:0:
421,305,29301,5,2,2:0:0:0:
413,371,29504,1,2,2:0:0:0:
487,277,29707,6,0,B|478:228|512:205|512:205|505:228,2,100,2|2|2,2:0|2:0|2:0,2:0:0:0:
487,277,30923,1,2,2:0:0:0:
421,305,31126,1,2,2:0:0:0:
341,235,31328,6,0,P|327:193|337:139,1,100,2|0,2:0|2:0,2:0:0:0:
395,43,31936,5,2,2:0:0:0:
400,54,32038,1,0,2:0:0:0:
407,64,32139,1,8,2:3:0:0:
446,124,32342,6,0,P|427:140|401:133,1,37.5000014305115,0|0,1:0|2:0,2:0:0:0:
320,64,32545,2,0,P|279:29|223:44,1,112.500004291535,8|0,2:3|2:0,2:0:0:0:
216,55,32950,6,0,L|228:163,1,100,6|0,2:0|2:0,2:0:0:0:
285,199,33355,1,0,1:2:0:0:
223,226,33558,1,2,3:2:0:0:
150,131,33761,1,2,1:2:0:0:
88,104,33963,1,0,2:0:0:0:
7,208,34166,2,0,P|65:202|97:241,1,100,10|2,2:0|3:2,2:0:0:0:
145,280,34470,1,0,3:0:0:0:
156,286,34572,6,0,L|147:391,1,100,2|0,1:2|2:0,2:0:0:0:
227,308,34977,1,0,1:0:0:0:
167,211,35180,2,0,P|161:153|200:121,1,100,2|0,2:0|1:0,2:0:0:0:
256,112,35585,1,2,3:0:0:0:
80,81,35788,2,0,B|56:45|87:8|87:8|136:19|146:71,1,150,10|0,2:0|2:0,2:0:0:0:
149,65,36193,6,0,P|63:85|24:151,1,150,2|0,1:2|2:0,2:0:0:0:
16,140,36599,1,0,1:0:0:0:
92,249,36801,2,0,P|115:222|74:183,1,100,2|0,3:2|1:0,2:0:0:0:
21,234,37207,1,2,2:0:0:0:
77,81,37409,1,8,2:0:0:0:
222,172,37612,1,0,3:0:0:0:
236,185,37713,1,0,3:0:0:0:
255,190,37815,5,2,1:2:0:0:
333,145,38017,1,2,2:0:0:0:
354,57,38220,1,2,1:2:0:0:
470,101,38423,5,2,2:0:0:0:
445,94,38524,1,0,2:0:0:0:
420,99,38626,2,0,L|429:220,1,100,0|2,1:0|3:0,2:0:0:0:
441,219,38930,1,0,2:0:0:0:
447,194,39031,1,10,2:0:0:0:
329,210,39234,1,2,2:0:0:0:
412,384,39436,5,2,1:2:0:0:
308,327,39639,1,0,2:0:0:0:
499,302,39842,6,0,P|440:293|399:314,1,100,2|0,1:2|3:0,2:0:0:0:
412,384,40247,1,0,1:0:0:0:
412,384,40653,5,10,2:0:0:0:
308,327,40855,1,0,3:0:0:0:
499,302,41058,6,0,P|440:293|399:314,1,100,2|0,1:2|2:0,2:0:0:0:
256,248,41463,2,0,L|256:144,1,100,0|0,1:0|2:0,2:0:0:0:
256,0,41869,5,2,1:2:0:0:
328,128,42072,1,2,3:0:0:0:
184,128,42274,1,8,2:0:0:0:
256,72,42477,1,0,3:0:0:0:
256,80,42578,1,0,3:0:0:0:
256,88,42680,6,0,P|184:72|184:48,1,100,4|0,1:2|1:0,2:0:0:0:
49,20,43085,1,8,2:0:0:0:
167,47,43288,1,0,3:0:0:0:
182,61,43389,1,0,3:0:0:0:
189,76,43490,6,0,P|151:139|128:132,1,100,0|0,1:0|1:0,2:0:0:0:
82,91,43896,1,8,2:0:0:0:
189,209,44099,6,0,P|160:254|134:346,1,150,4|0,1:2|2:0,2:0:0:0:
136,369,44504,2,0,P|148:345|149:318,1,50,8|0,2:0|2:0,2:0:0:0:
66,213,44707,1,8,2:0:0:0:
64,187,44808,1,8,0:0:0:0:
86,199,44909,2,0,L|76:267,1,50,0|0,1:0|1:0,2:0:0:0:
34,361,45112,6,0,P|54:343|65:318,1,50,0|0,1:0|2:0,2:0:0:0:
216,312,45315,1,0,1:0:0:0:
256,344,45416,1,0,1:0:0:0:
296,312,45517,6,0,B|343:310|343:310|348:306|348:306|400:305,1,100,8|0,2:0|2:0,2:0:0:0:
469,143,45923,6,0,P|453:123|452:99,1,37.5000014305115,12|0,2:0|2:0,2:0:0:0:
441,5,46126,2,0,P|425:25|424:49,1,37.5000014305115,8|0,2:0|2:0,2:0:0:0:
381,95,46328,1,8,2:0:0:0:
384,102,46531,5,0,3:0:0:0:
380,108,46632,1,0,3:0:0:0:
375,114,46734,1,2,1:2:0:0:
299,18,46936,2,0,P|318:34|324:57,1,37.5000014305115,8|0,2:0|2:0,2:0:0:0:
300,119,47139,1,2,1:2:0:0:
177,74,47342,6,0,B|108:68|135:100|60:99,1,112.500004291535,4|0,1:2|2:0,2:0:0:0:
54,87,47747,1,0,1:0:0:0:
160,145,47950,1,10,2:0:0:0:
165,154,48051,1,0,2:0:0:0:
163,165,48153,1,0,1:0:0:0:
168,174,48254,1,0,1:0:0:0:
170,184,48355,6,0,P|209:168|248:171,1,75.0000028610231,10|0,2:0|1:0,2:0:0:0:
90,173,48761,1,10,2:0:0:0:
78,172,48862,1,8,0:0:0:0:
66,171,48963,1,0,1:0:0:0:
71,379,49166,6,0,P|87:359|88:335,1,37.5000014305115,8|0,2:0|2:0,2:0:0:0:
43,241,49369,2,0,P|59:261|60:285,1,37.5000014305115,8|0,2:0|2:0,2:0:0:0:
131,289,49572,1,8,2:0:0:0:
128,282,49774,5,0,3:0:0:0:
132,276,49876,1,0,3:0:0:0:
137,270,49977,1,2,1:2:0:0:
213,366,50180,2,0,P|194:350|188:327,1,37.5000014305115,8|0,2:0|2:0,2:0:0:0:
212,265,50382,1,2,1:2:0:0:
326,376,50585,6,0,B|329:319|329:319|327:316|327:316|332:256,1,112.500004291535,4|0,2:0|2:0,2:0:0:0:
338,252,50990,1,0,1:0:0:0:
428,286,51193,6,0,P|400:300|389:297,1,37.5000014305115,8|0,2:0|2:0,2:0:0:0:
286,200,51396,2,0,L|289:149,1,37.5000014305115,2|0,1:2|1:0,2:0:0:0:
422,74,51599,5,10,2:0:0:0:
436,70,51700,1,8,2:0:0:0:
449,75,51801,1,0,1:0:0:0:
455,88,51903,1,2,2:0:0:0:
409,138,52004,5,8,2:0:0:0:
359,149,52105,1,0,1:0:0:0:
330,102,52207,1,2,1:2:0:0:
279,93,52308,1,0,1:0:0:0:
256,24,52409,5,2,1:2:0:0:
247,95,52815,1,0,1:0:0:0:
182,25,53017,5,0,2:0:0:0:
173,96,53220,1,2,1:2:0:0:
116,53,53423,5,0,2:0:0:0:
98,50,53524,1,2,1:2:0:0:
191,164,53727,5,0,2:0:0:0:
209,161,53828,1,2,1:2:0:0:
82,245,54031,5,2,1:2:0:0:
91,316,54436,1,0,1:0:0:0:
156,246,54639,5,0,2:0:0:0:
165,317,54842,1,2,1:2:0:0:
222,274,55045,5,0,2:0:0:0:
240,271,55146,1,2,1:2:0:0:
256,280,55247,1,8,2:0:0:0:
388,168,55450,6,0,P|373:231|379:305,1,127.50000243187,4|0,1:2|2:0,2:0:0:0:
383,305,55855,2,0,P|390:291|377:254,1,42.5000008106232,0|0,1:0|2:0,2:0:0:0:
287,145,56058,1,10,2:0:0:0:
300,161,56159,1,0,2:0:0:0:
318,172,56261,2,0,P|350:182|374:180,1,42.5000008106232,0|0,3:0|2:0,2:0:0:0:
453,121,56463,6,0,B|409:100|402:79|402:79|392:100|325:112,1,127.50000243187,2|0,1:2|2:0,2:0:0:0:
332,94,56869,1,10,2:0:0:0:
135,116,57072,6,0,B|140:90|188:34|249:82|245:145|175:148,1,170.000003242493,4|0,1:2|1:0,2:0:0:0:
152,205,57578,1,0,2:0:0:0:
143,213,57680,2,0,P|136:199|104:192,1,42.5000008106232,8|0,2:0|2:0,2:0:0:0:
65,86,57882,2,0,P|57:106|66:125,1,42.5000008106232,2|0,3:2|3:0,2:0:0:0:
39,189,58085,6,0,L|45:248,1,42.5000008106232,2|0,1:2|2:0,2:0:0:0:
112,364,58288,1,0,1:0:0:0:
99,347,58389,1,2,2:0:0:0:
98,326,58490,2,0,L|104:267,1,42.5000008106232,8|0,2:0|1:0,2:0:0:0:
30,299,58693,2,0,P|18:310|21:294,1,42.5000008106232,2|0,1:2|1:0,2:0:0:0:
162,155,58896,5,4,2:0:0:0:
341,221,59099,1,0,1:0:0:0:
162,155,59301,1,0,1:0:0:0:
332,17,59504,5,4,2:0:0:0:
181,77,59707,1,0,1:0:0:0:
332,17,59909,1,0,1:0:0:0:
452,142,60112,6,0,B|429:160|429:160|411:135|433:98,1,85.0000016212464,4|0,2:0|3:0,2:0:0:0:
422,39,60416,1,0,3:0:0:0:
442,40,60517,6,0,P|468:50|483:68,1,42.5000008106232,8|0,2:0|2:0,2:0:0:0:
499,280,60720,1,0,1:0:0:0:
479,208,60822,1,0,1:0:0:0:
429,262,60923,1,4,3:0:0:0:
448,333,61328,6,0,L|386:331,1,59.9999981689454,2|2,2:0|2:0,2:0:0:0:
380,333,62139,6,0,B|277:354|320:287|200:309,1,179.999994506836,4|0,1:0|2:0,2:0:0:0:
122,349,62545,2,0,B|115:383|115:383|134:346,1,59.9999981689454,8|0,2:0|2:0,2:0:0:0:
188,225,62747,1,0,2:0:0:0:
201,313,62950,1,0,1:0:0:0:
117,208,63153,6,0,P|111:242|130:269,1,59.9999981689454,2|0,2:0|2:0,2:0:0:0:
204,145,63355,2,0,P|230:167|263:164,1,59.9999981689454,10|0,2:0|2:0,2:0:0:0:
192,38,63558,2,0,P|224:26|238:-3,1,59.9999981689454,2|0,2:0|2:0,2:0:0:0:
58,27,63761,6,0,B|43:105|74:65|63:153,1,119.999996337891,0|0,1:0|2:0,2:0:0:0:
1,191,64065,1,0,2:0:0:0:
0,176,64166,1,8,2:0:0:0:
189,118,64369,1,0,2:0:0:0:
56,289,64572,6,0,P|44:253|54:228,1,59.9999981689454,2|0,1:2|2:0,2:0:0:0:
128,126,64774,2,0,L|201:132,1,59.9999981689454,2|0,2:0|2:0,2:0:0:0:
322,57,64977,6,0,B|328:36|328:36|289:48|280:90|297:128,1,119.999996337891,10|0,2:0|3:0,2:0:0:0:
276,200,65281,1,0,3:0:0:0:
265,186,65382,6,0,B|371:201|322:127|442:152,1,179.999994506836,4|0,1:2|2:0,2:0:0:0:
494,205,65788,2,0,P|491:225|490:207,1,59.9999981689454,2|0,1:2|2:0,2:0:0:0:
393,32,65990,6,0,P|428:70|429:96,1,59.9999981689454,10|0,2:0|2:0,2:0:0:0:
431,159,66193,1,0,1:0:0:0:
507,24,66396,6,0,P|506:67|493:116,1,59.9999981689454,10|0,2:0|2:0,2:0:0:0:
430,168,66599,1,0,1:0:0:0:
511,341,66801,6,0,B|446:345|427:374|427:374|407:340|336:321,1,179.999994506836,4|0,2:0|2:0,2:0:0:0:
300,368,67207,2,0,P|288:334|295:301,1,59.9999981689454,0|0,1:0|2:0,2:0:0:0:
421,274,67409,2,0,P|443:264|431:285,1,59.9999981689454,8|0,2:0|2:0,2:0:0:0:
359,333,67612,1,0,2:0:0:0:
225,197,67815,5,2,1:2:0:0:
247,216,67916,1,0,1:0:0:0:
258,243,68017,1,0,1:0:0:0:
151,381,68220,5,8,2:0:0:0:
186,359,68322,1,0,1:0:0:0:
200,319,68423,2,0,L|190:239,1,59.9999981689454,2|0,1:2|2:0,2:0:0:0:
56,167,68626,6,0,B|37:156|13:167|13:167|39:200|94:190|70:165|121:168|152:192,1,179.999994506836,4|0,1:2|2:0,2:0:0:0:
158,196,69031,1,8,2:0:0:0:
142,42,69234,1,0,2:0:0:0:
120,109,69436,6,0,B|140:110|153:116|153:116|161:108|175:104,1,59.9999981689454,2|0,1:2|2:0,2:0:0:0:
256,64,69639,1,0,2:0:0:0:
264,48,69740,2,0,B|268:32|256:20|256:20|244:32|248:48,1,59.9999981689454,2|8,2:0|2:0,2:0:0:0:
256,136,69943,1,0,2:0:0:0:
256,152,70045,2,0,B|248:184|264:176|256:216,1,59.9999981689454,2|0,2:0|2:0,2:0:0:0:
176,320,70247,6,0,B|232:336|256:368|256:368|280:336|344:320,1,179.999994506836,2|0,1:2|2:0,2:0:0:0:
352,328,70653,1,10,2:0:0:0:
390,220,70855,2,0,P|363:230|345:256,1,59.9999981689454,0|0,1:0|1:0,2:0:0:0:
450,339,71058,6,0,B|462:358|462:358|411:339|406:281,1,119.999996337891,12|0,2:0|1:0,2:0:0:0:
422,161,71362,1,0,3:3:0:0:
428,152,71463,2,0,B|445:83|419:98|436:33,1,119.999996337891,8|0,2:0|3:0,2:0:0:0:
259,256,71869,6,0,P|219:261|194:189,1,119.999996337891,4|0,1:2|2:3,2:0:0:0:
207,142,72173,1,0,3:3:0:0:
215,175,72274,1,8,2:0:0:0:
63,277,72477,5,2,2:0:0:0:
74,288,72578,1,0,2:0:0:0:
79,302,72680,2,0,L|71:370,1,59.9999981689454,2|0,1:2|2:0,2:0:0:0:
88,157,72882,2,0,L|96:216,1,59.9999981689454,0|0,1:2|2:0,2:0:0:0:
141,272,73085,1,10,2:0:0:0:
33,27,73288,6,0,B|-22:11|-53:99|39:134|113:87|106:6,1,225.000008583069,4|0,1:2|2:0,2:0:0:0:
103,10,73693,1,0,1:0:0:0:
178,177,73896,6,0,P|156:128|156:98,1,75.0000028610231,8|0,2:0|2:0,2:0:0:0:
176,37,74099,2,0,L|243:25,1,59.9999981689454,0|0,3:0|3:0,2:0:0:0:
256,144,74301,5,8,2:0:0:0:
256,160,74403,1,0,2:0:0:0:
256,176,74504,2,0,L|256:240,1,50,0|0,1:0|2:0,2:0:0:0:
303,359,74707,5,8,2:0:0:0:
312,291,74808,1,8,2:0:0:0:
256,251,74909,1,0,1:0:0:0:
200,291,75011,1,0,1:0:0:0:
209,359,75112,6,0,B|312:380|269:313|389:335,1,179.999994506836,4|0,1:0|2:0,2:0:0:0:
457,383,75517,2,0,P|476:368|459:331,1,59.9999981689454,8|0,2:0|2:0,2:0:0:0:
312,291,75720,1,0,2:0:0:0:
382,341,75923,1,0,1:0:0:0:
404,208,76126,6,0,P|410:242|391:269,1,59.9999981689454,2|0,2:0|2:0,2:0:0:0:
317,145,76328,2,0,P|291:167|258:164,1,59.9999981689454,10|0,2:0|2:0,2:0:0:0:
329,38,76531,2,0,P|297:26|283:-3,1,59.9999981689454,2|0,2:0|2:0,2:0:0:0:
160,24,76734,5,2,1:2:0:0:
175,33,76835,2,0,B|191:98|191:98|200:132|172:162,1,119.999996337891,0|0,1:0|2:0,2:0:0:0:
171,216,77139,2,0,P|128:197|118:165,1,59.9999981689454,10|0,2:0|2:0,2:0:0:0:
57,195,77342,2,0,P|44:221|18:236,1,59.9999981689454,0|0,1:0|1:0,2:0:0:0:
13,373,77545,5,10,2:0:0:0:
58,334,77646,1,0,1:0:0:0:
117,326,77747,1,0,1:0:0:0:
176,338,77849,1,0,1:0:0:0:
227,368,77950,5,10,2:0:0:0:
186,323,78051,1,8,2:0:0:0:
216,271,78153,1,0,3:0:0:0:
275,283,78254,1,0,3:0:0:0:
289,344,78355,6,0,P|281:311|287:270,1,75.0000028610231,4|0,1:2|2:0,2:0:0:0:
248,143,78558,2,0,P|255:116|264:143,1,75.0000028610231,0|0,1:0|1:0,2:0:0:0:
314,206,78761,6,0,L|393:200,1,55.0000016784668,8|0,2:0|2:0,2:0:0:0:
455,195,78963,2,0,P|462:168|448:139,1,55.0000016784668,8|0,1:2|2:0,2:0:0:0:
59,143,79369,6,0,P|49:168|57:195,1,55.0000016784668,8|0,1:2|2:0,2:0:0:0:
141,210,79572,1,0,1:0:0:0:
162,59,79774,6,0,B|197:103|169:142|169:142|109:127|117:51,1,179.999994506836,4|0,1:2|2:0,2:0:0:0:
53,7,80180,6,0,P|88:13|116:-1,1,59.9999981689454,0|0,1:0|2:0,2:0:0:0:
259,46,80382,2,0,P|265:74|256:102,1,59.9999981689454,8|0,2:0|2:0,2:0:0:0:
208,240,80585,5,0,3:0:0:0:
256,208,80686,1,0,3:0:0:0:
304,240,80788,1,8,2:0:0:0:
256,384,80990,1,0,1:0:0:0:
258,310,81193,5,8,2:0:0:0:
279,304,81294,1,8,2:0:0:0:
298,314,81395,1,0,1:0:0:0:
319,308,81497,1,0,1:0:0:0:
389,281,81599,6,0,B|381:211|408:228|400:162,1,110.000003356934,2|0,1:2|2:0,2:0:0:0:
369,31,82004,1,8,2:0:0:0:
389,97,82207,1,0,1:0:0:0:
299,165,82409,5,2,1:3:0:0:
293,132,82511,1,2,2:3:0:0:
274,164,82612,1,2,2:3:0:0:
281,130,82713,1,2,2:3:0:0:
256,64,82815,6,0,L|255:-6,1,55.0000016784668,8|0,2:0|2:0,2:0:0:0:
123,97,83017,1,0,3:0:0:0:
149,116,83119,1,0,3:0:0:0:
161,146,83220,6,0,L|152:219,1,55.0000016784668,2|0,1:2|2:0,2:0:0:0:
152,320,83423,2,0,P|133:283|106:273,1,55.0000016784668,2|0,2:0|2:0,2:0:0:0:
4,195,83626,1,8,2:0:0:0:
79,211,83828,1,0,1:0:0:0:
213,219,84031,5,2,1:3:0:0:
219,252,84132,1,2,2:3:0:0:
238,220,84234,1,2,2:3:0:0:
231,254,84335,1,2,2:3:0:0:
256,320,84436,6,0,B|347:321|296:376|403:368,1,150.000005722046,8|0,2:0|3:0,2:0:0:0:
445,320,84740,1,8,0:0:0:0:
400,378,84842,6,0,B|445:378|462:336|462:336|444:236,1,165.000005035401,4|0,1:2|2:0,2:0:0:0:
431,236,85247,1,8,2:0:0:0:
378,153,85450,2,0,P|380:97|412:43,1,110.000003356934,2|0,2:0|1:0,2:0:0:0:
487,25,85855,1,2,2:0:0:0:
404,60,86058,2,0,P|374:66|350:51,1,55.0000016784668,2|0,1:2|2:0,2:0:0:0:
263,86,86261,6,0,L|277:7,1,75.0000028610231,8|0,2:3|2:0,2:0:0:0:
195,32,86463,1,0,1:0:0:0:
118,107,86666,6,0,L|132:186,1,75.0000028610231,8|0,2:3|2:0,2:0:0:0:
62,55,86869,1,0,1:0:0:0:
250,78,87072,2,0,P|277:86|250:95,1,75.0000028610231,8|0,2:3|2:0,2:0:0:0:
210,173,87274,5,0,1:0:0:0:
123,192,87477,1,0,1:0:0:0:
256,248,87680,5,8,2:0:0:0:
276,257,87781,1,8,2:0:0:0:
297,250,87882,1,0,1:0:0:0:
317,259,87984,1,0,1:0:0:0:
381,243,88085,6,0,L|443:240,1,55.0000016784668,6|0,1:2|2:0,2:0:0:0:
504,253,88288,1,0,1:0:0:0:
509,237,88389,1,0,1:0:0:0:
502,221,88490,1,10,2:0:0:0:
362,314,88693,6,0,P|400:323|412:309,1,55.0000016784668,2|0,1:3|2:0,2:0:0:0:
410,323,89099,2,0,P|386:335|363:322,1,55.0000016784668,2|0,1:3|2:0,2:0:0:0:
256,352,89301,1,8,2:0:0:0:
123,192,89504,6,0,P|161:137|157:37,1,165.000005035401,4|0,1:2|2:0,2:0:0:0:
152,30,89909,1,0,1:0:0:0:
76,58,90112,1,8,2:0:0:0:
209,239,90315,6,0,B|226:181|146:125|87:179|87:179|142:199,1,220.000006713867,4|10,1:2|2:0,2:0:0:0:
133,191,90822,1,8,2:0:0:0:
143,187,90923,1,2,1:2:0:0:
62,352,91126,5,4,1:2:0:0:
62,352,91531,5,0,1:0:0:0:
183,323,91734,1,0,1:0:0:0:
19,229,91936,5,0,1:0:0:0:
204,254,92139,1,0,1:0:0:0:
35,81,92342,5,0,1:0:0:0:
239,195,92545,1,8,2:0:0:0:
390,57,92747,5,0,1:0:0:0:
332,235,92950,6,0,P|343:193|329:157,1,75.0000028610231,8|0,2:0|2:0,2:0:0:0:
273,125,93153,1,0,1:0:0:0:
176,305,93355,6,0,B|171:287|153:275|153:275|294:298|294:298|272:280|267:260,1,225.000008583069,4|0,2:0|2:0,2:0:0:0:
222,212,94166,6,0,P|256:196|290:198,1,50,8|0,2:0|2:0,2:0:0:0:
470,194,94572,6,0,P|486:154|481:120,1,59.9999981689454,6|0,1:2|2:0,2:0:0:0:
399,19,94774,2,0,P|380:6|389:23,1,59.9999981689454,0|0,2:0|2:0,2:0:0:0:
495,68,94977,6,0,P|453:74|426:95,1,59.9999981689454,10|0,2:0|2:0,2:0:0:0:
366,92,95180,2,0,P|326:76|292:81,1,59.9999981689454,2|0,2:0|2:0,2:0:0:0:
256,20,95382,5,2,1:2:0:0:
408,151,95585,1,0,2:0:0:0:
256,216,95788,1,10,2:0:0:0:
107,155,95990,6,0,B|111:95|111:95|108:86|108:86|114:21,1,119.999996337891,14|0,2:0|1:0,2:0:0:0:
131,7,96295,1,0,1:0:0:0:
143,35,96396,6,0,P|136:77|114:95,1,59.9999981689454,10|0,2:0|2:0,2:0:0:0:
0,214,96599,2,0,P|39:198|66:208,1,59.9999981689454,10|0,2:0|2:0,2:0:0:0:
241,288,96801,6,0,B|185:307|180:353|180:353|178:308|121:293,1,179.999994506836,6|0,2:0|2:0,2:0:0:0:
55,292,97207,6,0,P|65:332|91:356,1,59.9999981689454,2|0,1:2|1:0,2:0:0:0:
250,363,97409,2,0,P|249:372|252:360,1,59.9999981689454,10|0,2:0|2:0,2:0:0:0:
107,155,97612,6,0,B|120:80|193:89|193:89|207:122|175:159,1,179.999994506836,6|0,2:0|2:0,2:0:0:0:
166,162,98017,2,0,L|99:153,1,59.9999981689454,2|0,1:2|2:0,2:0:0:0:
256,32,98220,5,10,2:0:0:0:
283,63,98322,1,0,3:0:0:0:
318,85,98423,1,0,1:0:0:0:
359,91,98524,1,8,2:0:0:0:
400,82,98626,5,2,1:2:0:0:
359,108,98727,1,0,3:0:0:0:
371,154,98828,1,10,2:0:0:0:
420,157,98930,1,8,2:0:0:0:
437,112,99031,5,2,1:2:0:0:
431,180,99132,1,0,1:0:0:0:
493,152,99234,6,0,P|415:194|389:285,1,179.999994506836,4|0,1:2|2:0,2:0:0:0:
413,345,99639,6,0,B|444:342|444:342|447:337|447:337|455:342|455:342|459:339|459:339|497:334,1,75.0000028610231,8|0,2:0|2:0,2:0:0:0:
325,211,99842,2,0,B|294:208|294:208|291:203|291:203|283:208|283:208|279:205|279:205|241:200,1,75.0000028610231,8|0,2:0|2:0,2:0:0:0:
62,335,100045,5,0,1:0:0:0:
80,343,100146,1,0,1:0:0:0:
99,340,100247,2,0,P|126:309|125:293,1,50,8|0,2:0|2:0,2:0:0:0:
146,183,100450,2,0,L|151:252,1,50,2|0,1:2|2:0,2:0:0:0:
199,292,100653,1,2,1:2:0:0:
221,108,100855,6,0,B|195:83|198:40|209:33|209:33|235:29|263:43|275:67|275:67|305:52|338:47|372:56|372:56|376:30|395:5|416:1|416:1|415:0|415:0|435:11|454:45|437:84|437:84|450:105|448:214|409:193|387:216|377:293|413:364|413:364|425:300|449:246|508:303|530:253|535:182|505:170|485:234,1,961.999994128418,4|0,1:0|2:0,2:0:0:0:
