osu file format v14

[General]
AudioFilename: audio.mp3
AudioLeadIn: 0
PreviewTime: 19876
Countdown: 0
SampleSet: Soft
StackLeniency: 0.5
Mode: 0
LetterboxInBreaks: 0
WidescreenStoryboard: 1

[Editor]
Bookmarks: 19977,60517
DistanceSpacing: 0.5
BeatDivisor: 4
GridSize: 4
TimelineZoom: 2.1

[Metadata]
Title:Startrip
TitleUnicode:スタートリップ
Artist:Hoshina Megumi
ArtistUnicode:保科めぐみ
Creator:-Atri-
Version:Insane
Source:星空鉄道とシロの旅
Tags:KuranteMelodii krt Firis Mistlud Star Trip Hoshizora Tetsudou to Shiro no Tabi 星シロ hoshishiro しらたま Shiratama しらたまこ Shiratamaco visual novel Japanese Video game pop vn
BeatmapID:2589668
BeatmapSetID:1245569

[Difficulty]
HPDrainRate:6
CircleSize:4
OverallDifficulty:7
ApproachRate:9
SliderMultiplier:1.8
SliderTickRate:1

[Events]
//Background and Video events
Video,-46,"hoshishiro.mp4"
0,0,"BG hard to insane.jpg",0,0
//Break Periods
//Storyboard Layer 0 (Background)
//Storyboard Layer 1 (Fail)
//Storyboard Layer 2 (Pass)
//Storyboard Layer 3 (Foreground)
//Storyboard Layer 4 (Overlay)
//Storyboard Sound Samples

[TimingPoints]
518,405.405405405405,4,2,1,45,1,0
518,-133.333333333333,4,2,1,45,0,0
3558,-166.666666666667,4,2,1,45,0,0
5382,-133.333333333333,4,2,1,55,0,0
5484,-133.333333333333,4,2,1,5,0,0
5585,-133.333333333333,4,2,1,55,0,0
5686,-133.333333333333,4,2,1,5,0,0
5788,-133.333333333333,4,2,1,55,0,0
6599,-76.9230769230769,4,2,2,75,0,0
6903,-76.9230769230769,4,2,2,5,0,0
7004,-100,4,2,1,65,0,0
8727,-100,4,2,1,5,0,0
8828,-100,4,2,1,65,0,0
10349,-100,4,2,1,5,0,0
10450,-100,4,2,1,65,0,0
11159,-100,4,2,1,5,0,0
11261,-100,4,2,1,65,0,0
12781,-100,4,2,1,5,0,0
12882,-100,4,2,1,65,0,0
12984,-100,4,2,1,5,0,0
13085,-100,4,2,1,65,0,0
13490,-83.3333333333333,4,2,1,65,0,0
15213,-83.3333333333333,4,2,1,5,0,0
15315,-83.3333333333333,4,2,1,65,0,0
16024,-83.3333333333333,4,2,1,5,0,0
16126,-83.3333333333333,4,2,1,65,0,0
18355,-133.333333333333,4,2,1,65,0,0
19977,-200,4,2,2,65,0,0
20078,-200,4,2,1,45,0,0
23220,-222.222222222222,4,2,1,45,0,0
26463,-250,4,2,1,45,0,0
31936,-250,4,2,1,50,0,0
32545,-133.333333333333,4,2,1,50,0,0
32849,-133.333333333333,4,2,1,5,0,0
32950,-100,4,2,1,55,0,0
36497,-100,4,2,1,5,0,0
36599,-100,4,2,1,55,0,0
38930,-100,4,2,1,5,0,0
39031,-100,4,2,1,55,0,0
42680,-100,4,2,1,65,0,0
44403,-100,4,2,1,5,0,0
44504,-100,4,2,1,65,0,0
44605,-100,4,2,1,5,0,0
44707,-100,4,2,1,65,0,0
45213,-100,4,2,1,5,0,0
45315,-100,4,2,1,65,0,0
45923,-100,4,2,1,50,0,0
46936,-133.333333333333,4,2,1,50,0,0
52409,-133.333333333333,4,2,1,45,0,0
55349,-133.333333333333,4,2,1,5,0,0
55450,-100,4,2,1,65,0,0
55754,-100,4,2,1,5,0,0
55855,-100,4,2,1,65,0,0
57376,-100,4,2,1,5,0,0
57477,-100,4,2,1,65,0,0
61328,-133.333333333333,4,2,1,65,0,0
62139,-83.3333333333333,4,2,1,75,0,1
64065,-83.3333333333333,4,2,1,5,0,1
64166,-83.3333333333333,4,2,1,75,0,1
67105,-83.3333333333333,4,2,1,5,0,1
67207,-83.3333333333333,4,2,1,75,0,1
68930,-83.3333333333333,4,2,1,5,0,1
69031,-83.3333333333333,4,2,1,75,0,1
69943,-83.3333333333333,4,2,1,5,0,1
70045,-83.3333333333333,4,2,1,75,0,1
70551,-83.3333333333333,4,2,1,5,0,1
70653,-83.3333333333333,4,2,1,75,0,1
71869,-66.6666666666667,4,2,1,75,0,1
72173,-66.6666666666667,4,2,1,5,0,1
72274,-66.6666666666667,4,2,1,75,0,1
73288,-83.3333333333333,4,2,1,75,0,1
73592,-83.3333333333333,4,2,1,5,0,1
73693,-83.3333333333333,4,2,1,75,0,1
74301,-83.3333333333333,4,2,1,75,0,0
74403,-83.3333333333333,4,2,1,5,0,0
74504,-83.3333333333333,4,2,1,75,0,0
74605,-83.3333333333333,4,2,1,5,0,0
74707,-83.3333333333333,4,2,1,75,0,0
75112,-83.3333333333333,4,2,1,75,0,1
77038,-83.3333333333333,4,2,1,5,0,1
77139,-83.3333333333333,4,2,1,75,0,1
80078,-83.3333333333333,4,2,1,5,0,1
80180,-83.3333333333333,4,2,1,75,0,1
85754,-83.3333333333333,4,2,1,5,0,1
85855,-83.3333333333333,4,2,1,75,0,1
86362,-83.3333333333333,4,2,1,5,0,1
86463,-83.3333333333333,4,2,1,75,0,1
86767,-83.3333333333333,4,2,1,5,0,1
86869,-83.3333333333333,4,2,1,75,0,1
87173,-83.3333333333333,4,2,1,5,0,1
87274,-83.3333333333333,4,2,1,75,0,1
91531,-83.3333333333333,4,2,1,50,0,1
91936,-83.3333333333333,4,2,1,55,0,1
92342,-83.3333333333333,4,2,1,60,0,1
92747,-83.3333333333333,4,2,1,70,0,1
92950,-100,4,2,1,70,0,1
93355,-133.333333333333,4,2,1,70,0,1
94166,-200,4,2,1,70,0,1
94572,-83.3333333333333,4,2,1,65,0,0
97105,-83.3333333333333,4,2,1,5,0,0
97207,-83.3333333333333,4,2,1,65,0,0
98119,-83.3333333333333,4,2,1,5,0,0
98220,-83.3333333333333,4,2,1,65,0,0
98727,-83.3333333333333,4,2,1,5,0,0
98828,-83.3333333333333,4,2,1,65,0,0
100855,-153.846153846154,4,2,1,65,0,0
104604,-153.846153846154,4,2,1,5,0,0

[Colours]
Combo1 : 95,0,189
Combo2 : 127,114,0
Combo3 : 255,255,128
Combo4 : 128,255,255
Combo5 : 0,11,189
Combo6 : 191,177,222

[HitObjects]
441,244,518,6,0,P|472:219|476:189,2,67.5000025749207,2|0|0,2:0|2:0|2:0,2:0:0:0:
366,269,1126,2,0,L|291:261,2,67.5000025749207,2|0|0,2:0|2:0|2:0,2:0:0:0:
438,320,1734,6,0,P|469:345|473:375,2,67.5000025749207,2|0|0,2:0|2:0|2:0,2:0:0:0:
360,284,2342,2,0,L|285:276,2,67.5000025749207,2|0|0,2:0|2:0|2:0,2:0:0:0:
441,244,2950,5,2,2:0:0:0:
381,181,3153,2,0,L|392:105,1,67.5000025749207,2|0,2:0|2:0,2:0:0:0:
475,27,3558,6,0,B|521:44|482:73|412:61|378:4,1,161.999995056152,2|0,2:0|2:0,2:0:0:0:
306,88,4369,2,0,B|352:71|313:42|243:54|209:111,1,161.999995056152,2|0,2:0|2:0,2:0:0:0:
90,6,5382,6,0,P|97:14|101:40,1,33.7500012874604,0|0,1:0|2:0,2:0:0:0:
12,64,5585,2,0,P|23:66|43:83,1,33.7500012874604,8|0,2:0|2:0,2:0:0:0:
109,115,5788,6,0,L|101:183,2,45.0000017166138,0|2|2,1:0|2:0|2:0,2:0:0:0:
169,65,6193,6,0,P|184:63|177:70,1,33.7500012874604,0|0,1:0|1:0,2:0:0:0:
36,204,6396,1,8,3:0:0:0:
41,221,6497,1,8,3:0:0:0:
45,237,6599,6,0,B|76:220|163:234|86:277|174:279|222:272,1,175.499991966248,4|0,2:1|2:0,2:0:0:0:
256,212,7004,6,0,L|256:116,1,90,6|0,1:2|2:0,2:0:0:0:
256,40,7409,1,10,2:0:0:0:
328,136,7612,2,0,P|376:112|416:112,1,90,2|0,2:0|1:2,2:0:0:0:
184,136,8017,2,0,P|136:112|96:112,1,90,2|8,2:0|2:0,2:0:0:0:
55,278,8423,6,0,B|39:317|74:337|74:337|111:325|104:284,1,135,2|0,2:0|2:0,2:0:0:0:
102,278,8828,1,2,2:0:0:0:
80,105,9031,1,8,2:0:0:0:
7,191,9234,2,0,B|62:186|52:209|121:201,1,90,2|0,2:0|1:2,2:0:0:0:
198,180,9639,1,2,2:0:0:0:
188,323,9842,1,10,2:0:0:0:
306,257,10045,6,0,B|384:252|351:296|478:287,1,135,2|0,2:0|2:0,2:0:0:0:
457,283,10450,1,2,2:0:0:0:
373,303,10653,1,10,2:0:0:0:
420,209,10855,6,0,P|420:158|437:64,1,135,2|0,2:0|2:0,2:0:0:0:
450,59,11261,1,2,2:0:0:0:
343,183,11463,1,10,2:0:0:0:
256,48,11666,6,0,L|152:40,1,90,2|0,2:0|1:0,2:0:0:0:
55,32,12072,1,0,1:0:0:0:
55,32,12173,1,0,2:0:0:0:
55,32,12274,2,0,P|52:77|74:65,1,90,8|2,2:0|1:2,2:0:0:0:
135,19,12578,1,0,1:0:0:0:
143,28,12680,6,0,L|154:88,1,45,8|0,2:0|2:0,2:0:0:0:
15,147,12882,2,0,L|26:207,1,45,2|0,3:2|3:0,2:0:0:0:
140,342,13085,5,8,2:3:0:0:
97,354,13186,1,8,2:3:0:0:
72,317,13288,1,0,1:0:0:0:
99,281,13389,1,0,1:0:0:0:
142,297,13490,6,0,B|208:294|178:329|265:321,1,107.999996704102,6|0,1:2|2:0,2:0:0:0:
409,308,13896,1,10,2:0:0:0:
228,238,14099,1,2,2:0:0:0:
414,313,14301,5,2,1:2:0:0:
427,231,14504,1,0,2:0:0:0:
333,367,14707,1,10,2:0:0:0:
322,172,14909,6,0,B|325:85|307:-13,1,161.999995056153,14|0,2:0|2:0,2:0:0:0:
298,1,15315,1,2,1:2:0:0:
398,55,15517,1,10,2:0:0:0:
136,113,15720,6,0,B|98:136|62:122|54:47|111:28|157:37,1,161.999995056153,6|0,2:0|2:0,2:0:0:0:
127,23,16126,2,0,B|187:17|179:45|243:42,1,107.999996704102,2|10,1:2|2:0,2:0:0:0:
322,172,16531,6,0,P|261:142|212:170,1,107.999996704102,6|0,2:0|1:0,2:0:0:0:
210,169,16835,1,0,1:0:0:0:
212,190,16936,1,0,3:0:0:0:
227,343,17139,1,8,2:0:0:0:
54,212,17342,5,0,1:0:0:0:
54,212,17443,1,8,2:0:0:0:
54,212,17545,1,0,1:2:0:0:
218,262,17747,1,10,2:0:0:0:
68,361,17950,1,2,1:2:0:0:
130,282,18153,1,2,1:2:0:0:
40,135,18355,6,0,B|25:109|26:79|37:53|37:53|67:56|92:73|106:96|106:96|152:85|198:92|236:112|236:112|237:94|249:79|265:74|265:74|283:84|290:106|283:124,1,405.000015449525,4|0,1:2|2:0,2:0:0:0:
482,166,19977,6,0,B|492:129|483:96|483:96|455:127|427:142|404:116|369:114|369:114|390:150|397:181|365:194|352:227|352:227|393:217|426:221|428:256|455:279|455:279|459:237|472:207|506:215|536:196|536:196|521:193|486:171,1,630,4|2,0:3|0:0,0:0:0:0:
256,64,23220,6,0,B|279:61|298:49|298:49|284:66|279:104|279:104|293:139|309:154|309:154|289:147|251:155|251:155|222:177|214:196|214:196|214:176|200:139|200:139|165:121|145:118|145:118|164:113|194:85|194:85|203:49|198:27|198:27|209:45|246:64,1,566.999982696534,2|2,0:0|0:0,0:0:0:0:
92,179,26463,6,0,B|70:130|70:130|38:172|38:172|-14:178|-14:178|16:220|16:220|5:273|5:273|56:257|56:257|101:284|101:284|102:230|102:230|142:196|142:196|105:184,1,504,2|2,0:0|0:0,0:0:0:0:
135,368,29707,6,0,P|162:344|332:342,1,216,2|2,2:0|2:0,2:0:0:0:
397,287,31328,2,0,P|424:321|458:314,1,72,2|0,2:0|2:0,2:0:0:0:
490,255,31936,5,2,2:0:0:0:
490,255,32038,1,0,2:0:0:0:
490,255,32139,1,8,2:3:0:0:
360,215,32342,1,0,1:0:0:0:
492,175,32545,6,0,B|458:174|442:184|442:184|431:163|395:149,1,101.250003862381,8|0,2:3|2:0,2:0:0:0:
378,143,32950,6,0,P|362:90|373:42,1,90,6|0,2:0|2:0,2:0:0:0:
435,11,33355,1,0,1:2:0:0:
441,89,33558,1,2,3:2:0:0:
281,88,33761,2,0,L|266:-2,1,90,2|0,1:2|2:0,2:0:0:0:
299,158,34166,2,0,L|284:248,1,90,10|2,2:0|3:2,2:0:0:0:
293,287,34470,1,0,3:0:0:0:
293,287,34572,6,0,P|242:279|198:296,1,90,2|0,1:2|2:0,2:0:0:0:
155,346,34977,1,0,1:0:0:0:
38,252,35180,2,0,P|89:255|128:282,1,90,2|0,2:0|1:0,2:0:0:0:
152,359,35585,1,2,3:0:0:0:
184,218,35788,2,0,B|191:166|176:180|186:115,1,90,10|0,2:0|2:0,2:0:0:0:
41,60,36193,6,0,B|68:94|118:89|118:89|133:63|181:53,1,135,2|0,1:2|2:0,2:0:0:0:
184,57,36599,1,0,1:0:0:0:
278,119,36801,2,0,P|262:76|264:18,1,90,2|0,3:2|1:0,2:0:0:0:
334,12,37207,1,2,2:0:0:0:
341,173,37409,2,0,P|333:218|302:267,1,90,8|0,2:0|3:0,2:0:0:0:
288,284,37713,1,0,3:0:0:0:
288,284,37815,6,0,L|414:302,1,90,2|2,1:2|2:0,2:0:0:0:
430,361,38220,1,2,1:2:0:0:
476,252,38423,1,2,2:0:0:0:
464,239,38524,1,0,2:0:0:0:
451,226,38626,2,0,P|426:174|427:80,1,135,0|0,1:0|2:0,2:0:0:0:
440,76,39031,1,10,2:0:0:0:
343,168,39234,1,2,2:0:0:0:
194,31,39436,5,2,1:2:0:0:
353,49,39639,1,0,2:0:0:0:
224,104,39842,2,0,P|171:107|133:81,1,90,2|0,1:2|3:0,2:0:0:0:
194,31,40247,1,0,1:0:0:0:
194,31,40653,5,10,2:0:0:0:
256,176,40855,1,0,3:0:0:0:
181,301,41058,6,0,P|136:290|91:309,1,90,2|0,1:2|2:0,2:0:0:0:
16,300,41463,1,0,1:0:0:0:
54,371,41666,1,0,2:0:0:0:
256,261,41869,5,2,3:0:0:0:
256,349,42072,1,2,1:2:0:0:
331,301,42274,2,0,P|376:290|421:309,1,90,8|0,2:0|3:0,2:0:0:0:
441,323,42578,1,0,3:0:0:0:
449,346,42680,5,4,1:2:0:0:
327,216,42882,1,0,1:0:0:0:
431,95,43085,2,0,L|417:190,1,90,8|0,2:0|3:0,2:0:0:0:
415,201,43389,1,0,3:0:0:0:
412,218,43490,5,0,1:0:0:0:
495,169,43693,1,0,1:0:0:0:
374,40,43896,1,8,2:0:0:0:
201,108,44099,6,0,B|119:106|156:154|51:149,1,135,4|0,1:2|2:0,2:0:0:0:
56,141,44504,2,0,P|40:116|42:95,1,45,8|0,2:0|2:0,2:0:0:0:
84,37,44707,1,8,2:0:0:0:
81,26,44808,1,8,2:0:0:0:
78,15,44909,1,0,1:0:0:0:
189,189,45112,6,0,P|165:211|165:229,1,45,0|0,1:0|2:0,2:0:0:0:
51,215,45315,2,0,P|82:223|90:239,1,45,0|0,1:0|1:0,2:0:0:0:
79,356,45517,2,0,P|136:295|173:297,1,90,8|0,2:0|2:0,2:0:0:0:
362,288,45923,5,12,2:0:0:0:
294,156,46126,1,8,2:0:0:0:
215,282,46328,1,8,2:0:0:0:
292,241,46531,1,0,3:0:0:0:
292,241,46632,1,0,3:0:0:0:
292,241,46734,1,2,1:2:0:0:
290,317,46936,2,0,B|291:360|280:355|282:387,1,67.5000025749208,8|2,2:0|1:2,2:0:0:0:
362,203,47342,6,0,P|364:146|390:69,1,135.000005149842,4|0,1:2|1:0,2:0:0:0:
461,48,47950,2,0,P|491:71|472:97,1,67.5000025749208,10|0,2:0|1:0,2:0:0:0:
474,98,48254,1,0,1:0:0:0:
466,100,48355,1,10,2:0:0:0:
383,65,48558,1,0,1:0:0:0:
290,94,48761,1,10,2:0:0:0:
293,107,48862,1,8,0:0:0:0:
294,120,48963,1,0,1:0:0:0:
34,96,49166,5,8,2:0:0:0:
102,228,49369,1,8,2:0:0:0:
181,102,49572,1,8,2:0:0:0:
104,143,49774,1,0,3:0:0:0:
104,143,49876,1,0,3:0:0:0:
104,143,49977,1,2,1:2:0:0:
106,67,50180,2,0,B|105:24|116:29|114:-3,1,67.5000025749208,8|2,2:0|1:2,2:0:0:0:
176,187,50585,6,0,P|147:242|132:327,1,135.000005149842,4|0,2:0|1:0,2:0:0:0:
72,362,51193,1,8,2:0:0:0:
217,321,51396,1,2,1:2:0:0:
217,321,51497,1,0,1:0:0:0:
217,321,51599,2,0,B|265:324|245:342|310:342,1,67.5000025749208,10|0,2:0|1:0,2:0:0:0:
348,377,52004,1,8,2:0:0:0:
354,361,52105,1,0,1:0:0:0:
365,348,52207,1,2,1:2:0:0:
379,339,52308,1,0,1:0:0:0:
398,333,52409,6,0,B|428:338|449:365|449:365|431:272,1,135.000005149842,2|0,1:2|1:0,2:0:0:0:
360,254,53017,1,0,2:0:0:0:
427,215,53220,2,0,B|494:228|469:200|530:206,2,101.250003862381,2|2|2,1:2|1:2|1:2,2:0:0:0:
317,192,54031,6,0,B|287:197|266:224|266:224|284:131,1,135.000005149842,2|0,1:2|1:0,2:0:0:0:
348,118,54639,1,0,2:0:0:0:
287,76,54842,1,2,1:2:0:0:
200,161,55045,1,0,2:0:0:0:
192,148,55146,2,0,P|159:135|126:140,1,67.5000025749208,2|0,1:2|2:0,2:0:0:0:
107,152,55450,6,0,B|36:176|8:114|8:114|18:75,1,135,4|0,1:2|2:0,2:0:0:0:
28,83,55855,1,0,1:0:0:0:
126,225,56058,2,0,L|118:324,1,90,10|0,2:0|3:0,2:0:0:0:
117,337,56362,1,0,3:0:0:0:
115,359,56463,1,2,1:2:0:0:
40,258,56666,2,0,B|37:234|11:231|11:231|1:257|23:272,1,90,0|10,1:0|2:0,2:0:0:0:
204,338,57072,6,0,B|291:338|240:373|340:370,1,135,4|0,1:2|2:0,2:0:0:0:
352,360,57477,1,0,1:0:0:0:
480,237,57680,6,0,B|437:222|420:259|420:259|426:283,1,90,8|2,2:0|3:2,2:0:0:0:
432,299,57984,1,0,3:0:0:0:
437,320,58085,1,2,1:2:0:0:
263,247,58288,1,0,1:0:0:0:
276,264,58389,2,0,B|309:293|339:266|339:266|343:242,1,90,2|0,2:0|1:0,2:0:0:0:
343,227,58693,1,2,1:2:0:0:
256,40,58896,5,4,2:0:0:0:
136,158,59099,2,0,P|88:142|48:142,1,90,0|0,1:0|1:0,2:0:0:0:
256,24,59504,5,4,2:0:0:0:
376,158,59707,2,0,P|424:142|464:142,1,90,0|0,1:0|1:0,2:0:0:0:
256,8,60112,5,4,2:0:0:0:
256,160,60315,1,0,3:0:0:0:
256,168,60416,1,0,3:0:0:0:
256,176,60517,6,0,L|256:280,1,90,8|0,2:0|1:0,2:0:0:0:
272,336,60822,1,0,1:0:0:0:
240,336,60923,1,4,3:0:0:0:
240,336,61328,6,0,B|152:323|185:378|95:364,1,135.000005149842,2|2,2:0|2:0,2:0:0:0:
96,362,62139,6,0,P|52:338|62:254,1,107.999996704102,4|0,1:0|2:0,2:0:0:0:
180,168,62545,1,8,2:0:0:0:
32,209,62747,2,0,B|97:207|70:239|142:236,1,107.999996704102,0|0,2:0|1:0,2:0:0:0:
344,88,63153,5,2,2:0:0:0:
168,88,63355,1,10,2:0:0:0:
256,256,63558,1,2,2:0:0:0:
256,0,63761,6,0,B|254:84|254:84|258:90|258:90|256:167,1,161.999995056153,0|0,1:0|2:0,2:0:0:0:
256,176,64166,2,0,P|213:189|146:153,1,107.999996704102,8|0,2:0|2:0,2:0:0:0:
51,102,64572,1,2,1:2:0:0:
118,231,64774,1,2,2:0:0:0:
256,176,64977,2,0,P|299:163|366:199,1,107.999996704102,10|0,2:0|3:0,2:0:0:0:
386,189,65281,1,0,3:0:0:0:
406,206,65382,6,0,L|391:320,1,107.999996704102,4|0,1:2|2:0,2:0:0:0:
322,253,65788,1,2,1:2:0:0:
461,102,65990,5,10,2:0:0:0:
481,174,66193,1,0,1:2:0:0:
354,22,66396,1,10,2:0:0:0:
323,90,66599,1,0,1:2:0:0:
183,26,66801,6,0,B|81:22|140:73|29:74,1,161.999995056153,4|0,2:0|2:0,2:0:0:0:
14,62,67207,1,0,1:0:0:0:
168,101,67409,1,8,2:0:0:0:
49,226,67612,1,0,2:0:0:0:
100,141,67815,5,2,1:2:0:0:
107,155,67916,1,0,1:0:0:0:
114,169,68017,2,0,L|223:179,1,107.999996704102,0|8,1:0|2:0,2:0:0:0:
237,181,68322,1,0,1:0:0:0:
252,183,68423,1,2,1:2:0:0:
128,357,68626,6,0,B|124:285|196:259|196:259|174:303,1,161.999995056153,4|0,1:2|2:0,2:0:0:0:
182,297,69031,1,8,2:0:0:0:
34,297,69234,1,0,2:0:0:0:
208,376,69436,6,0,P|237:348|267:344,1,53.9999983520508,2|0,1:2|2:0,2:0:0:0:
285,277,69639,1,0,2:0:0:0:
305,272,69740,2,0,B|358:290|356:336|356:336|323:353,1,107.999996704102,2|0,2:0|2:0,2:0:0:0:
325,353,70045,1,2,2:0:0:0:
254,185,70247,6,0,B|275:83|227:118|253:18,1,161.999995056153,2|0,1:2|2:0,2:0:0:0:
265,15,70653,2,0,L|373:8,1,107.999996704102,10|0,2:0|1:0,2:0:0:0:
449,35,70957,1,0,1:0:0:0:
457,47,71058,2,0,B|438:70|432:95|432:95|406:77|370:77,1,107.999996704102,12|0,2:0|1:0,2:0:0:0:
326,194,71463,2,0,B|348:174|358:150|358:150|381:172|416:177,1,107.999996704102,8|0,2:0|3:0,2:0:0:0:
483,285,71869,6,0,B|494:266|530:268|530:268|444:257|444:257|437:254|437:254|345:244,1,202.500007724762,4|0,1:2|2:3,2:0:0:0:
355,268,72274,1,8,2:0:0:0:
256,176,72477,5,2,2:0:0:0:
256,198,72578,1,0,2:0:0:0:
256,222,72680,1,2,1:2:0:0:
139,171,72882,5,0,1:2:0:0:
157,268,73085,1,10,2:0:0:0:
280,80,73288,6,0,B|296:40|256:8|256:8|216:40|232:80,1,161.999995056153,4|0,1:2|2:0,2:0:0:0:
256,88,73693,1,0,1:0:0:0:
160,37,73896,2,0,P|99:34|48:65,1,107.999996704102,8|0,2:0|3:0,2:0:0:0:
29,47,74200,1,0,3:0:0:0:
32,70,74301,6,0,L|38:135,1,53.9999983520508,8|0,2:0|2:0,2:0:0:0:
158,248,74504,2,0,P|185:244|196:220,1,53.9999983520508,0|0,1:0|2:0,2:0:0:0:
43,198,74707,6,0,P|16:202|5:226,1,53.9999983520508,8|8,2:0|2:0,2:0:0:0:
82,333,74909,1,0,1:0:0:0:
89,350,75011,1,0,1:0:0:0:
101,336,75112,6,0,P|176:328|218:334,1,107.999996704102,4|0,1:0|2:0,2:0:0:0:
373,284,75517,2,0,P|342:347|292:326,1,107.999996704102,8|0,2:0|2:0,2:0:0:0:
299,337,75822,1,0,2:0:0:0:
288,324,75923,1,0,1:0:0:0:
344,184,76126,5,2,2:0:0:0:
168,184,76328,1,10,2:0:0:0:
256,16,76531,1,2,2:0:0:0:
256,136,76734,5,2,1:2:0:0:
256,152,76835,2,0,L|256:264,1,107.999996704102,0|0,1:0|2:0,2:0:0:0:
256,288,77139,2,0,P|200:304|144:276,1,107.999996704102,10|0,2:0|1:0,2:0:0:0:
25,97,77545,5,10,2:0:0:0:
8,124,77646,1,0,1:0:0:0:
7,156,77747,1,0,1:0:0:0:
21,184,77849,1,0,1:0:0:0:
46,203,77950,2,0,P|83:199|100:186,1,53.9999983520508,10|8,2:0|2:0,2:0:0:0:
181,53,78153,2,0,P|165:87|168:108,1,53.9999983520508,0|0,3:0|3:0,2:0:0:0:
256,288,78355,5,4,1:2:0:0:
256,152,78558,1,0,1:0:0:0:
256,132,78659,1,0,1:0:0:0:
256,112,78761,1,8,2:0:0:0:
365,251,78963,6,0,B|397:288|387:331|387:331|375:333|365:324,1,107.999996704102,8|0,1:2|2:0,2:0:0:0:
145,325,79369,2,0,B|137:333|125:331|125:331|115:288|147:251,1,107.999996704102,8|0,1:2|1:0,2:0:0:0:
334,131,79774,6,0,B|437:122|387:174|504:161,1,161.999995056153,4|0,1:2|2:0,2:0:0:0:
504,155,80180,1,0,1:0:0:0:
416,170,80382,1,8,2:0:0:0:
400,39,80585,1,0,3:0:0:0:
415,24,80686,1,0,3:0:0:0:
436,20,80788,2,0,B|471:12|471:12|485:50|458:97,1,107.999996704102,8|0,2:0|1:0,2:0:0:0:
478,240,81193,1,8,2:0:0:0:
440,247,81295,1,8,2:0:0:0:
409,269,81396,1,0,1:0:0:0:
390,301,81497,1,0,1:0:0:0:
382,338,81599,6,0,B|426:338|443:354|443:354|457:336|492:332,1,107.999996704102,2|0,1:2|2:0,2:0:0:0:
318,377,82004,1,8,2:0:0:0:
344,221,82207,1,0,1:0:0:0:
266,248,82409,6,0,P|257:286|265:305,1,53.9999983520508,2|2,1:3|2:3,2:0:0:0:
204,341,82612,2,0,P|232:367|252:370,1,53.9999983520508,2|2,2:3|2:3,2:0:0:0:
256,168,82815,2,0,B|265:98|245:118|256:48,1,107.999996704102,8|0,2:0|3:0,2:0:0:0:
256,40,83119,1,0,3:0:0:0:
256,16,83220,5,2,1:2:0:0:
164,132,83423,1,2,2:0:0:0:
29,50,83626,1,8,2:0:0:0:
164,144,83828,1,0,1:0:0:0:
78,154,84031,6,0,P|87:116|79:97,1,53.9999983520508,2|2,1:3|2:3,2:0:0:0:
140,61,84234,2,0,P|111:34|91:31,1,53.9999983520508,2|2,2:3|2:3,2:0:0:0:
33,220,84436,2,0,B|78:226|86:240|86:240|102:221|143:214,1,107.999996704102,8|0,2:0|3:0,2:0:0:0:
150,221,84740,1,8,0:0:0:0:
168,231,84842,6,0,P|191:291|169:346,1,107.999996704102,4|0,1:2|2:0,2:0:0:0:
115,363,85247,1,8,2:0:0:0:
274,282,85450,6,0,B|367:280|323:332|435:330,1,161.999995056153,2|0,2:0|2:0,2:0:0:0:
446,318,85855,1,2,2:0:0:0:
472,241,86058,1,2,1:2:0:0:
372,116,86261,6,0,P|378:96|384:116,1,53.9999983520508,8|0,2:3|2:0,2:0:0:0:
400,196,86463,1,0,1:0:0:0:
274,282,86666,6,0,P|280:302|286:282,1,53.9999983520508,8|0,2:3|2:0,2:0:0:0:
301,199,86869,1,0,1:0:0:0:
285,113,87072,2,0,P|278:93|272:113,1,53.9999983520508,8|0,2:3|2:0,2:0:0:0:
402,204,87274,5,0,1:0:0:0:
303,192,87477,1,0,1:0:0:0:
204,201,87680,1,8,2:0:0:0:
182,202,87781,1,8,2:0:0:0:
160,204,87882,1,0,1:0:0:0:
138,206,87984,1,0,1:0:0:0:
115,208,88085,6,0,B|100:186|100:186|85:142|112:100,1,107.999996704102,6|0,1:2|1:0,2:0:0:0:
122,91,88389,1,0,1:0:0:0:
140,80,88490,1,10,2:0:0:0:
54,253,88693,1,2,1:3:0:0:
54,253,89099,5,2,1:3:0:0:
136,291,89301,1,8,2:0:0:0:
256,120,89504,6,0,B|203:82|256:24|317:89|254:215,1,215.999993408203,4|0,1:2|1:0,2:0:0:0:
212,268,90112,1,8,2:0:0:0:
419,317,90315,6,0,B|472:355|419:413|358:348|421:222,1,215.999993408203,4|10,1:2|2:0,2:0:0:0:
432,214,90822,1,8,2:0:0:0:
450,202,90923,1,2,1:2:0:0:
256,340,91126,5,4,1:2:0:0:
256,340,91531,1,0,1:0:0:0:
136,291,91734,1,0,1:0:0:0:
7,332,91936,1,0,1:0:0:0:
184,356,92139,5,0,1:0:0:0:
240,216,92342,1,0,1:0:0:0:
90,222,92545,5,8,2:0:0:0:
29,32,92747,1,0,1:0:0:0:
20,143,92950,6,0,B|8:157|8:157|51:162|84:115,1,90,8|0,2:0|1:0,2:0:0:0:
210,70,93355,6,0,B|240:52|238:20|238:20|158:22|147:139,1,202.500007724762,4|0,2:0|2:0,2:0:0:0:
123,186,94166,6,0,L|128:243,1,45,8|0,2:0|2:0,2:0:0:0:
328,302,94572,6,0,B|262:299|292:334|205:326,1,107.999996704102,6|0,1:2|2:0,2:0:0:0:
61,313,94977,1,10,2:0:0:0:
242,243,95180,1,2,2:0:0:0:
56,318,95382,5,2,1:2:0:0:
43,236,95585,1,0,2:0:0:0:
137,372,95788,1,10,2:0:0:0:
148,180,95990,6,0,P|156:106|149:59,1,107.999996704102,14|0,2:0|1:0,2:0:0:0:
147,51,96295,1,0,1:0:0:0:
134,33,96396,1,10,2:0:0:0:
55,87,96599,1,10,2:0:0:0:
305,238,96801,6,0,P|335:180|333:75,1,161.999995056153,6|0,2:0|2:0,2:0:0:0:
322,67,97207,1,2,1:2:0:0:
424,111,97409,1,10,2:0:0:0:
148,180,97612,6,0,P|80:197|74:235,1,107.999996704102,6|0,2:0|2:0,2:0:0:0:
125,382,98017,2,0,L|122:321,1,53.9999983520508,2|0,1:2|2:0,2:0:0:0:
231,222,98220,1,10,2:0:0:0:
216,239,98322,1,0,3:0:0:0:
207,259,98423,1,0,1:0:0:0:
203,281,98524,1,8,2:0:0:0:
204,303,98626,6,0,P|227:322|260:321,1,53.9999983520508,2|0,1:2|3:0,2:0:0:0:
414,384,98828,2,0,P|418:355|401:327,1,53.9999983520508,10|8,2:0|2:0,2:0:0:0:
340,295,99031,1,2,1:2:0:0:
343,273,99132,1,0,1:0:0:0:
347,250,99234,6,0,L|359:122,1,107.999996704102,4|0,1:2|2:0,2:0:0:0:
433,253,99639,1,8,2:0:0:0:
231,222,99842,1,8,2:0:0:0:
113,345,100045,1,0,1:0:0:0:
113,362,100146,1,0,1:0:0:0:
114,379,100247,5,8,2:0:0:0:
34,285,100450,1,2,1:2:0:0:
34,285,100653,1,2,1:2:0:0:
190,138,100855,6,0,B|174:154|179:234|247:222|332:190|367:149|439:47|413:-47|261:-52|231:59|326:97|326:97|435:146|481:163|537:202|579:370|460:436|316:378|309:283|387:225,1,1082.24995045853,4|0,1:0|2:0,2:0:0:0:
