osu file format v14

[General]
AudioFilename: audio.mp3
AudioLeadIn: 0
PreviewTime:19876
Countdown: 0
SampleSet: Soft
StackLeniency: 0.4
Mode: 0
LetterboxInBreaks: 0
WidescreenStoryboard: 1

[Editor]
Bookmarks: 19977,60517
DistanceSpacing: 0.4
BeatDivisor: 4
GridSize: 8
TimelineZoom: 2.1

[Metadata]
Title:Startrip
TitleUnicode:スタートリップ
Artist:Hoshina Megumi
ArtistUnicode:保科めぐみ
Creator:-Atri-
Version:Hard
Source:星空鉄道とシロの旅
Tags:KuranteMelodii krt Firis Mistlud Star Trip Hoshizora Tetsudou to Shiro no Tabi 星シロ hoshishiro しらたま Shiratama しらたまこ Shiratamaco visual novel Japanese Video game pop vn
BeatmapID:2589918
BeatmapSetID:1245569

[Difficulty]
HPDrainRate:5
CircleSize:4
OverallDifficulty:6
ApproachRate:7
SliderMultiplier:1.5
SliderTickRate:1

[Events]
//Background and Video events
Video,-46,"hoshishiro.mp4"
0,0,"BG hard to insane.jpg",0,0
//Break Periods
//Storyboard Layer 0 (Background)
//Storyboard Layer 1 (Fail)
//Storyboard Layer 2 (Pass)
//Storyboard Layer 3 (Foreground)
//Storyboard Layer 4 (Overlay)
//Storyboard Sound Samples

[TimingPoints]
518,405.405405405405,4,2,1,45,1,0
518,-125,4,2,1,45,0,0
5382,-125,4,2,1,55,0,0
6599,-125,4,2,2,75,0,0
7004,-100,4,2,1,65,0,0
18355,-133.333333333333,4,2,1,65,0,0
19977,-181.818181818182,4,2,2,65,0,0
20078,-181.818181818182,4,2,1,45,0,0
31936,-181.818181818182,4,2,1,50,0,0
32950,-100,4,2,1,55,0,0
42680,-100,4,2,1,65,0,0
45923,-100,4,2,1,50,0,0
46734,-133.333333333333,4,2,1,50,0,0
52409,-133.333333333333,4,2,1,45,0,0
55450,-117.647058823529,4,2,1,65,0,0
62139,-90.9090909090909,4,2,1,75,0,1
74301,-90.9090909090909,4,2,1,75,0,0
75112,-90.9090909090909,4,2,1,75,0,1
91531,-90.9090909090909,4,2,1,50,0,1
91936,-90.9090909090909,4,2,1,55,0,1
92342,-90.9090909090909,4,2,1,60,0,1
92747,-90.9090909090909,4,2,1,70,0,1
93355,-100,4,2,1,70,0,1
94572,-100,4,2,1,65,0,0
104605,-100,4,2,1,5,0,0

[Colours]
Combo1 : 95,0,189
Combo2 : 127,114,0
Combo3 : 255,255,128
Combo4 : 128,255,255
Combo5 : 0,11,189
Combo6 : 191,177,222

[HitObjects]
52,197,518,6,0,P|75:245|72:323,1,120,2|0,2:0|2:0,2:0:0:0:
125,371,1126,2,0,P|173:348|251:351,1,120,2|0,2:0|2:0,2:0:0:0:
279,284,1734,2,0,P|256:236|259:158,1,120,2|0,2:0|2:0,2:0:0:0:
206,110,2342,2,0,P|158:133|80:130,1,120,2|0,2:0|2:0,2:0:0:0:
17,126,2950,5,2,2:0:0:0:
17,126,3153,1,2,2:0:0:0:
186,35,3558,6,0,B|298:26|228:95|361:89,1,180,2|0,2:0|2:0,2:0:0:0:
403,27,4369,6,0,B|477:48|492:104|478:182|425:188|389:160|410:122|453:134,1,240,2|0,2:0|2:0,2:0:0:0:
503,225,5382,5,0,1:0:0:0:
503,225,5585,2,0,B|457:235|444:247|444:247|426:236|388:231,1,120,8|0,2:0|2:0,2:0:0:0:
344,169,6193,1,0,1:0:0:0:
313,240,6396,1,8,3:0:0:0:
313,240,6497,1,8,3:0:0:0:
313,240,6599,2,0,L|319:315,1,60,4|0,2:1|2:0,2:0:0:0:
221,360,7004,6,0,P|203:327|168:317,1,75,6|0,1:2|2:0,2:0:0:0:
90,314,7409,1,10,2:0:0:0:
28,380,7612,2,0,L|12:296,1,75,2|0,2:0|1:2,2:0:0:0:
71,242,8017,2,0,L|87:158,1,75,2|8,2:0|2:0,2:0:0:0:
31,64,8423,6,0,B|120:65|78:117|188:118,1,150,2|2,2:0|2:0,2:0:0:0:
238,143,9031,1,8,2:0:0:0:
229,67,9234,2,0,B|318:66|276:14|386:13,1,150,2|2,2:0|2:0,2:0:0:0:
398,85,9842,1,10,2:0:0:0:
505,37,10045,6,0,P|491:97|492:187,1,150,2|2,2:0|2:0,2:0:0:0:
461,257,10653,1,10,2:0:0:0:
512,312,10855,2,0,B|483:325|475:361|475:361|453:329|404:318,1,150,2|2,2:0|2:0,2:0:0:0:
335,352,11463,1,10,2:0:0:0:
351,259,11666,6,0,L|362:182,1,75,2|0,2:0|1:0,2:0:0:0:
357,174,11970,1,0,2:0:0:0:
350,164,12072,2,0,L|361:87,1,75,0|8,1:0|2:0,2:0:0:0:
374,19,12477,1,2,1:2:0:0:
374,19,12578,1,0,1:0:0:0:
374,19,12680,1,8,2:0:0:0:
292,59,12882,1,2,3:2:0:0:
216,30,13085,2,0,P|164:24|130:40,1,75,8|0,2:3|1:0,2:0:0:0:
20,28,13490,5,6,1:2:0:0:
79,86,13693,1,0,2:0:0:0:
12,131,13896,2,0,L|22:221,1,75,10|2,2:0|2:0,2:0:0:0:
75,262,14301,2,0,P|45:280|2:280,2,75,2|0|10,1:2|2:0|2:0,2:0:0:0:
141,140,14909,6,0,B|261:143|261:143|301:183,1,150,14|2,2:0|1:2,2:0:0:0:
327,224,15517,1,10,2:0:0:0:
216,286,15720,2,0,B|96:283|96:283|56:243,1,150,6|2,2:0|1:2,2:0:0:0:
30,202,16328,1,10,2:0:0:0:
141,127,16531,6,0,B|261:124|261:124|301:84,1,150,6|0,2:0|3:0,2:0:0:0:
287,29,17139,2,0,P|332:45|354:77,1,75,8|0,2:0|1:0,2:0:0:0:
353,75,17443,1,8,2:0:0:0:
355,86,17545,1,0,1:2:0:0:
332,168,17747,1,10,2:0:0:0:
407,150,17950,2,0,L|491:159,1,75,2|2,1:2|1:2,2:0:0:0:
442,269,18355,6,0,B|380:263|401:291|346:283|346:283|299:245|236:261|220:323|247:355|247:355|291:361|305:325,1,337.500012874604,4|0,1:2|2:0,2:0:0:0:
209,212,19977,6,0,B|207:155|237:101|280:160|291:100|284:56|248:13|248:13|262:70|215:102|215:102|192:52|147:36|97:65|97:65|90:65|90:65|88:116|127:131|154:126,1,577.500017623902,4|2,2:3|2:0,2:0:0:0:
98,272,23220,6,0,B|43:279|0:241|0:241|32:240|69:222|82:195|82:195|157:226|97:268|228:378|320:248|265:191|265:191|218:187|203:220,1,577.500017623902,2|2,2:0|2:0,2:0:0:0:
151,64,26463,6,0,B|141:33|113:21|85:28|85:28|34:151|219:178|167:121|229:93|275:91|275:91|221:61|213:25|213:25|278:-6|335:34,1,577.500017623902,2|2,2:0|2:0,2:0:0:0:
471,20,29707,6,0,P|438:34|338:214,1,247.500007553101,2|2,2:0|2:0,2:0:0:0:
327,341,31328,6,0,P|366:310|367:261,1,82.5000025177003,2|0,2:0|2:0,2:0:0:0:
337,208,31936,1,2,2:0:0:0:
337,208,32139,2,0,L|334:156,1,41.2500012588501,8|0,2:3|1:0,2:0:0:0:
400,99,32545,1,8,2:3:0:0:
509,234,32950,6,0,B|422:228|473:288|342:278,1,150,6|0,2:0|1:2,2:0:0:0:
301,313,33558,1,2,3:2:0:0:
301,313,33761,2,0,L|306:391,1,75,2|0,1:2|2:0,2:0:0:0:
218,348,34166,2,0,L|223:270,1,75,10|2,2:0|3:2,2:0:0:0:
255,171,34572,6,0,P|247:222|163:205,1,150,2|0,1:2|1:0,2:0:0:0:
142,143,35180,2,0,P|134:92|50:109,1,150,2|2,2:0|3:0,2:0:0:0:
26,172,35788,1,10,2:0:0:0:
178,28,36193,6,0,B|251:25|251:25|256:27|256:27|335:24,1,150,2|0,1:2|1:0,2:0:0:0:
405,35,36801,2,0,B|439:13|439:13|448:84|378:102,1,150,2|2,3:2|2:0,2:0:0:0:
315,101,37409,2,0,P|325:138|353:165,1,75,8|0,2:0|3:0,2:0:0:0:
377,180,37713,1,0,3:0:0:0:
391,184,37815,6,0,L|482:180,2,75,2|2|2,1:2|2:0|1:2,2:0:0:0:
317,241,38423,1,2,2:0:0:0:
317,241,38524,1,0,2:0:0:0:
317,241,38626,2,0,B|299:324|361:295|338:388,1,150,0|10,1:0|2:0,2:0:0:0:
269,356,39234,1,2,2:0:0:0:
205,310,39436,6,0,L|211:230,1,75,2|0,1:2|2:0,2:0:0:0:
184,160,39842,2,0,B|232:160|257:137|257:137|280:160|336:160,1,150,2|0,1:2|1:0,2:0:0:0:
190,3,40653,6,0,L|196:78,1,75,10|0,2:0|3:0,2:0:0:0:
184,160,41058,2,0,B|149:159|127:126|127:126|85:114|43:145,1,150,2|0,1:2|1:0,2:0:0:0:
8,205,41666,1,0,2:0:0:0:
8,205,41869,2,0,L|13:279,1,75,2|2,1:2|3:0,2:0:0:0:
81,307,42274,2,0,P|51:345|20:354,1,75,8|0,2:0|3:0,2:0:0:0:
153,342,42680,6,0,L|234:337,2,75,4|0|8,1:2|1:0|2:0,2:0:0:0:
151,268,43288,1,0,3:0:0:0:
151,268,43389,1,0,3:0:0:0:
151,268,43490,2,0,P|134:212|140:189,2,75,0|0|8,1:0|1:0|2:0,2:0:0:0:
256,232,44099,6,0,B|260:165|260:165|250:142|250:142|256:72,1,150,4|8,1:2|2:0,2:0:0:0:
256,8,44707,1,8,2:0:0:0:
256,8,44808,1,8,2:0:0:0:
256,8,44909,1,0,1:0:0:0:
325,48,45112,2,0,P|373:49|412:32,1,75,0|0,1:0|1:0,2:0:0:0:
460,0,45517,2,0,P|476:47|469:74,1,75,8|0,2:0|2:0,2:0:0:0:
413,194,45923,5,12,2:0:0:0:
474,149,46126,1,8,2:0:0:0:
405,117,46328,1,8,2:0:0:0:
421,271,46734,2,0,L|488:274,2,56.2500021457673,2|8|2,1:2|2:0|1:2,2:0:0:0:
357,351,47342,6,0,P|324:317|244:318,1,112.500004291535,4|0,1:2|1:0,2:0:0:0:
202,363,47950,2,0,P|185:311|189:287,1,56.2500021457673,10|0,2:0|1:0,2:0:0:0:
188,296,48254,1,0,1:0:0:0:
194,283,48355,2,0,L|185:218,1,56.2500021457673,10|0,2:0|1:0,2:0:0:0:
118,263,48761,1,10,2:0:0:0:
101,106,49166,5,8,2:0:0:0:
109,183,49369,1,8,2:0:0:0:
40,151,49572,1,8,2:0:0:0:
162,61,49977,2,0,L|165:-6,2,56.2500021457673,2|8|2,1:2|2:0|1:2,2:0:0:0:
208,144,50585,6,0,B|240:142|268:152|268:152|260:127|264:96,1,112.500004291535,4|0,2:0|1:0,2:0:0:0:
256,24,51193,1,8,2:0:0:0:
334,61,51396,1,2,1:2:0:0:
334,61,51497,1,0,1:0:0:0:
334,61,51599,2,0,P|376:40|421:36,2,84.3750032186509,10|2|2,2:0|2:0|1:2,2:0:0:0:
344,178,52409,5,2,1:2:0:0:
344,178,52815,2,0,P|379:196|399:196,1,56.2500021457673,0|0,1:0|2:0,2:0:0:0:
468,176,53220,2,0,L|474:84,2,84.3750032186509,2|2|2,1:2|1:2|1:2,2:0:0:0:
503,273,54031,5,2,1:2:0:0:
503,273,54436,2,0,P|468:255|448:255,1,56.2500021457673,0|0,1:0|2:0,2:0:0:0:
379,275,54842,2,0,L|374:353,1,56.2500021457673,2|0,1:2|2:0,2:0:0:0:
371,344,55146,1,2,1:2:0:0:
365,356,55247,1,8,2:0:0:0:
264,320,55450,6,0,B|188:320|225:362|139:358,1,127.50000243187,4|0,1:2|1:0,2:0:0:0:
61,355,56058,2,0,L|67:271,1,63.7500012159348,10|0,2:0|3:0,2:0:0:0:
58,276,56362,1,0,3:0:0:0:
47,264,56463,2,0,L|53:180,2,63.7500012159348,2|0|10,1:2|1:0|2:0,2:0:0:0:
125,192,57072,6,0,P|96:139|28:130,1,127.50000243187,4|0,1:2|1:0,2:0:0:0:
20,46,57680,1,8,2:0:0:0:
104,46,57882,1,2,3:2:0:0:
104,46,57984,1,0,3:0:0:0:
104,46,58085,2,0,P|192:40|211:30,2,95.6250018239022,2|2|2,1:2|2:0|1:2,2:0:0:0:
182,123,58896,6,0,L|247:115,2,63.7500012159348,4|0|0,2:0|1:0|1:0,2:0:0:0:
112,207,59504,2,0,L|47:199,2,63.7500012159348,4|0|0,2:0|1:0|1:0,2:0:0:0:
200,286,60112,2,0,P|203:329|187:367,1,63.7500012159348,4|0,2:0|3:0,2:0:0:0:
184,357,60416,1,0,3:0:0:0:
170,364,60517,6,0,L|105:356,1,63.7500012159348,8|0,2:0|1:0,2:0:0:0:
90,354,60822,1,0,1:0:0:0:
74,351,60923,1,4,3:0:0:0:
312,318,62139,6,0,B|414:311|384:363|477:353,1,165.000005035401,4|8,1:0|2:0,2:0:0:0:
452,270,62747,1,0,2:0:0:0:
452,270,62950,1,0,1:0:0:0:
370,244,63153,1,2,2:0:0:0:
434,185,63355,2,0,P|449:137|442:95,1,82.5000025177003,10|2,2:0|2:0,2:0:0:0:
369,27,63761,6,0,B|322:26|335:46|285:46,1,82.5000025177003,0|0,1:0|2:0,2:0:0:0:
212,44,64166,2,0,B|211:91|231:78|231:127,1,82.5000025177003,8|0,2:0|2:0,2:0:0:0:
228,198,64572,1,2,1:2:0:0:
228,198,64774,1,2,2:0:0:0:
159,153,64977,2,0,P|111:138|69:145,1,82.5000025177003,10|0,2:0|3:0,2:0:0:0:
60,149,65281,1,0,3:0:0:0:
45,163,65382,6,0,L|53:255,1,82.5000025177003,4|0,1:2|2:0,2:0:0:0:
84,319,65788,1,2,1:2:0:0:
190,272,65990,2,0,L|202:372,1,82.5000025177003,10|0,2:0|1:2,2:0:0:0:
322,272,66396,2,0,L|310:372,1,82.5000025177003,10|0,2:0|1:2,2:0:0:0:
428,319,66801,6,0,B|471:311|471:311|509:259|469:180,1,165.000005035401,4|0,2:0|1:0,2:0:0:0:
491,121,67409,2,0,P|448:123|412:159,1,82.5000025177003,8|0,2:0|2:0,2:0:0:0:
382,212,67815,2,0,L|388:263,2,41.2500012588501,2|0|0,1:2|1:0|1:0,2:0:0:0:
345,141,68220,2,0,L|349:100,2,41.2500012588501,8|0|2,2:0|1:0|1:2,2:0:0:0:
248,200,68626,6,0,B|150:204|198:161|82:161,1,165.000005035401,4|8,1:2|2:0,2:0:0:0:
22,191,69234,1,0,2:0:0:0:
22,191,69436,2,0,P|32:264|26:320,2,123.75000377655,2|2|2,1:2|2:0|2:0,2:0:0:0:
30,116,70247,6,0,P|22:67|40:31,1,82.5000025177003,2|0,1:2|2:0,2:0:0:0:
123,44,70653,2,0,P|131:93|113:129,1,82.5000025177003,10|0,2:0|1:0,2:0:0:0:
103,146,70957,1,0,1:0:0:0:
91,161,71058,2,0,L|210:157,1,82.5000025177003,12|0,2:0|1:0,2:0:0:0:
208,85,71463,2,0,L|327:81,1,82.5000025177003,8|0,2:0|3:0,2:0:0:0:
393,45,71869,6,0,B|400:18|431:5|431:5|496:58|432:119,1,165.000005035401,4|8,1:2|2:0,2:0:0:0:
379,122,72477,1,2,3:2:0:0:
379,122,72680,2,0,B|381:160|381:160|383:163|383:163|385:212,1,82.5000025177003,2|0,1:2|1:2,2:0:0:0:
346,266,73085,1,10,2:0:0:0:
454,266,73288,6,0,P|390:274|298:358,1,165.000005035401,4|0,1:2|1:0,2:0:0:0:
250,384,73896,2,0,P|235:336|243:300,1,82.5000025177003,8|0,2:0|3:0,2:0:0:0:
250,286,74200,1,0,3:0:0:0:
264,271,74301,1,8,2:0:0:0:
166,285,74504,1,0,1:0:0:0:
93,244,74707,2,0,P|72:198|75:161,1,82.5000025177003,8|0,2:0|1:0,2:0:0:0:
34,52,75112,6,0,B|136:59|106:7|199:17,1,165.000005035401,4|8,1:0|2:0,2:0:0:0:
174,100,75720,1,0,2:0:0:0:
174,100,75923,1,0,1:0:0:0:
256,80,76126,1,2,2:0:0:0:
338,100,76328,2,0,L|332:16,1,82.5000025177003,10|2,2:0|2:0,2:0:0:0:
434,41,76734,6,0,P|411:123|405:214,1,165.000005035401,2|10,1:2|2:0,2:0:0:0:
400,284,77342,1,0,1:0:0:0:
480,295,77545,1,10,2:0:0:0:
490,313,77646,1,0,1:0:0:0:
492,333,77747,1,0,1:0:0:0:
489,353,77849,1,0,1:0:0:0:
481,371,77950,2,0,L|391:365,1,82.5000025177003,10|0,2:0|3:0,2:0:0:0:
272,294,78355,6,0,P|291:338|283:384,2,82.5000025177003,4|0|8,1:2|1:0|2:0,2:0:0:0:
196,231,78963,1,8,1:2:0:0:
14,344,79369,2,0,P|12:303|29:266,1,82.5000025177003,8|0,1:2|1:0,2:0:0:0:
17,150,79774,6,0,P|70:151|166:96,1,165.000005035401,4|0,1:2|1:0,2:0:0:0:
155,21,80382,1,8,2:0:0:0:
234,58,80585,1,0,3:0:0:0:
234,58,80686,1,0,3:0:0:0:
234,58,80788,2,0,P|244:104|229:145,1,82.5000025177003,8|0,2:0|1:0,2:0:0:0:
179,193,81193,2,0,L|184:246,3,41.2500012588501,8|8|0|0,2:0|2:0|1:0|1:0,2:0:0:0:
171,251,81599,6,0,B|278:248|217:306|329:297,1,165.000005035401,2|8,1:2|2:0,2:0:0:0:
375,235,82207,1,0,1:0:0:0:
403,307,82409,1,2,1:3:0:0:
411,306,82511,1,2,2:3:0:0:
419,305,82612,1,2,2:3:0:0:
427,304,82713,1,2,2:3:0:0:
434,301,82815,2,0,P|459:244|453:210,1,82.5000025177003,8|0,2:0|3:0,2:0:0:0:
462,109,83220,6,0,L|471:24,2,82.5000025177003,2|2|8,1:2|2:0|2:0,2:0:0:0:
403,163,83828,1,0,1:0:0:0:
375,235,84031,1,2,1:3:0:0:
367,234,84132,1,2,2:3:0:0:
359,233,84234,1,2,2:3:0:0:
351,232,84335,1,2,2:3:0:0:
344,229,84436,2,0,P|319:172|325:138,1,82.5000025177003,8|0,2:0|3:0,2:0:0:0:
331,141,84740,1,8,0:0:0:0:
339,126,84842,6,0,L|330:41,1,82.5000025177003,4|0,1:2|2:0,2:0:0:0:
256,72,85247,1,8,2:0:0:0:
181,43,85450,2,0,L|173:126,1,82.5000025177003,2|0,2:0|1:0,2:0:0:0:
162,203,85855,1,2,2:0:0:0:
100,151,86058,2,0,P|34:147|13:160,1,82.5000025177003,2|8,1:2|2:3,2:0:0:0:
0,237,86463,5,0,1:0:0:0:
0,237,86666,2,0,L|9:323,1,82.5000025177003,8|0,2:3|1:0,2:0:0:0:
76,370,87072,1,8,2:3:0:0:
90,290,87274,1,0,1:0:0:0:
90,290,87477,1,0,1:0:0:0:
150,340,87680,2,0,L|193:334,3,41.2500012588501,8|8|0|0,2:0|2:0|1:0|1:0,2:0:0:0:
208,344,88085,6,0,B|323:336|250:384|380:370,1,165.000005035401,6|10,1:2|2:0,2:0:0:0:
432,328,88693,1,2,1:3:0:0:
240,264,89099,1,2,1:3:0:0:
208,192,89301,1,8,2:0:0:0:
283,111,89504,6,0,B|411:126|411:126|431:110|420:76,1,165.000005035401,4|0,1:2|1:0,2:0:0:0:
370,38,90112,1,8,2:0:0:0:
483,39,90315,2,0,P|498:112|441:200,1,165.000005035401,4|10,1:2|2:0,2:0:0:0:
442,196,90822,1,8,2:0:0:0:
426,200,90923,1,2,1:2:0:0:
471,299,91126,5,4,1:2:0:0:
471,299,91531,1,0,1:0:0:0:
407,346,91734,2,0,L|322:335,1,82.5000025177003,0|0,1:0|1:0,2:0:0:0:
256,376,92139,1,0,1:0:0:0:
256,296,92342,1,0,1:0:0:0:
186,335,92545,2,0,L|105:346,1,82.5000025177003,8|0,2:0|1:0,2:0:0:0:
21,259,92950,5,8,2:0:0:0:
21,259,93153,1,0,1:0:0:0:
8,157,93355,2,0,B|100:183|129:244|129:244|140:182|223:131,1,300,4|8,2:0|2:0,2:0:0:0:
348,21,94572,5,6,1:2:0:0:
289,83,94774,1,0,2:0:0:0:
336,154,94977,2,0,L|426:144,1,75,10|2,2:0|2:0,2:0:0:0:
486,160,95382,2,0,P|485:123|467:91,2,75,2|0|10,1:2|2:0|2:0,2:0:0:0:
404,268,95990,6,0,B|284:265|284:265|244:225,1,150,14|10,2:0|2:0,2:0:0:0:
218,184,96599,1,10,2:0:0:0:
329,122,96801,2,0,B|449:125|449:125|489:165,1,150,6|2,2:0|1:2,2:0:0:0:
501,216,97409,1,10,2:0:0:0:
404,281,97612,6,0,B|284:284|284:284|244:324,1,150,6|2,2:0|1:2,2:0:0:0:
186,353,98220,2,0,L|184:316,3,37.5,10|0|0|8,2:0|3:0|1:2|2:0,2:0:0:0:
176,303,98626,1,2,1:2:0:0:
155,283,98727,1,0,3:0:0:0:
130,271,98828,1,10,2:0:0:0:
102,268,98930,1,8,2:0:0:0:
75,274,99031,1,2,1:2:0:0:
124,189,99234,6,0,B|140:96|99:128|122:35,1,150,4|8,1:2|2:0,2:0:0:0:
198,8,99842,1,8,2:0:0:0:
256,56,100045,1,0,1:0:0:0:
256,64,100146,1,0,1:0:0:0:
256,72,100247,2,0,L|256:152,2,75,8|2|2,2:0|1:2|1:2,2:0:0:0:
392,41,100855,5,4,1:0:0:0:
256,192,100957,12,0,104605,2:0:0:0:
