osu file format v14

[General]
AudioFilename: audio.ogg
AudioLeadIn: 0
PreviewTime: 61210
Countdown: 0
SampleSet: Drum
StackLeniency: 0.7
Mode: 3
LetterboxInBreaks: 0
SpecialStyle: 0
WidescreenStoryboard: 1

[Editor]
DistanceSpacing: 0.3
BeatDivisor: 4
GridSize: 8
TimelineZoom: 1.5

[Metadata]
Title:Star Trip (Short Ver.)
TitleUnicode:スタートリップ (Short Ver.)
Artist:Hoshina Megumi
ArtistUnicode:保科めぐみ
Creator:Muse Dash
Version:Easy
Source:星空鉄道とシロの旅
Tags:Dudehacker Drum-Hitnormal FAMoss Madoka2574 Hoshizora Tetsudou to Shiro no Tabi 星シロ hoshishiro しらたま Shiratama しらたまこ Shiratamaco Visual Novel op opening short version video game Japanese pop jpop j-pop 星空列车与白的旅行 白玉 丸山公詳 maruyama kimiyoshi 七瀬雄一 nanase yuuichi project lights Startrip
BeatmapID:2593735
BeatmapSetID:1247923

[Difficulty]
HPDrainRate:7
CircleSize:4
OverallDifficulty:7
ApproachRate:5
SliderMultiplier:1.4
SliderTickRate:1

[Events]
//Background and Video events
0,0,"mv-w2560-1.jpg",0,0
Video,30,"MOVIE.flv"
//Break Periods
//Storyboard Layer 0 (Background)
//Storyboard Layer 1 (Fail)
//Storyboard Layer 2 (Pass)
//Storyboard Layer 3 (Foreground)
//Storyboard Layer 4 (Overlay)
//Storyboard Sound Samples
Sample,49453,0,"tom03.wav",70
Sample,56142,0,"LR_Drum Rim Fast.wav",70

[TimingPoints]
602,405.405405405405,4,3,1,50,1,0
20061,-100,4,3,2,50,0,0
32223,-100,4,3,1,50,0,0
62223,405.405405405405,4,3,1,50,1,1
94655,-100,4,3,1,50,0,0

[HitObjects]
320,192,602,128,0,1210:0:0:0:0:
192,192,1210,128,0,1818:0:0:0:0:
448,192,1818,128,0,2426:0:0:0:0:
64,192,2426,128,0,3034:0:0:0:0:
192,192,3034,1,0,0:0:0:0:
448,192,3237,128,0,3642:0:0:0:0:
192,192,3642,128,0,4453:0:0:0:0:
320,192,4453,128,0,4858:0:0:0:0:
64,192,4858,1,0,0:0:0:0:
192,192,5061,1,0,0:0:0:0:
320,192,5264,1,0,0:0:0:0:
448,192,5466,1,0,0:0:0:70:tom01.wav
64,192,5669,128,0,6277:0:0:0:70:LR_Drum Rim Fast.wav
192,192,5669,1,0,0:0:0:0:
448,192,6277,1,0,0:0:0:70:tom04.wav
192,192,6480,1,2,0:0:0:0:
320,192,6683,128,8,7088:0:0:0:0:
448,192,6683,1,0,0:0:0:0:
64,192,7088,1,4,0:0:0:0:
192,192,7088,1,2,0:0:0:0:
448,192,7291,1,0,0:0:0:0:
192,192,7493,1,10,0:0:0:0:
320,192,7696,1,0,0:0:0:0:
64,192,8101,1,0,0:0:0:0:
320,192,8507,1,0,0:0:0:0:
448,192,8912,1,0,0:0:0:0:
64,192,9318,1,0,0:0:0:0:
64,192,9723,1,0,0:0:0:70:tom03.wav
192,192,9926,1,10,0:0:0:0:
320,192,10129,1,0,0:0:0:70:tom04.wav
448,192,10534,1,0,0:0:0:0:
448,192,10737,1,10,0:0:0:0:
192,192,10939,1,0,0:0:0:0:
64,192,11345,1,0,0:0:0:70:tom01.wav
192,192,11547,1,10,0:0:0:0:
320,192,11750,1,0,0:0:0:70:tom02.wav
448,192,11750,1,0,0:0:0:0:
448,192,12561,1,0,0:0:0:70:tom02.wav
192,192,12966,1,0,0:0:0:70:tom02.wav
320,192,13169,1,10,0:0:0:0:
64,192,13574,1,2,0:0:0:0:
448,192,13574,128,0,13980:0:0:0:50:Crash 1.wav
320,192,13980,1,10,0:0:0:0:
192,192,14183,128,0,14588:0:0:0:0:
448,192,14588,1,0,0:0:0:0:
64,192,14791,1,10,0:0:0:0:
320,192,14993,1,4,0:0:0:0:
448,192,14993,128,0,15399:0:0:0:0:
64,192,15399,1,0,0:0:0:0:
320,192,15601,1,10,0:0:0:0:
64,192,15804,128,0,16210:0:0:0:70:LR_Drum Rim Fast.wav
192,192,15804,1,0,0:0:0:50:Crash 1.wav
448,192,16210,1,0,0:0:0:0:
192,192,16412,1,10,0:0:0:0:
320,192,16615,128,4,17223:0:0:0:0:
448,192,16615,1,0,0:0:0:0:
64,192,17223,128,10,17831:0:0:0:0:
320,192,17831,1,0,0:0:0:70:LR_Drum Rim Fast.wav
192,192,18034,1,10,0:0:0:0:
64,192,18237,1,0,0:0:0:70:tom01.wav
320,192,18439,1,2,0:0:0:0:
448,192,18439,1,0,0:0:0:50:Crash 1.wav
192,192,19047,1,0,0:0:0:0:
64,192,19656,1,0,0:0:0:0:
320,192,20061,1,0,0:0:0:50:LR_Kick Beat Drop.wav
448,192,20466,128,0,21683:0:0:0:0:
64,192,21683,128,0,22291:0:0:0:0:
320,192,22291,128,0,22899:0:0:0:0:
192,192,22899,128,0,23304:0:0:0:0:
448,192,23304,1,0,0:0:0:0:
64,192,23710,128,0,24926:0:0:0:0:
448,192,24926,128,0,25534:0:0:0:0:
192,192,25534,128,0,26142:0:0:0:0:
320,192,26142,128,0,26547:0:0:0:0:
64,192,26547,128,0,28169:0:0:0:0:
192,192,28169,128,0,29791:0:0:0:0:
320,192,29791,128,0,31412:0:0:0:0:
448,192,31412,128,0,32223:0:0:0:0:
64,192,32223,1,0,0:0:0:0:
192,192,32223,1,0,0:0:0:0:
320,192,32629,1,0,0:0:0:70:tom04.wav
192,192,32831,1,2,0:0:0:0:
64,192,33034,1,2,0:0:0:0:
448,192,33034,1,4,0:0:0:0:
192,192,33439,1,2,0:0:0:0:
320,192,33845,1,2,0:0:0:0:
64,192,34250,1,8,0:0:0:0:
448,192,34656,1,2,0:0:0:0:
320,192,35061,1,2,0:0:0:0:
192,192,35466,1,2,0:0:0:0:
448,192,35872,1,2,0:0:0:0:
64,192,36277,1,2,0:0:0:0:
320,192,36683,1,2,0:0:0:0:
192,192,37088,1,2,0:0:0:0:
448,192,37493,1,10,0:0:0:0:
64,192,37899,1,2,0:0:0:0:
192,192,38304,1,2,0:0:0:0:
320,192,38710,1,2,0:0:0:0:
64,192,39115,1,2,0:0:0:0:
448,192,39520,1,2,0:0:0:0:
320,192,39926,1,2,0:0:0:0:
64,192,40331,1,2,0:0:0:0:
192,192,40737,1,8,0:0:0:0:
448,192,41142,1,2,0:0:0:0:
64,192,41547,1,2,0:0:0:0:
320,192,41953,128,2,42358:0:0:0:0:
192,192,42358,128,8,42764:0:0:0:0:
64,192,42764,1,2,0:0:0:0:
448,192,42764,128,4,43169:0:0:0:0:
192,192,43169,1,8,0:0:0:0:
320,192,43372,1,0,0:0:0:70:LR_Drum Rim Fast.wav
64,192,43574,128,0,43980:0:0:0:70:LR_Drum Rim Fast.wav
192,192,43980,1,8,0:0:0:0:
320,192,44183,1,2,0:0:0:0:
448,192,44183,1,0,0:0:0:50:Crash 1.wav
192,192,44385,128,0,44791:0:0:0:0:
320,192,44791,1,0,0:0:0:70:LR_Drum Rim Fast.wav
64,192,44993,1,0,0:0:0:0:
448,192,45196,128,0,45601:0:0:0:0:
64,192,45601,128,0,46007:0:0:0:0:
320,192,46007,1,8,0:0:0:0:
192,192,46210,1,8,0:0:0:0:
320,192,46412,1,8,0:0:0:0:
64,192,46818,1,2,0:0:0:0:
320,192,47020,1,8,0:0:0:0:
192,192,47223,1,2,0:0:0:0:
64,192,47426,128,2,47831:0:0:0:0:
448,192,47426,1,4,0:0:0:0:
320,192,47831,1,2,0:0:0:0:
192,192,48034,128,8,48439:0:0:0:0:
320,192,48439,128,8,48845:0:0:0:0:
448,192,48845,128,0,49250:0:0:0:70:tom04.wav
192,192,49250,1,0,0:0:0:70:tom02.wav
320,192,49453,1,8,0:0:0:0:
192,192,49656,1,0,0:0:0:70:tom02.wav
448,192,50061,1,8,0:0:0:0:
64,192,50466,1,2,0:0:0:0:
320,192,50669,1,2,0:0:0:0:
448,192,50669,1,0,0:0:0:50:Crash 1.wav
64,192,51074,1,2,0:0:0:0:
320,192,51277,1,8,0:0:0:0:
192,192,51480,1,0,0:0:0:0:
448,192,51683,128,8,52088:0:0:0:0:
64,192,52088,1,0,0:0:0:70:tom02.wav
320,192,52291,1,0,0:0:0:70:tom03.wav
192,192,52493,1,2,0:0:0:0:
448,192,52493,1,4,0:0:0:0:
192,192,52899,1,2,0:0:0:0:
192,192,53304,1,2,0:0:0:0:
448,192,53710,1,2,0:0:0:0:
192,192,53912,1,0,0:0:0:0:
320,192,54115,1,2,0:0:0:0:
320,192,54520,1,2,0:0:0:0:
320,192,54926,1,2,0:0:0:0:
64,192,55129,1,0,0:0:0:0:
448,192,55331,1,0,0:0:0:70:LR_Drum Rim Fast.wav
64,192,55534,128,2,55939:0:0:0:0:
320,192,55534,1,4,0:0:0:0:
448,192,55939,1,2,0:0:0:0:
192,192,56142,128,6,56547:0:0:0:0:
320,192,56547,128,2,56953:0:0:0:0:
448,192,56953,1,0,0:0:0:70:LR_Drum Rim Fast.wav
64,192,57156,1,2,0:0:0:0:
192,192,57156,1,4,0:0:0:0:
320,192,57561,1,2,0:0:0:0:
192,192,57764,1,8,0:0:0:0:
448,192,57966,1,2,0:0:0:0:
64,192,58169,1,0,0:0:0:70:tom02.wav
320,192,58473,1,8,0:0:0:0:
192,192,58777,1,0,0:0:0:70:tom03.wav
64,192,58980,128,4,59385:0:0:0:0:
448,192,58980,1,8,0:0:0:0:
320,192,59385,1,2,0:0:0:0:
192,192,59588,1,8,0:0:0:0:
448,192,59588,128,0,59993:0:0:0:50:Crash 1.wav
64,192,59993,1,2,0:0:0:0:
192,192,60196,128,4,60601:0:0:0:0:
320,192,60196,1,8,0:0:0:0:
320,192,60601,128,8,61007:0:0:0:0:
64,192,61007,1,8,0:0:0:0:
448,192,61007,1,0,0:0:0:0:
192,192,61412,128,0,61818:0:0:0:0:
320,192,61818,128,0,62223:0:0:0:0:
64,192,62223,1,2,0:0:0:0:
192,192,62223,1,4,0:0:0:0:
64,192,62628,1,10,0:0:0:0:
448,192,63033,1,2,0:0:0:0:
192,192,63236,1,0,0:0:0:0:
320,192,63439,1,10,0:0:0:0:
64,192,63641,1,0,0:0:0:70:LR_Drum Rim Fast.wav
448,192,63844,128,2,64250:0:0:0:0:
64,192,64250,128,2,64655:0:0:0:0:
192,192,64655,128,2,65060:0:0:0:0:
320,192,65060,128,2,65466:0:0:0:0:
64,192,65466,1,4,0:0:0:0:
192,192,65466,1,2,0:0:0:0:
448,192,65871,1,2,0:0:0:0:
64,192,66074,1,0,0:0:0:0:
192,192,66074,1,0,0:0:0:0:
192,192,66479,1,4,0:0:0:0:
320,192,66479,1,0,0:0:0:0:
320,192,66885,1,0,0:0:0:50:Crash 1.wav
448,192,66885,1,0,0:0:0:0:
64,192,67290,1,0,0:0:0:70:tom02.wav
448,192,67493,1,10,0:0:0:0:
320,192,67695,1,0,0:0:0:70:tom01.wav
192,192,67898,128,2,68304:0:0:0:0:
320,192,68304,1,10,0:0:0:0:
64,192,68506,1,0,0:0:0:0:
320,192,68709,1,2,0:0:0:0:
448,192,68709,128,4,69114:0:0:0:0:
192,192,69114,1,10,0:0:0:0:
320,192,69520,1,2,0:0:0:0:
192,192,69824,1,0,0:0:0:0:
64,192,70128,1,0,0:0:0:0:
448,192,70331,128,2,70736:0:0:0:0:
320,192,70736,128,10,71141:0:0:0:0:
192,192,71141,128,2,71547:0:0:0:0:
448,192,71141,1,0,0:0:0:50:Crash 1.wav
64,192,71547,1,10,0:0:0:0:
320,192,71750,1,0,0:0:0:70:tom02.wav
64,192,71952,1,4,0:0:0:0:
448,192,71952,128,2,72358:0:0:0:0:
192,192,72358,1,0,0:0:0:70:tom01.wav
320,192,72560,1,0,0:0:0:70:tom02.wav
64,192,72763,128,0,73168:0:0:0:70:tom01.wav
192,192,73168,1,0,0:0:0:0:
320,192,73371,1,2,0:0:0:0:
448,192,73371,1,4,0:0:0:0:
192,192,73777,1,2,0:0:0:0:
64,192,73979,1,8,0:0:0:0:
448,192,73979,1,0,0:0:0:0:
320,192,74385,128,8,74790:0:0:0:0:
192,192,74790,128,8,75195:0:0:0:0:
320,192,75195,1,4,0:0:0:0:
448,192,75195,1,2,0:0:0:0:
448,192,75601,1,10,0:0:0:0:
64,192,76006,1,2,0:0:0:0:
320,192,76209,1,0,0:0:0:0:
192,192,76412,1,2,0:0:0:0:
448,192,76614,1,0,0:0:0:0:
64,192,76817,128,2,77222:0:0:0:0:
448,192,77222,128,2,77628:0:0:0:0:
320,192,77628,128,2,78033:0:0:0:0:
192,192,78033,128,0,78439:0:0:0:70:LR_Drum Rim Fast.wav
320,192,78439,1,4,0:0:0:0:
448,192,78439,1,2,0:0:0:0:
64,192,78844,1,8,0:0:0:0:
320,192,79047,1,2,0:0:0:0:
448,192,79047,1,4,0:0:0:0:
192,192,79452,1,4,0:0:0:0:
320,192,79452,1,2,0:0:0:0:
64,192,79858,1,2,0:0:0:0:
192,192,79858,1,0,0:0:0:50:Crash 1.wav
320,192,80263,1,2,0:0:0:0:
192,192,80466,1,8,0:0:0:0:
448,192,80668,128,0,81074:0:0:0:0:
320,192,81074,1,2,0:0:0:0:
64,192,81277,128,8,81682:0:0:0:0:
192,192,81682,1,2,0:0:0:0:
448,192,81682,128,4,82087:0:0:0:0:
64,192,82087,1,10,0:0:0:0:
320,192,82290,1,0,0:0:0:0:
192,192,82493,128,2,82898:0:0:0:0:
64,192,82898,1,2,0:0:0:0:
448,192,83101,1,0,0:0:0:0:
64,192,83304,128,2,83709:0:0:0:0:
192,192,83304,1,0,0:0:0:50:Crash 1.wav
448,192,83709,1,10,0:0:0:0:
192,192,83912,1,0,0:0:0:0:
320,192,84114,128,2,84520:0:0:0:0:
448,192,84520,1,6,0:0:0:0:
64,192,84722,1,0,0:0:0:0:
320,192,84925,1,2,0:0:0:0:
448,192,84925,128,4,85331:0:0:0:0:
64,192,85331,1,10,0:0:0:0:
192,192,85533,128,0,85939:0:0:0:0:
448,192,85939,1,0,0:0:0:0:
320,192,86141,1,2,0:0:0:0:
64,192,86344,1,8,0:0:0:0:
320,192,86547,128,2,86952:0:0:0:0:
448,192,86547,1,0,0:0:0:0:
192,192,86952,1,2,0:0:0:0:
448,192,87155,1,8,0:0:0:0:
64,192,87358,128,2,87763:0:0:0:0:
192,192,87358,1,0,0:0:0:0:
448,192,87763,1,8,0:0:0:0:
320,192,87966,1,0,0:0:0:70:tom02.wav
64,192,88168,1,8,0:0:0:0:
192,192,88168,1,4,0:0:0:0:
192,192,88574,1,8,0:0:0:0:
320,192,88777,1,2,0:0:0:0:
448,192,88777,1,0,0:0:0:0:
64,192,89182,1,2,0:0:0:0:
192,192,89182,1,0,0:0:0:0:
64,192,89587,1,2,0:0:0:0:
448,192,89587,1,4,0:0:0:0:
320,192,89993,1,2,0:0:0:0:
192,192,90195,1,8,0:0:0:0:
64,192,90398,1,2,0:0:0:0:
448,192,90398,1,0,0:0:0:50:Crash 1.wav
192,192,90804,1,2,0:0:0:0:
320,192,91006,1,0,0:0:0:0:
64,192,91209,1,2,0:0:0:0:
448,192,91209,128,4,92020:0:0:0:0:
320,192,92020,1,10,0:0:0:0:
64,192,92222,128,8,92831:0:0:0:0:
192,192,92222,1,2,0:0:0:0:
320,192,92831,1,2,0:0:0:0:
192,192,93033,1,8,0:0:0:0:
448,192,93033,1,0,0:0:0:0:
64,192,93439,1,8,0:0:0:0:
192,192,93439,1,4,0:0:0:0:
448,192,93641,128,0,94250:0:0:0:0:
192,192,94250,1,0,0:0:0:70:tom03.wav
320,192,94452,1,0,0:0:0:70:tom04.wav
64,192,94655,128,2,95060:0:0:0:0:
448,192,94655,1,4,0:0:0:0:
192,192,95060,1,10,0:0:0:0:
320,192,95263,128,0,95668:0:0:0:0:
192,192,95668,1,0,0:0:0:0:
448,192,95871,1,10,0:0:0:0:
64,192,96074,1,0,0:0:0:0:
192,192,96074,128,0,96479:0:0:0:0:
448,192,96479,1,0,0:0:0:0:
64,192,96682,1,2,0:0:0:0:
320,192,96885,1,4,0:0:0:0:
448,192,96885,128,8,97290:0:0:0:0:
64,192,97290,1,12,0:0:0:0:
320,192,97493,1,2,0:0:0:0:
64,192,97695,128,4,98101:0:0:0:0:
192,192,97695,1,2,0:0:0:0:
448,192,98101,128,2,98506:0:0:0:0:
320,192,98506,128,0,98912:0:0:0:0:
192,192,98912,128,0,99317:0:0:0:70:tom02.wav
64,192,99317,1,4,0:0:0:0:
448,192,99317,1,2,0:0:0:0:
320,192,99722,1,8,0:0:0:0:
192,192,99925,1,10,0:0:0:0:
64,192,100128,1,0,0:0:0:0:
448,192,100331,128,8,100939:0:0:0:0:
64,192,100939,128,4,104689:0:0:0:0:
192,192,100939,1,2,0:0:0:0:
