osu file format v14

[General]
AudioFilename: 11 regret.mp3
AudioLeadIn: 0
PreviewTime: -1
Countdown: 1
SampleSet: Normal
StackLeniency: 0.7
Mode: 0
LetterboxInBreaks: 1
WidescreenStoryboard: 1

[Editor]
DistanceSpacing: 0.5
BeatDivisor: 8
GridSize: 4
TimelineZoom: 2

[Metadata]
Title:Regret
TitleUnicode:Regret
Artist:Hoshimura Mai
ArtistUnicode:Hoshimura Mai
Creator:AlienGo
Version:Farewell
Source:D.Gray-Man
Tags:Regret, Japanese, D.gray-man, Sad, Anime
BeatmapID:842293
BeatmapSetID:385637

[Difficulty]
HPDrainRate:5
CircleSize:4
OverallDifficulty:6
ApproachRate:9
SliderMultiplier:1.7
SliderTickRate:1

[Events]
//Background and Video events
0,0,"allen-walker-lenalee-lee-lavi-d-gray-man-yu-kanda-normal-f2356b.jpg",0,0
//Break Periods
2,82030,89602
2,182495,188672
//Storyboard Layer 0 (Background)
//Storyboard Layer 1 (Fail)
//Storyboard Layer 2 (Pass)
//Storyboard Layer 3 (Foreground)
//Storyboard Sound Samples

[TimingPoints]
900.279256592909,697.674418604651,4,1,0,100,1,0
42760,-66.6666666666667,4,1,0,100,0,0
60202,-50,4,1,0,100,0,0
90202,-100,4,1,0,100,0,0
102063,-76.9230769230769,4,1,0,100,0,0
134853,-50,4,1,0,100,0,0
157179,-66.6666666666667,4,1,0,100,0,0
159970,-50,4,1,0,100,0,0
164853,-142.857142857143,4,1,0,100,0,0
166946,-71.4285714285714,4,1,0,100,0,0
176714,-142.857142857143,4,1,0,100,0,0
178109,-200,4,1,0,100,0,0
190667,-66.6666666666667,4,1,0,100,0,0
193458,-55.5555555555556,4,1,0,100,0,0
223458,-83.3333333333334,4,1,0,100,0,0
226946,-100,4,1,0,100,0,0
238109,-200,4,1,0,100,0,0
240900,-142.857142857143,4,1,0,100,0,0
247528,-200,4,1,0,100,0,0

[HitObjects]
52,100,551,5,0,0:0:0:0:
168,32,725,1,0,0:0:0:0:
168,180,900,2,0,L|172:252|168:240,1,85
268,352,1597,1,0,0:0:0:0:
408,288,1946,2,0,P|452:216|448:128,1,170
368,244,2993,5,0,0:0:0:0:
360,136,3167,1,0,0:0:0:0:
300,48,3342,1,0,0:0:0:0:
196,0,3516,1,0,0:0:0:0:
200,132,3690,2,0,P|160:136|152:192,1,85
44,116,4388,1,0,0:0:0:0:
204,284,4737,1,0,0:0:0:0:
80,312,4911,2,0,L|136:300,2,42.5
160,212,5435,1,0,0:0:0:0:
436,56,5784,5,0,0:0:0:0:
288,76,5958,1,0,0:0:0:0:
376,192,6132,1,0,0:0:0:0:
152,336,6481,6,0,L|84:256,1,85
208,144,7179,1,0,0:0:0:0:
64,80,7528,2,0,P|156:80|224:128,1,170
432,20,8574,1,0,0:0:0:0:
368,112,8749,1,0,0:0:0:0:
368,224,8923,1,0,0:0:0:0:
436,308,9097,1,0,0:0:0:0:
272,204,9272,6,0,L|352:256,1,85
136,168,9970,1,0,0:0:0:0:
116,292,10318,2,0,L|276:348,1,170
208,208,11365,1,0,0:0:0:0:
368,212,11539,1,0,0:0:0:0:
384,60,11714,1,0,0:0:0:0:
220,56,11888,1,0,0:0:0:0:
68,64,12063,6,0,P|64:116|80:152,1,85
176,208,12586,1,0,0:0:0:0:
308,156,12760,2,0,P|368:180|372:204,1,85
304,232,13284,1,0,0:0:0:0:
384,148,13458,2,0,P|408:164|408:188,1,42.5
248,200,13807,2,0,P|256:248|252:256,1,42.5
224,68,14156,2,0,P|272:44|320:44,2,85
160,172,15028,1,0,0:0:0:0:
308,176,15202,2,0,L|324:216,1,42.5
224,328,15551,6,0,P|164:312|156:280,1,85
64,256,16074,1,0,0:0:0:0:
48,136,16249,2,0,L|104:60,1,85
208,132,16772,1,0,0:0:0:0:
280,32,16946,2,0,L|376:12,1,85
344,104,17470,1,0,0:0:0:0:
468,100,17644,6,0,L|396:172,1,85
340,256,18167,1,0,0:0:0:0:
232,280,18342,2,0,P|188:276|152:240,1,85
104,152,18865,1,0,0:0:0:0:
52,272,19039,1,0,0:0:0:0:
20,100,19214,1,0,0:0:0:0:
208,144,19388,1,0,0:0:0:0:
140,0,19563,1,0,0:0:0:0:
308,108,19737,6,0,L|396:124,1,85
176,276,20260,1,0,0:0:0:0:
332,288,20435,2,0,L|160:292,1,170
176,168,21481,1,0,0:0:0:0:
124,16,21656,1,0,0:0:0:0:
52,124,21830,6,0,L|140:100,2,85
224,196,22702,1,0,0:0:0:0:
80,272,22877,1,0,0:0:0:0:
176,116,23051,1,0,0:0:0:0:
188,304,23225,1,0,0:0:0:0:
340,380,23400,1,0,0:0:0:0:
296,224,23574,1,0,0:0:0:0:
460,240,23749,1,0,0:0:0:0:
384,116,23923,6,0,L|384:212,1,85
188,304,24621,2,0,L|144:288,1,42.5
120,116,24970,2,0,L|88:160,1,42.5
228,92,25318,2,0,L|264:120,1,42.5
120,20,25667,2,0,L|64:-4,1,42.5
236,4,26016,5,0,0:0:0:0:
364,40,26190,1,0,0:0:0:0:
232,164,26365,1,0,0:0:0:0:
368,128,26539,1,0,0:0:0:0:
440,160,26714,2,0,P|448:196|424:244,1,85
364,352,27237,1,0,0:0:0:0:
472,304,27411,1,0,0:0:0:0:
316,256,27586,1,0,0:0:0:0:
176,328,27760,1,0,0:0:0:0:
196,168,27935,1,0,0:0:0:0:
72,236,28109,6,0,P|68:184|88:152,1,85
40,48,28632,1,0,0:0:0:0:
164,88,28807,2,0,L|212:124,1,42.5
252,64,29156,2,0,L|292:92,1,42.5
364,48,29504,2,0,P|400:24|440:40,1,85
472,136,30028,1,0,0:0:0:0:
468,248,30202,2,0,L|464:300,1,42.5
280,232,30551,1,0,0:0:0:0:
372,296,30725,1,0,0:0:0:0:
256,348,30900,2,0,L|196:332,1,42.5
132,244,31249,1,0,0:0:0:0:
48,300,31423,1,0,0:0:0:0:
112,144,31597,6,0,P|180:92|260:72,2,170
224,248,33167,1,0,0:0:0:0:
228,252,33342,2,0,L|316:276,1,85
304,160,33865,1,0,0:0:0:0:
448,160,34039,1,0,0:0:0:0:
384,48,34214,1,0,0:0:0:0:
296,152,34388,5,0,0:0:0:0:
228,36,34563,1,0,0:0:0:0:
144,144,34737,1,0,0:0:0:0:
296,152,34911,1,0,0:0:0:0:
164,280,35086,2,0,L|220:348,1,85
272,264,35609,2,0,L|368:260,1,85
460,236,36132,2,0,P|496:212|492:160,1,85
408,92,36656,1,0,0:0:0:0:
272,56,36830,1,0,0:0:0:0:
132,80,37004,1,0,0:0:0:0:
96,200,37179,6,0,L|56:236,1,42.5
176,240,37528,2,0,L|228:264,1,42.5
204,372,37877,2,0,L|296:384,1,85
352,256,38400,2,0,P|396:244|388:200,1,85
344,68,38923,2,0,L|240:68,1,85
136,152,39446,1,0,0:0:0:0:
176,292,39621,1,0,0:0:0:0:
328,296,39795,1,0,0:0:0:0:
56,264,39970,6,0,P|116:304|228:292,1,170
356,176,40842,1,0,0:0:0:0:
188,224,41016,1,0,0:0:0:0:
260,176,41190,2,0,L|172:144,1,85
152,32,41714,2,0,L|248:12,1,85
344,80,42237,1,0,0:0:0:0:
456,88,42411,2,0,L|472:136,1,42.5
456,244,42760,6,0,P|412:332|300:344,1,191.250007295609
204,352,43458,2,0,P|112:328|68:224,1,191.250007295609
72,112,44156,2,0,P|128:44|248:60,1,191.250007295609
180,132,44853,2,0,P|140:196|176:256,1,127.500004863739
264,264,45377,1,0,0:0:0:0:
484,216,45551,5,0,0:0:0:0:
276,136,45725,1,0,0:0:0:0:
388,308,45900,1,0,0:0:0:0:
404,108,46074,1,0,0:0:0:0:
396,100,46249,2,0,P|356:64|276:48,1,127.500004863739
200,148,46772,2,0,P|224:204|288:220,1,127.500004863739
412,188,47295,2,0,P|416:240|364:296,1,127.500004863739
352,296,47731,1,0,0:0:0:0:
332,296,47818,1,0,0:0:0:0:
308,292,47906,1,0,0:0:0:0:
288,288,47993,1,0,0:0:0:0:
264,280,48080,1,0,0:0:0:0:
244,268,48167,1,0,0:0:0:0:
228,260,48254,1,0,0:0:0:0:
216,256,48342,6,0,P|172:256|108:188,1,127.500004863739
48,100,48865,1,0,0:0:0:0:
4,304,49039,1,0,0:0:0:0:
160,124,49214,1,0,0:0:0:0:
372,24,49388,1,0,0:0:0:0:
296,200,49563,1,0,0:0:0:0:
440,236,49737,2,0,L|396:300,1,63.7500024318696
420,120,50086,2,0,L|460:112,1,31.8750012159348
308,140,50435,6,0,L|344:160,1,31.8750012159348
328,176,50609,1,0,0:0:0:0:
308,192,50696,1,0,0:0:0:0:
288,208,50784,1,0,0:0:0:0:
264,224,50871,1,0,0:0:0:0:
244,236,50958,1,0,0:0:0:0:
220,244,51045,1,0,0:0:0:0:
200,248,51132,2,0,P|152:240|108:160,2,127.500004863739
84,180,52004,1,0,0:0:0:0:
212,76,52179,1,0,0:0:0:0:
176,212,52353,2,0,L|240:96,1,127.500004863739
368,20,52877,2,0,L|496:96,1,127.500004863739
280,88,53400,1,0,0:0:0:0:
428,208,53574,1,0,0:0:0:0:
376,136,53749,1,0,0:0:0:0:
512,240,53923,5,0,0:0:0:0:
400,320,54097,1,0,0:0:0:0:
220,224,54272,1,0,0:0:0:0:
100,312,54446,1,0,0:0:0:0:
84,132,54621,2,0,P|144:68|208:64,1,127.500004863739
136,196,55144,1,0,0:0:0:0:
72,312,55318,5,0,0:0:0:0:
102,319,55405,1,0,0:0:0:0:
134,320,55492,1,0,0:0:0:0:
165,314,55579,1,0,0:0:0:0:
195,302,55666,1,0,0:0:0:0:
223,286,55754,1,0,0:0:0:0:
249,268,55841,1,0,0:0:0:0:
273,248,55928,1,0,0:0:0:0:
297,226,56015,1,0,0:0:0:0:
319,204,56102,1,0,0:0:0:0:
341,180,56190,1,0,0:0:0:0:
361,156,56277,1,0,0:0:0:0:
381,131,56364,1,0,0:0:0:0:
400,105,56451,1,0,0:0:0:0:
418,79,56538,1,0,0:0:0:0:
435,52,56626,1,0,0:0:0:0:
448,24,56714,6,0,P|404:12|308:32,1,127.500004863739
280,96,57237,1,0,0:0:0:0:
200,80,57411,1,0,0:0:0:0:
248,196,57586,1,0,0:0:0:0:
120,152,57760,1,0,0:0:0:0:
220,296,57935,1,0,0:0:0:0:
40,224,58109,1,0,0:0:0:0:
148,352,58284,1,0,0:0:0:0:
160,352,58458,1,0,0:0:0:0:
172,196,58632,1,0,0:0:0:0:
184,192,58807,1,0,0:0:0:0:
312,256,58981,1,0,0:0:0:0:
416,152,59156,1,0,0:0:0:0:
328,36,59330,1,0,0:0:0:0:
172,48,59504,6,0,P|120:56|120:72,1,63.7500024318696
312,76,59853,2,0,L|292:140,1,63.7500024318696
108,140,60202,2,0,L|92:240,1,85
280,80,60551,2,0,P|340:104|368:144,1,85
400,56,60900,2,0,P|432:104|428:152,1,85
412,224,61249,2,0,P|388:268|260:320,1,170
80,316,61772,1,0,0:0:0:0:
272,212,61946,1,0,0:0:0:0:
232,380,62121,1,0,0:0:0:0:
92,184,62295,5,0,0:0:0:0:
96,164,62382,1,0,0:0:0:0:
96,144,62470,1,0,0:0:0:0:
212,4,62644,1,0,0:0:0:0:
312,144,62818,1,0,0:0:0:0:
400,284,62993,1,0,0:0:0:0:
372,292,63080,1,0,0:0:0:0:
364,316,63167,1,0,0:0:0:0:
208,384,63342,1,0,0:0:0:0:
60,312,63516,1,0,0:0:0:0:
60,140,63690,6,0,P|52:88|68:40,2,85
316,64,64214,2,0,L|340:168,2,85
324,168,64737,1,0,0:0:0:0:
232,304,64911,1,0,0:0:0:0:
156,164,65086,2,0,B|184:120|268:48|292:40|268:120,1,170
328,196,65609,1,0,0:0:0:0:
72,136,65784,2,0,B|84:96|176:64|200:56|180:116,1,170
316,60,66307,1,0,0:0:0:0:
436,120,66481,5,0,0:0:0:0:
436,140,66568,1,0,0:0:0:0:
440,160,66656,1,0,0:0:0:0:
424,280,66830,2,0,P|320:312|268:288,1,170
236,288,67353,2,0,P|192:304|88:232,1,170
88,228,67789,1,0,0:0:0:0:
84,208,67877,5,0,0:0:0:0:
104,0,68051,1,0,0:0:0:0:
44,80,68225,1,0,0:0:0:0:
192,0,68400,1,0,0:0:0:0:
148,112,68574,1,0,0:0:0:0:
160,116,68661,1,0,0:0:0:0:
172,120,68749,1,0,0:0:0:0:
284,0,68923,1,0,0:0:0:0:
280,152,69097,1,0,0:0:0:0:
372,0,69272,1,0,0:0:0:0:
512,112,69446,1,0,0:0:0:0:
388,200,69621,1,0,0:0:0:0:
376,336,69795,1,0,0:0:0:0:
256,184,69970,5,0,0:0:0:0:
236,172,70057,1,0,0:0:0:0:
228,148,70144,1,0,0:0:0:0:
232,116,70231,1,0,0:0:0:0:
252,80,70318,1,0,0:0:0:0:
292,52,70406,1,0,0:0:0:0:
340,44,70493,1,0,0:0:0:0:
384,48,70580,1,0,0:0:0:0:
424,72,70667,2,0,P|456:128|448:156,1,85
476,292,71016,1,0,0:0:0:0:
340,340,71190,1,0,0:0:0:0:
180,340,71365,2,0,L|68:292,1,85
100,140,71714,1,0,0:0:0:0:
224,52,71888,1,0,0:0:0:0:
240,48,71975,1,0,0:0:0:0:
256,48,72063,5,0,0:0:0:0:
104,296,72237,1,0,0:0:0:0:
412,292,72411,1,0,0:0:0:0:
332,144,72760,2,0,L|204:260,1,170
420,72,73284,1,0,0:0:0:0:
224,160,73458,1,0,0:0:0:0:
428,64,73632,1,0,0:0:0:0:
292,24,73807,1,0,0:0:0:0:
292,12,73981,1,0,0:0:0:0:
176,76,74156,2,0,L|132:44,1,42.5
152,160,74330,2,0,L|72:156,1,42.5
168,252,74504,2,0,L|100:276,1,42.5
236,312,74679,2,0,L|216:364,1,42.5
380,292,74853,5,0,0:0:0:0:
468,188,75028,1,0,0:0:0:0:
336,152,75202,1,0,0:0:0:0:
312,16,75377,1,0,0:0:0:0:
160,52,75551,2,0,B|104:92|76:148|76:188|176:144,1,170
256,112,76074,1,0,0:0:0:0:
368,56,76249,2,0,B|432:84|464:64|468:64|448:160,1,170
424,288,76772,1,0,0:0:0:0:
300,336,76946,2,0,B|280:328|248:252|248:252|224:296|180:336,1,170
80,232,77470,1,0,0:0:0:0:
140,80,77644,1,0,0:0:0:0:
140,72,77818,1,0,0:0:0:0:
304,36,77993,1,0,0:0:0:0:
312,44,78167,1,0,0:0:0:0:
248,200,78342,2,0,B|292:208|352:240|372:320|364:320,1,170
280,300,78865,1,0,0:0:0:0:
264,296,78952,1,0,0:0:0:0:
248,292,79039,1,0,0:0:0:0:
256,192,79214,12,0,81830,0:0:0:0:
64,320,90202,5,0,0:0:0:0:
96,64,90551,1,0,0:0:0:0:
400,0,90900,1,0,0:0:0:0:
308,192,91249,1,0,0:0:0:0:
372,120,91423,1,0,0:0:0:0:
420,48,91597,2,0,P|460:116|456:132,1,85
460,216,92121,1,0,0:0:0:0:
412,296,92295,2,0,P|376:328|336:320,1,85
252,308,92818,1,0,0:0:0:0:
164,280,92993,6,0,L|96:208,1,85
52,148,93516,1,0,0:0:0:0:
52,64,93690,2,0,P|64:36|120:16,1,85
200,36,94214,1,0,0:0:0:0:
292,44,94388,1,0,0:0:0:0:
120,280,94737,1,0,0:0:0:0:
424,312,95086,1,0,0:0:0:0:
384,232,95260,1,0,0:0:0:0:
288,288,95435,1,0,0:0:0:0:
292,152,95609,1,0,0:0:0:0:
156,256,95784,6,0,P|120:236|112:184,1,85
28,160,96307,1,0,0:0:0:0:
76,88,96481,2,0,P|112:44|152:32,1,85
220,60,97004,1,0,0:0:0:0:
304,60,97179,2,0,L|360:60|396:60,1,85
476,44,97702,1,0,0:0:0:0:
512,172,97877,1,0,0:0:0:0:
256,380,98225,1,0,0:0:0:0:
344,304,98400,1,0,0:0:0:0:
256,232,98574,5,0,0:0:0:0:
140,200,98749,1,0,0:0:0:0:
80,104,98923,1,0,0:0:0:0:
164,44,99097,1,0,0:0:0:0:
72,96,99272,2,0,L|96:196,1,85
160,56,99795,1,0,0:0:0:0:
272,80,99970,1,0,0:0:0:0:
396,112,100144,1,0,0:0:0:0:
404,128,100231,1,0,0:0:0:0:
400,148,100318,1,0,0:0:0:0:
328,232,100493,1,0,0:0:0:0:
324,252,100580,1,0,0:0:0:0:
316,272,100667,1,0,0:0:0:0:
176,384,100842,1,0,0:0:0:0:
120,228,101016,1,0,0:0:0:0:
108,80,101190,1,0,0:0:0:0:
128,56,101278,1,0,0:0:0:0:
160,40,101365,6,0,P|196:32|232:72,1,85
316,52,101888,1,0,0:0:0:0:
404,64,102063,2,0,P|436:112|440:176,1,110.499994941712
424,256,102586,2,0,L|412:292,1,27.6249987354279
404,308,102760,2,0,B|340:396|336:352|348:320,1,110.499994941712
184,168,103284,2,0,L|188:196,1,27.6249987354279
184,224,103458,2,0,B|184:256|160:256|112:168,1,110.499994941712
372,52,103981,2,0,L|404:68,1,27.6249987354279
404,88,104156,6,0,B|316:88|308:112|360:132,1,110.499994941712
424,176,104679,1,0,0:0:0:0:
356,248,104853,2,0,L|396:292,1,55.2499974708558
256,296,105202,2,0,L|232:232,1,55.2499974708558
156,332,105551,2,0,L|180:392,1,55.2499974708558
48,280,105900,2,0,L|40:216,1,55.2499974708558
36,328,106249,2,0,P|36:268|112:120,1,220.999989883423
152,44,107121,1,0,0:0:0:0:
248,112,107295,1,0,0:0:0:0:
340,32,107470,1,0,0:0:0:0:
436,100,107644,6,0,B|464:128|516:184|428:168,1,110.499994941712
292,228,108167,2,0,L|304:264,1,27.6249987354279
276,276,108342,2,0,B|264:304|232:332|216:216,1,110.499994941712
68,100,108865,2,0,L|52:144,1,27.6249987354279
56,152,109039,2,0,B|52:208|84:224|132:148,1,110.499994941712
312,84,109563,2,0,L|348:96,1,27.6249987354279
364,96,109737,2,0,B|408:48|468:28|428:192,1,193.374991147995
324,252,110435,2,0,B|308:320|252:344|236:188,1,193.374991147995
220,208,111132,1,0,0:0:0:0:
176,48,111307,1,0,0:0:0:0:
224,200,111481,1,0,0:0:0:0:
348,100,111656,1,0,0:0:0:0:
364,80,111743,1,0,0:0:0:0:
380,64,111830,2,0,B|404:32|436:12|432:164,1,165.749992412568
444,272,112528,5,0,0:0:0:0:
328,336,112702,1,0,0:0:0:0:
340,208,112877,1,0,0:0:0:0:
228,248,113051,1,0,0:0:0:0:
108,284,113225,2,0,P|92:244|96:164,1,110.499994941712
172,64,113749,2,0,L|200:44,1,27.6249987354279
208,48,113923,1,0,0:0:0:0:
368,60,114097,1,0,0:0:0:0:
376,64,114272,2,0,B|460:76|496:96|444:112,1,110.499994941712
424,236,114795,2,0,L|424:268,1,27.6249987354279
400,268,114970,1,0,0:0:0:0:
236,308,115144,2,0,L|188:296,1,27.6249987354279
188,296,115318,5,0,0:0:0:0:
68,168,115493,1,0,0:0:0:0:
72,156,115667,2,0,B|88:116|116:76|176:72|148:68,1,110.499994941712
280,80,116190,2,0,L|308:88,1,27.6249987354279
416,64,116365,1,0,0:0:0:0:
408,196,116539,2,0,L|380:236,1,27.6249987354279
328,328,116714,1,0,0:0:0:0:
248,200,116888,1,0,0:0:0:0:
168,72,117063,2,0,P|120:80|104:148,1,110.499994941712
48,248,117586,2,0,L|80:268,1,27.6249987354279
248,256,117760,2,0,L|216:232,1,27.6249987354279
244,76,117935,2,0,L|268:116,1,27.6249987354279
400,96,118109,6,0,L|464:144,1,55.2499974708558
512,300,118458,2,0,L|444:304,1,55.2499974708558
304,252,118807,2,0,P|320:212|316:144,1,110.499994941712
172,88,119330,2,0,L|140:88,1,27.6249987354279
144,240,119504,2,0,L|180:260,1,27.6249987354279
236,168,119679,2,0,L|272:192,1,27.6249987354279
324,96,119853,2,0,L|364:120,1,27.6249987354279
396,36,120028,2,0,L|436:60,1,27.6249987354279
484,112,120202,2,0,B|472:152|432:224|416:188,1,110.499994941712
364,324,120725,2,0,L|352:364,1,27.6249987354279
228,320,120900,6,0,B|184:324|144:288|256:176,1,193.374991147995
332,232,121597,2,0,B|376:184|392:32|320:112,1,193.374991147995
280,40,122295,2,0,B|192:48|192:48|168:160,1,193.374991147995
128,264,122993,2,0,L|132:292,1,27.6249987354279
224,224,123167,2,0,L|216:180,1,27.6249987354279
320,192,123342,2,0,L|336:236,1,27.6249987354279
408,152,123516,2,0,L|396:120,1,27.6249987354279
468,40,123690,5,0,0:0:0:0:
316,88,123865,1,0,0:0:0:0:
324,96,124039,1,0,0:0:0:0:
188,32,124214,1,0,0:0:0:0:
80,136,124388,2,0,P|80:208|116:228,1,110.499994941712
216,296,124911,2,0,L|244:300,1,27.6249987354279
388,312,125086,1,0,0:0:0:0:
396,304,125260,1,0,0:0:0:0:
468,180,125435,1,0,0:0:0:0:
472,168,125609,1,0,0:0:0:0:
340,68,125784,2,0,P|348:124|404:160,1,110.499994941712
288,156,126307,2,0,L|256:180,1,27.6249987354279
160,60,126481,5,0,0:0:0:0:
68,188,126656,1,0,0:0:0:0:
208,216,126830,1,0,0:0:0:0:
216,224,126917,1,0,0:0:0:0:
228,236,127004,1,0,0:0:0:0:
340,288,127179,1,0,0:0:0:0:
444,112,127353,1,0,0:0:0:0:
456,284,127528,1,0,0:0:0:0:
284,188,127702,1,0,0:0:0:0:
512,192,127877,1,0,0:0:0:0:
336,112,128051,1,0,0:0:0:0:
288,0,128225,1,0,0:0:0:0:
208,112,128400,1,0,0:0:0:0:
88,72,128574,5,0,0:0:0:0:
80,98,128661,1,0,0:0:0:0:
75,125,128748,1,0,0:0:0:0:
75,153,128835,1,0,0:0:0:0:
82,179,128922,1,0,0:0:0:0:
103,194,129010,1,0,0:0:0:0:
130,189,129097,1,0,0:0:0:0:
155,176,129184,1,0,0:0:0:0:
176,156,129272,2,0,P|200:108|264:104,1,110.499994941712
384,112,129795,2,0,L|408:148,1,27.6249987354279
404,240,129970,2,0,L|304:316,1,110.499994941712
200,328,130493,2,0,L|160:308,1,27.6249987354279
28,292,130667,5,0,0:0:0:0:
28,72,130842,1,0,0:0:0:0:
244,232,131016,1,0,0:0:0:0:
496,28,131365,1,0,0:0:0:0:
112,100,131714,1,0,0:0:0:0:
88,328,131888,1,0,0:0:0:0:
336,376,132063,1,0,0:0:0:0:
416,16,132411,1,0,0:0:0:0:
48,244,132760,1,0,0:0:0:0:
300,104,133109,1,0,0:0:0:0:
300,280,133284,1,0,0:0:0:0:
472,276,133458,5,0,0:0:0:0:
450,239,133545,1,0,0:0:0:0:
424,205,133632,1,0,0:0:0:0:
389,182,133719,1,0,0:0:0:0:
348,181,133806,1,0,0:0:0:0:
312,203,133894,1,0,0:0:0:0:
284,235,133981,1,0,0:0:0:0:
261,271,134068,1,0,0:0:0:0:
248,281,134155,1,0,0:0:0:0:
241,239,134242,1,0,0:0:0:0:
221,202,134330,1,0,0:0:0:0:
190,174,134417,1,0,0:0:0:0:
162,142,134504,1,0,0:0:0:0:
162,100,134591,1,0,0:0:0:0:
177,60,134678,1,0,0:0:0:0:
198,23,134766,1,0,0:0:0:0:
356,32,134853,6,0,P|436:32|444:56,1,85
400,120,135202,2,0,P|340:120|336:88,1,85
252,84,135551,1,0,0:0:0:0:
416,232,135725,1,0,0:0:0:0:
236,252,135900,1,0,0:0:0:0:
156,168,136074,1,0,0:0:0:0:
80,60,136249,2,0,L|28:152,1,85
204,80,136597,2,0,L|208:164,1,85
352,152,136946,2,0,L|340:60,1,85
464,32,137295,2,0,L|500:120,1,85
372,244,137644,5,0,0:0:0:0:
200,84,137818,1,0,0:0:0:0:
180,268,137993,1,0,0:0:0:0:
328,80,138167,1,0,0:0:0:0:
464,148,138342,2,0,P|496:264|472:296,1,170
376,384,138865,1,0,0:0:0:0:
268,300,139039,2,0,L|224:320,1,42.5
192,316,139214,2,0,L|160:288,1,42.5
136,264,139388,2,0,L|128:208,1,42.5
128,184,139563,2,0,L|144:136,1,42.5
160,104,139737,2,0,P|224:68|344:84,1,170
452,80,140260,2,0,L|476:144,1,42.5
472,164,140435,5,0,0:0:0:0:
376,280,140609,1,0,0:0:0:0:
224,304,140784,1,0,0:0:0:0:
200,284,140871,1,0,0:0:0:0:
180,264,140958,1,0,0:0:0:0:
64,148,141132,1,0,0:0:0:0:
132,4,141307,1,0,0:0:0:0:
280,52,141481,1,0,0:0:0:0:
312,52,141568,1,0,0:0:0:0:
336,52,141656,1,0,0:0:0:0:
448,160,141830,5,0,0:0:0:0:
300,88,142004,1,0,0:0:0:0:
168,184,142179,1,0,0:0:0:0:
152,220,142266,1,0,0:0:0:0:
140,252,142353,1,0,0:0:0:0:
268,368,142528,1,0,0:0:0:0:
408,276,142702,2,0,L|436:236,1,42.5
436,192,142877,1,0,0:0:0:0:
76,56,143225,2,0,P|56:144|96:208,1,170
296,156,143749,2,0,L|260:104,1,42.5
224,96,143923,2,0,B|252:44|296:24|380:108,1,170
420,244,144446,2,0,L|400:296,1,42.5
380,304,144621,5,0,0:0:0:0:
244,328,144795,2,0,L|200:308,1,42.5
172,296,144970,1,0,0:0:0:0:
80,140,145144,1,0,0:0:0:0:
88,104,145231,1,0,0:0:0:0:
104,72,145318,2,0,L|60:28,1,42.5
200,56,145493,2,0,L|196:124,1,42.5
308,76,145667,2,0,L|308:12,1,42.5
412,64,145842,2,0,L|420:120,1,42.5
512,188,146016,5,0,0:0:0:0:
416,356,146190,1,0,0:0:0:0:
300,196,146365,1,0,0:0:0:0:
192,328,146539,1,0,0:0:0:0:
220,276,146627,1,0,0:0:0:0:
252,320,146714,1,0,0:0:0:0:
60,328,146888,1,0,0:0:0:0:
0,180,147063,1,0,0:0:0:0:
116,72,147237,1,0,0:0:0:0:
148,64,147324,1,0,0:0:0:0:
176,56,147411,1,0,0:0:0:0:
336,56,147586,1,0,0:0:0:0:
440,176,147760,5,0,0:0:0:0:
440,204,147847,1,0,0:0:0:0:
460,224,147935,1,0,0:0:0:0:
344,284,148109,5,0,0:0:0:0:
324,256,148196,1,0,0:0:0:0:
316,224,148284,1,0,0:0:0:0:
200,352,148458,5,0,0:0:0:0:
164,320,148545,1,0,0:0:0:0:
164,272,148632,1,0,0:0:0:0:
76,76,148807,5,0,0:0:0:0:
304,44,148981,1,0,0:0:0:0:
88,72,149156,1,0,0:0:0:0:
308,36,149330,1,0,0:0:0:0:
428,228,149504,2,0,P|408:284|292:304,1,170
144,316,150028,2,0,L|88:288,1,42.5
56,276,150202,1,0,0:0:0:0:
248,44,150377,1,0,0:0:0:0:
420,288,150551,1,0,0:0:0:0:
68,60,150900,6,0,B|120:44|232:48|100:336,1,340
112,324,151772,1,0,0:0:0:0:
308,292,151946,1,0,0:0:0:0:
216,128,152121,1,0,0:0:0:0:
224,112,152208,1,0,0:0:0:0:
228,96,152295,1,0,0:0:0:0:
396,0,152470,1,0,0:0:0:0:
196,4,152644,1,0,0:0:0:0:
168,16,152731,1,0,0:0:0:0:
152,32,152818,1,0,0:0:0:0:
56,192,152993,2,0,L|40:148,1,42.5
168,192,153167,2,0,L|200:264,1,42.5
284,192,153342,2,0,L|256:124,1,42.5
396,192,153516,2,0,L|424:252,1,42.5
512,188,153690,5,0,0:0:0:0:
348,28,153865,1,0,0:0:0:0:
204,192,154039,1,0,0:0:0:0:
352,336,154214,1,0,0:0:0:0:
160,312,154388,2,0,L|64:264,1,85
144,120,154737,2,0,L|240:148,1,85
392,56,155086,2,0,B|424:100|428:188|316:160,1,170
200,64,155609,2,0,L|144:104,1,42.5
84,200,155784,1,0,0:0:0:0:
192,328,155958,1,0,0:0:0:0:
344,248,156132,1,0,0:0:0:0:
276,100,156307,2,0,L|292:168,1,42.5
284,176,156481,2,0,L|256:236,1,42.5
236,236,156656,2,0,L|176:256,1,42.5
172,260,156830,1,0,0:0:0:0:
132,268,156917,1,0,0:0:0:0:
92,260,157004,1,0,0:0:0:0:
56,240,157092,1,0,0:0:0:0:
36,216,157179,6,0,P|92:128|224:32,1,255.000009727478
344,24,158051,1,0,0:0:0:0:
400,128,158225,2,0,P|384:264|272:308,1,255.000009727478
272,312,159097,1,0,0:0:0:0:
224,96,159272,1,0,0:0:0:0:
224,112,159446,1,0,0:0:0:0:
100,304,159621,1,0,0:0:0:0:
104,288,159795,1,0,0:0:0:0:
136,88,159970,2,0,P|208:76|292:140,1,170
424,40,160493,2,0,L|448:80,1,42.5
452,112,160667,2,0,B|376:176|368:216|456:200,1,170
400,296,161190,1,0,0:0:0:0:
308,304,161365,6,0,L|224:264,1,85
208,268,161627,1,0,0:0:0:0:
184,268,161714,2,0,P|136:292|96:272,1,85
0,192,162063,1,0,0:0:0:0:
256,0,162237,1,0,0:0:0:0:
512,192,162411,1,0,0:0:0:0:
256,384,162586,1,0,0:0:0:0:
256,192,162760,12,0,163371,0:0:0:0:
256,192,163458,12,0,164068,0:0:0:0:
256,192,164156,5,0,0:0:0:0:
172,108,164330,1,0,0:0:0:0:
336,96,164504,1,0,0:0:0:0:
344,248,164679,1,0,0:0:0:0:
184,320,164853,2,0,P|128:296|100:256,1,104.124996822357
76,192,165551,2,0,P|144:224|172:208,1,104.124996822357
232,184,166249,1,0,0:0:0:0:
200,92,166423,1,0,0:0:0:0:
296,56,166597,1,0,0:0:0:0:
440,56,166772,2,0,L|448:72,1,14.874999546051
452,112,166946,6,0,B|444:144|464:160|420:180,1,59.4999981842042
352,252,167295,2,0,L|372:296,1,29.7499990921021
232,284,167470,2,0,L|244:320,1,29.7499990921021
120,316,167644,5,0,0:0:0:0:
97,296,167731,1,0,0:0:0:0:
78,273,167818,1,0,0:0:0:0:
63,248,167905,1,0,0:0:0:0:
52,220,167992,1,0,0:0:0:0:
45,191,168080,1,0,0:0:0:0:
43,162,168167,1,0,0:0:0:0:
45,132,168254,1,0,0:0:0:0:
52,108,168342,6,0,P|72:64|144:40,1,118.999996368408
256,40,168865,1,0,0:0:0:0:
396,48,169039,2,0,P|424:64|436:104,1,59.4999981842042
332,164,169388,2,0,P|324:216|344:236,1,59.4999981842042
404,304,169737,1,0,0:0:0:0:
116,308,169911,1,0,0:0:0:0:
248,72,170086,1,0,0:0:0:0:
400,296,170260,1,0,0:0:0:0:
112,296,170435,6,0,B|32:248|36:136|144:176,1,208.249993644715
136,184,171132,1,0,0:0:0:0:
352,40,171307,1,0,0:0:0:0:
368,260,171481,1,0,0:0:0:0:
184,32,171656,1,0,0:0:0:0:
176,256,171830,2,0,P|156:280|56:260,1,118.999996368408
60,152,172353,2,0,L|44:112,1,29.7499990921021
48,96,172528,2,0,L|112:56,1,59.4999981842042
276,128,172877,2,0,L|204:112,1,59.4999981842042
80,280,173225,1,0,0:0:0:0:
96,276,173400,1,0,0:0:0:0:
356,312,173574,1,0,0:0:0:0:
372,288,173749,1,0,0:0:0:0:
424,104,173923,6,0,L|408:60,7,29.7499990921021
380,56,174621,2,0,P|332:36|316:32,1,59.4999981842042
264,40,174970,1,0,0:0:0:0:
188,36,175144,2,0,L|136:56,1,29.7499990921021
92,92,175318,2,0,L|88:136,7,29.7499990921021
88,180,176016,2,0,P|72:232|128:272,1,118.999996368408
208,296,176539,1,0,0:0:0:0:
232,208,176714,6,0,B|312:220|328:200|296:168,1,118.999996368408
328,36,177586,1,0,0:0:0:0:
188,48,177760,1,0,0:0:0:0:
72,116,177935,2,0,L|64:132,1,14.874999546051
104,220,178109,2,0,B|112:184|136:168|252:192,1,159.375
368,228,179504,2,0,B|392:236|432:196|424:204,1,63.75
432,104,180202,5,0,0:0:0:0:
408,240,180377,1,0,0:0:0:0:
392,260,180464,1,0,0:0:0:0:
368,272,180551,1,0,0:0:0:0:
232,184,180725,1,0,0:0:0:0:
76,264,180900,5,0,0:0:0:0:
92,268,180987,1,0,0:0:0:0:
109,266,181074,1,0,0:0:0:0:
126,260,181161,1,0,0:0:0:0:
140,250,181248,1,0,0:0:0:0:
154,239,181336,1,0,0:0:0:0:
166,227,181423,1,0,0:0:0:0:
178,214,181510,1,0,0:0:0:0:
189,200,181597,1,0,0:0:0:0:
199,186,181684,1,0,0:0:0:0:
209,172,181772,1,0,0:0:0:0:
219,157,181859,1,0,0:0:0:0:
228,142,181946,1,0,0:0:0:0:
238,128,182033,1,0,0:0:0:0:
249,114,182120,1,0,0:0:0:0:
262,102,182208,1,0,0:0:0:0:
278,96,182295,1,0,0:0:0:0:
256,192,189272,12,0,190318,0:0:0:0:
116,124,190667,5,0,0:0:0:0:
240,72,190842,1,0,0:0:0:0:
256,196,191016,2,0,P|236:228|144:216,1,127.500004863739
256,340,191539,1,0,0:0:0:0:
396,268,191714,1,0,0:0:0:0:
392,132,191888,1,0,0:0:0:0:
384,112,191975,1,0,0:0:0:0:
372,88,192063,2,0,P|344:48|312:48,1,63.7500024318696
196,40,192411,2,0,L|136:88,1,63.7500024318696
96,192,192760,6,0,L|76:244,1,31.8750012159348
184,220,192935,2,0,L|172:272,1,31.8750012159348
276,232,193109,2,0,L|272:284,1,31.8750012159348
364,224,193284,2,0,L|376:268,1,31.8750012159348
440,156,193458,2,0,P|424:128|304:76,1,152.999995330811
188,48,193981,1,0,0:0:0:0:
324,0,194156,1,0,0:0:0:0:
224,140,194330,1,0,0:0:0:0:
392,48,194504,1,0,0:0:0:0:
360,204,194679,1,0,0:0:0:0:
292,224,194853,6,0,L|256:268,1,38.2499988327027
388,268,195028,2,0,L|428:300,1,38.2499988327027
424,172,195202,2,0,L|460:120,1,38.2499988327027
336,140,195377,2,0,L|288:116,1,38.2499988327027
152,96,195551,2,0,B|264:112|300:144|232:152,1,152.999995330811
136,192,196074,2,0,L|172:248,1,38.2499988327027
304,160,196249,2,0,L|260:240,1,76.4999976654053
348,40,196597,2,0,L|240:36,1,76.4999976654053
96,292,196946,2,0,P|160:336|256:320,1,152.999995330811
240,336,197470,1,0,0:0:0:0:
512,256,197644,5,0,0:0:0:0:
56,152,197818,1,0,0:0:0:0:
504,68,197993,2,0,B|532:32|488:-4|392:28,1,152.999995330811
252,68,198516,1,0,0:0:0:0:
96,28,198690,1,0,0:0:0:0:
112,180,198865,1,0,0:0:0:0:
68,332,199039,2,0,P|132:348|128:380,1,76.4999976654053
320,232,199388,2,0,P|268:224|252:184,1,76.4999976654053
164,80,199737,1,0,0:0:0:0:
208,280,199911,1,0,0:0:0:0:
404,320,200086,1,0,0:0:0:0:
512,152,200260,1,0,0:0:0:0:
360,40,200435,6,0,P|284:32|240:104,1,152.999995330811
400,160,201132,2,0,P|412:268|368:304,1,152.999995330811
216,336,201656,2,0,L|168:316,1,38.2499988327027
152,304,201830,2,0,P|112:272|116:172,1,152.999995330811
188,40,202353,2,0,L|236:48,1,38.2499988327027
372,60,202528,1,0,0:0:0:0:
316,256,202702,1,0,0:0:0:0:
132,188,202877,1,0,0:0:0:0:
248,44,203051,1,0,0:0:0:0:
92,72,203225,5,0,0:0:0:0:
120,97,203312,1,0,0:0:0:0:
151,119,203399,1,0,0:0:0:0:
186,135,203486,1,0,0:0:0:0:
223,145,203573,1,0,0:0:0:0:
261,148,203661,1,0,0:0:0:0:
299,145,203748,1,0,0:0:0:0:
336,135,203835,1,0,0:0:0:0:
372,124,203923,2,0,L|432:164,7,38.2499988327027
428,164,204621,5,0,0:0:0:0:
444,198,204708,1,0,0:0:0:0:
443,235,204795,1,0,0:0:0:0:
420,266,204882,1,0,0:0:0:0:
389,288,204969,1,0,0:0:0:0:
355,305,205057,1,0,0:0:0:0:
320,321,205144,1,0,0:0:0:0:
285,335,205231,1,0,0:0:0:0:
252,332,205318,2,0,L|192:324,3,38.2499988327027
192,320,205667,2,0,L|148:308,3,38.2499988327027
128,296,206016,5,0,0:0:0:0:
93,279,206103,1,0,0:0:0:0:
66,253,206190,1,0,0:0:0:0:
48,219,206277,1,0,0:0:0:0:
41,182,206364,1,0,0:0:0:0:
47,144,206452,1,0,0:0:0:0:
64,110,206539,1,0,0:0:0:0:
91,83,206626,1,0,0:0:0:0:
112,64,206714,2,0,B|152:96|200:72|136:200,1,152.999995330811
296,168,207237,1,0,0:0:0:0:
388,56,207411,6,0,L|448:72,3,38.2499988327027
396,176,207760,2,0,L|340:164,3,38.2499988327027
320,264,208109,2,0,L|376:284,3,38.2499988327027
264,332,208458,2,0,L|212:308,3,38.2499988327027
208,324,208807,1,0,0:0:0:0:
170,329,208894,1,0,0:0:0:0:
135,315,208981,1,0,0:0:0:0:
109,287,209068,1,0,0:0:0:0:
92,253,209155,1,0,0:0:0:0:
79,217,209243,1,0,0:0:0:0:
69,180,209330,1,0,0:0:0:0:
61,143,209417,1,0,0:0:0:0:
64,120,209504,2,0,L|116:64,3,76.4999976654053
240,40,210202,6,0,L|284:80,1,38.2499988327027
372,64,210377,2,0,L|424:100,1,38.2499988327027
384,192,210551,2,0,L|440:240,1,38.2499988327027
312,304,210725,2,0,L|344:340,1,38.2499988327027
144,312,210900,1,0,0:0:0:0:
72,172,211074,1,0,0:0:0:0:
200,80,211249,1,0,0:0:0:0:
24,40,211423,1,0,0:0:0:0:
156,20,211597,5,0,0:0:0:0:
189,39,211684,1,0,0:0:0:0:
224,52,211771,1,0,0:0:0:0:
262,59,211858,1,0,0:0:0:0:
300,54,211945,1,0,0:0:0:0:
300,76,212033,1,0,0:0:0:0:
298,104,212120,1,0,0:0:0:0:
308,136,212207,1,0,0:0:0:0:
328,148,212295,2,0,L|376:168,3,38.2499988327027
388,184,212644,2,0,L|404:248,3,38.2499988327027
408,252,212993,5,0,0:0:0:0:
416,289,213080,1,0,0:0:0:0:
400,321,213167,1,0,0:0:0:0:
364,334,213254,1,0,0:0:0:0:
326,338,213341,1,0,0:0:0:0:
288,337,213429,1,0,0:0:0:0:
250,335,213516,1,0,0:0:0:0:
212,332,213603,1,0,0:0:0:0:
184,320,213690,2,0,L|112:180,1,152.999995330811
68,72,214214,2,0,L|108:48,1,38.2499988327027
124,40,214388,6,0,L|204:20,1,76.4999976654053
508,136,214737,1,0,0:0:0:0:
160,184,214911,2,0,L|116:160,1,38.2499988327027
44,168,215086,2,0,P|-20:136|-24:144,1,76.4999976654053
64,248,215435,2,0,P|128:276|160:216,1,114.749996498108
184,268,215784,1,0,0:0:0:0:
217,285,215871,1,0,0:0:0:0:
255,292,215958,1,0,0:0:0:0:
292,287,216045,1,0,0:0:0:0:
327,271,216132,1,0,0:0:0:0:
354,245,216220,1,0,0:0:0:0:
372,211,216307,1,0,0:0:0:0:
379,174,216394,1,0,0:0:0:0:
380,152,216481,5,0,0:0:0:0:
208,52,216656,1,0,0:0:0:0:
252,176,216830,1,0,0:0:0:0:
324,0,217004,1,0,0:0:0:0:
428,16,217179,2,0,L|476:0,1,38.2499988327027
456,104,217353,2,0,L|520:88,1,38.2499988327027
472,188,217528,2,0,L|536:180,1,38.2499988327027
472,272,217702,2,0,L|520:272,1,38.2499988327027
456,352,217877,2,0,P|432:264|368:244,1,152.999995330811
304,272,218400,2,0,L|272:308,1,38.2499988327027
256,316,218574,5,0,0:0:0:0:
224,316,218661,1,0,0:0:0:0:
200,304,218749,2,0,L|160:288,1,38.2499988327027
136,280,218923,1,0,0:0:0:0:
104,264,219010,1,0,0:0:0:0:
84,244,219097,2,0,L|64:200,1,38.2499988327027
56,184,219272,2,0,B|32:128|0:92|56:24,1,152.999995330811
232,48,219795,1,0,0:0:0:0:
240,52,219882,1,0,0:0:0:0:
248,56,219970,1,0,0:0:0:0:
512,200,220144,1,0,0:0:0:0:
412,0,220318,1,0,0:0:0:0:
344,292,220493,2,0,L|308:320,1,38.2499988327027
288,320,220667,5,0,0:0:0:0:
128,16,220842,1,0,0:0:0:0:
88,352,221016,1,0,0:0:0:0:
88,352,221190,1,0,0:0:0:0:
68,180,221365,2,0,P|36:144|52:92,1,76.4999976654053
148,144,221714,2,0,P|204:172|204:212,1,76.4999976654053
140,232,222063,2,0,P|140:280|188:292,1,76.4999976654053
300,324,222411,1,0,0:0:0:0:
412,232,222586,1,0,0:0:0:0:
512,116,222760,1,0,0:0:0:0:
512,104,222935,1,0,0:0:0:0:
392,8,223109,1,0,0:0:0:0:
392,16,223284,1,0,0:0:0:0:
232,56,223458,6,0,B|208:104|176:148|96:140,1,152.999995330811
160,32,224156,2,0,P|212:44|248:132,1,152.999995330811
240,136,224766,1,0,0:0:0:0:
232,144,224853,2,0,P|188:196|248:248,1,152.999995330811
248,248,225464,1,0,0:0:0:0:
232,260,225551,2,0,L|208:292,1,25.4999992218018
192,276,225725,2,0,L|152:272,1,25.4999992218018
140,248,225900,2,0,L|120:224,1,25.4999992218018
108,200,226074,2,0,L|108:168,1,25.4999992218018
108,156,226249,6,0,P|120:124|168:80,1,76.4999976654053
224,60,226597,5,0,0:0:0:0:
236,68,226685,1,0,0:0:0:0:
248,76,226772,1,0,0:0:0:0:
264,88,226859,1,0,0:0:0:0:
272,132,226946,2,0,B|364:44|460:192|256:296|256:296|52:192|120:48|244:136,1,680
408,200,230435,6,0,P|424:256|396:276,1,85
264,228,230958,1,0,0:0:0:0:
132,120,231132,2,0,P|160:96|212:80,1,85
260,20,231656,2,0,L|344:52,1,85
420,104,232179,2,0,L|424:200,1,85
388,292,232702,1,0,0:0:0:0:
388,292,232877,1,0,0:0:0:0:
244,292,233051,1,0,0:0:0:0:
248,296,233225,1,0,0:0:0:0:
152,172,233574,5,0,0:0:0:0:
156,176,233749,2,0,P|184:200|232:168,1,85
256,60,234272,1,0,0:0:0:0:
364,104,234446,2,0,P|428:132|432:152,1,85
400,320,234970,1,0,0:0:0:0:
256,216,235144,1,0,0:0:0:0:
120,80,235318,6,0,L|80:164,1,85
84,164,235842,2,0,L|184:164,1,85
184,160,236365,2,0,P|232:144|288:84,1,127.5
288,96,237063,6,0,P|248:88|240:96,1,42.5
236,84,237324,1,0,0:0:0:0:
216,75,237411,1,0,0:0:0:0:
195,71,237498,1,0,0:0:0:0:
174,71,237585,1,0,0:0:0:0:
153,75,237672,1,0,0:0:0:0:
133,83,237760,1,0,0:0:0:0:
116,95,237847,1,0,0:0:0:0:
100,109,237934,1,0,0:0:0:0:
88,127,238021,1,0,0:0:0:0:
84,144,238109,6,0,B|72:188|144:192|252:96,1,212.5
348,84,240202,2,0,P|376:72|364:96,1,74.375
356,236,240900,2,0,B|352:240|360:216|360:216|340:236|340:236|352:212|352:212|332:232|332:232|344:208|344:208|324:228|324:228|336:204|336:204|316:224|316:224|328:200|328:200|308:220|308:220|320:196|320:196|300:216|300:216|312:192|312:192|292:212|292:212|304:188|304:188|296:200|296:200,1,416.499987289429
128,112,243690,6,0,B|80:148|88:236|140:280,2,178.499994552612
284,64,246307,5,0,0:0:0:0:
296,64,246394,1,0,0:0:0:0:
308,64,246481,2,0,P|368:68|372:64,1,59.4999981842042
396,116,247528,5,0,0:0:0:0:
404,112,247615,1,0,0:0:0:0:
412,108,247702,2,0,P|352:264|60:184,1,531.25
